osu file format v14

[General]
AudioFilename: audio.mp3
AudioLeadIn: 0
PreviewTime: 76976
Countdown: 0
SampleSet: Normal
StackLeniency: 0.6
Mode: 0
LetterboxInBreaks: 0
WidescreenStoryboard: 1

[Editor]
Bookmarks: 38576,76774,115289,153655,172838,211376
DistanceSpacing: 1
BeatDivisor: 4
GridSize: 32
TimelineZoom: 2.1

[Metadata]
Title:Geist
TitleUnicode:Geist
Artist:Harito
ArtistUnicode:Harito
Creator:MaridiuS
Version:Easy
Source:
Tags:instrumental [MaRy] Artcore Electronic edm Sin:cK Street
BeatmapID:2220187
BeatmapSetID:1015012

[Difficulty]
HPDrainRate:2
CircleSize:3
OverallDifficulty:3
ApproachRate:4
SliderMultiplier:0.799999999999999
SliderTickRate:1

[Events]
//Background and Video events
0,0,"39b7fdb9-66a9-4c28-cc82-fa6fe792ac2d.jpg",0,0
//Break Periods
//Storyboard Layer 0 (Background)
//Storyboard Layer 1 (Fail)
//Storyboard Layer 2 (Pass)
//Storyboard Layer 3 (Foreground)
//Storyboard Layer 4 (Overlay)
//Storyboard Sound Samples

[TimingPoints]
19449,300,4,2,0,70,1,0
19449,-133.333333333333,4,2,0,50,0,0
38649,-100,4,2,1,70,0,0
57849,-133.333333333333,4,2,0,70,0,0
75849,-133.333333333333,4,2,3,70,0,0
77049,-100,4,2,1,70,0,0
115449,-100,4,2,1,70,0,0
173049,-90.9090909090909,4,1,1,80,0,1
191649,-133.333333333333,4,1,1,70,0,0
191724,-133.333333333333,4,1,1,5,0,0
191799,-90.9090909090909,4,1,1,70,0,0
191874,-133.333333333333,4,1,1,5,0,0
191949,-133.333333333333,4,1,1,70,0,0
192024,-133.333333333333,4,1,1,5,0,0
192099,-133.333333333333,4,1,1,70,0,0
192174,-133.333333333333,4,1,1,5,0,0
192249,-90.9090909090909,4,1,1,80,0,1
210249,-100,4,1,1,70,0,0
210324,-133.333333333333,4,1,1,5,0,0
210399,-133.333333333333,4,1,1,70,0,0
210474,-133.333333333333,4,1,1,5,0,0
210549,-133.333333333333,4,1,1,70,0,0
210624,-133.333333333333,4,1,1,5,0,0
210699,-133.333333333333,4,1,1,70,0,0
210774,-133.333333333333,4,1,1,5,0,0
210849,-133.333333333333,4,1,1,70,0,0

[Colours]
Combo1 : 188,149,12
Combo2 : 215,147,172
Combo3 : 6,203,219
Combo4 : 97,173,50
Combo5 : 204,0,5

[HitObjects]
397,318,38649,6,0,P|312:350|164:305,1,240,0|8,1:2|0:2,0:0:0:0:
118,254,39849,1,4,1:3:0:0:
242,153,40449,1,10,0:2:0:0:
117,53,41049,1,0,1:2:0:0:
276,50,41649,2,0,L|401:50,1,79.9999999999999,8|8,0:2|0:2,0:0:0:0:
435,49,42249,1,4,1:3:0:0:
429,128,42549,2,0,L|420:275,1,120,8|8,0:2|0:2,0:0:0:0:
413,367,43449,6,0,L|257:284,1,160,0|8,1:2|0:2,0:0:0:0:
201,253,44349,1,8,0:2:0:0:
136,205,44649,1,4,1:3:0:0:
37,330,45249,1,8,0:2:0:0:
193,364,45849,1,0,1:2:0:0:
291,237,46449,2,0,L|283:134,1,79.9999999999999,8|8,0:2|0:2,0:0:0:0:
271,78,47049,1,4,1:3:0:0:
342,42,47349,2,0,L|477:73,1,120,8|8,0:2|0:2,0:0:0:0:
496,182,48249,6,0,P|421:208|320:182,1,160,0|8,1:2|0:2,0:0:0:0:
212,101,49449,2,0,P|137:75|36:101,1,160,4|8,1:3|0:2,0:0:0:0:
16,156,50349,1,8,0:2:0:0:
52,227,50649,1,0,1:2:0:0:
207,188,51249,1,8,0:2:0:0:
358,137,51849,1,4,1:3:0:0:
429,173,52149,2,0,L|445:293,1,120,8|8,0:2|0:2,0:0:0:0:
332,335,53049,6,0,P|232:375|88:321,1,240,0|8,1:2|0:2,0:0:0:0:
90,261,54249,1,4,1:3:0:0:
195,141,54849,1,8,0:2:0:0:
99,12,55449,1,4,1:2:0:0:
2,139,56049,2,0,L|101:150,1,79.9999999999999,8|8,0:2|0:2,0:0:0:0:
161,154,56649,1,4,1:3:0:0:
237,130,56949,2,0,L|358:96,1,120,8|8,0:2|0:2,0:0:0:0:
458,71,57849,6,0,B|499:154|425:235|489:319,1,240.000009155273,6|2,3:2|3:2,0:0:0:0:
217,75,60249,2,0,B|176:158|250:239|186:323,1,240.000009155273,2|2,3:2|0:2,0:0:0:0:
71,58,62649,2,0,P|166:17|423:76,1,360.00001373291,2|2,0:2|0:2,0:0:0:0:
415,197,65049,2,0,P|320:238|63:179,1,360.00001373291,2|2,0:2|0:2,0:0:0:0:
129,66,67449,6,0,B|179:37|292:114|370:61,1,240.000009155273,2|2,3:2|0:2,0:0:0:0:
441,155,69249,1,2,0:2:0:0:
353,236,69849,2,0,B|302:264|190:188|112:241,1,240.000009155273,2|2,3:2|3:2,0:0:0:0:
57,340,71649,1,8,0:2:0:0:
13,228,72249,2,0,P|-9:123|193:54,1,360.00001373291,2|2,3:2|0:2,0:0:0:0:
305,27,74649,2,0,P|371:41|450:117,1,180.000006866455,2|2,3:2|0:2,0:0:0:0:
363,149,75849,2,0,P|271:144|192:100,1,180.000006866455,2|2,3:2|1:2,0:0:0:0:
110,72,77049,6,0,L|130:241,1,160,4|8,1:3|1:1,0:0:0:0:
146,308,77949,1,0,1:2:0:0:
217,271,78249,2,0,P|259:257|322:268,1,79.9999999999999,2|0,2:0|1:2,0:0:0:0:
372,273,78849,2,0,P|385:315|375:378,1,79.9999999999999,8|2,0:1|1:2,0:0:0:0:
308,376,79449,2,0,P|215:371|143:321,1,160,0|8,1:0|0:1,0:0:0:0:
116,183,80649,1,2,1:2:0:0:
99,104,80949,1,2,1:2:0:0:
19,103,81249,2,0,L|9:199,1,79.9999999999999,8|2,0:1|1:2,0:0:0:0:
0,261,81849,6,0,P|70:288|172:259,1,160,0|8,1:2|0:1,0:0:0:0:
254,150,83049,2,0,P|303:139|349:155,1,79.9999999999999,2|2,0:2|1:2,0:0:0:0:
396,192,83649,1,8,0:1:0:0:
399,271,83949,1,2,1:2:0:0:
342,327,84249,2,0,P|393:354|507:320,1,160,0|8,1:2|0:1,0:0:0:0:
494,174,85449,1,2,1:2:0:0:
476,95,85749,2,0,L|460:17,2,79.9999999999999,2|8|2,1:2|0:1|1:2,0:0:0:0:
417,149,86649,6,0,P|356:177|251:132,1,160,0|8,1:2|0:1,0:0:0:0:
151,49,87849,2,0,P|111:39|56:57,1,79.9999999999999,0|0,1:2|1:2,0:0:0:0:
10,95,88449,1,8,0:1:0:0:
11,174,88749,1,2,1:2:0:0:
83,208,89049,1,0,1:2:0:0:
229,144,89649,1,8,0:1:0:0:
386,173,90249,2,0,L|378:278,1,79.9999999999999,2|2,1:2|1:2,0:0:0:0:
362,331,90849,1,8,0:1:0:0:
282,336,91149,1,2,1:2:0:0:
230,274,91449,6,0,L|211:99,1,160,0|8,1:2|0:1,0:0:0:0:
348,22,92649,2,0,P|410:3|519:36,1,160,2|8,1:2|0:1,0:0:0:0:
510,103,93549,1,0,1:2:0:0:
488,180,93849,2,0,L|483:285,1,79.9999999999999,0|0,1:2|0:2,0:0:0:0:
405,245,94449,2,0,L|410:350,1,79.9999999999999,8|0,0:1|1:2,0:0:0:0:
334,354,95049,1,2,1:2:0:0:
254,346,95349,1,2,1:2:0:0:
174,335,95649,1,8,0:1:0:0:
94,323,95949,1,0,0:2:0:0:
14,311,96249,6,0,L|2:231,1,79.9999999999999,6|2,1:2|0:2,0:0:0:0:
28,156,96849,1,8,0:1:0:0:
142,51,97449,1,2,1:2:0:0:
221,53,97749,2,0,L|329:63,1,79.9999999999999,2|8,0:2|0:1,0:0:0:0:
431,152,98649,1,2,1:2:0:0:
354,175,98949,2,0,L|265:197,1,79.9999999999999,2|8,0:2|0:1,0:0:0:0:
147,288,99849,1,2,1:2:0:0:
285,368,100449,1,8,0:1:0:0:
399,256,101049,5,2,1:2:0:0:
428,181,101349,2,0,P|440:146|425:89,1,79.9999999999999,2|8,0:2|0:1,0:0:0:0:
281,52,102249,1,2,1:2:0:0:
252,127,102549,2,0,P|240:162|255:219,1,79.9999999999999,2|8,0:2|0:1,0:0:0:0:
277,360,103449,1,2,1:2:0:0:
197,352,103749,2,0,P|161:325|133:275,1,79.9999999999999,2|8,0:2|0:1,0:0:0:0:
90,144,104649,1,2,1:2:0:0:
162,109,104949,2,0,P|206:114|255:143,1,79.9999999999999,2|8,0:2|0:1,0:0:0:0:
227,279,105849,5,2,1:2:0:0:
227,279,106149,2,0,P|271:289|322:266,1,79.9999999999999,2|8,0:2|0:1,0:0:0:0:
414,156,107049,1,2,1:2:0:0:
414,156,107349,2,0,P|458:146|509:169,1,79.9999999999999,2|8,0:2|0:1,0:0:0:0:
435,311,108249,1,2,1:2:0:0:
435,311,108549,2,0,P|391:321|340:298,1,79.9999999999999,2|8,0:2|0:1,0:0:0:0:
229,214,109449,1,2,1:2:0:0:
229,214,109749,2,0,P|185:204|134:227,1,79.9999999999999,2|8,1:2|0:1,0:0:0:0:
19,301,110649,6,0,L|21:202,1,79.9999999999999,2|2,1:2|0:2,0:0:0:0:
21,140,111249,1,8,1:1:0:0:
163,68,111849,2,0,L|161:167,1,79.9999999999999,2|2,1:2|0:2,0:0:0:0:
159,229,112449,1,8,0:2:0:0:
266,350,113049,2,0,L|365:352,1,79.9999999999999,2|2,1:2|0:2,0:0:0:0:
427,354,113649,1,8,0:1:0:0:
460,197,114249,2,0,L|361:195,1,79.9999999999999,2|2,1:2|1:2,0:0:0:0:
299,193,114849,1,8,0:1:0:0:
242,78,115449,5,4,1:2:0:0:
242,78,115749,2,0,L|120:199,1,160,10|8,0:3|0:2,0:0:0:0:
47,231,116649,1,0,1:2:0:0:
47,231,116949,2,0,L|43:135,1,79.9999999999999,10|4,0:3|1:2,0:0:0:0:
173,266,117849,2,0,L|299:277,1,120,4|4,1:3|1:3,0:0:0:0:
412,286,118749,1,0,0:2:0:0:
394,207,119049,2,0,L|363:32,1,160,8|8,0:2|0:2,0:0:0:0:
292,19,119949,1,8,0:2:0:0:
225,64,120249,5,0,1:3:0:0:
225,64,120549,2,0,L|261:224,1,160,10|10,0:3|0:2,0:0:0:0:
278,304,121449,1,2,0:2:0:0:
278,304,121749,2,0,L|187:294,1,79.9999999999999,10|10,0:3|0:2,0:0:0:0:
120,281,122349,1,0,1:2:0:0:
40,270,122649,1,0,1:2:0:0:
163,168,123249,1,4,1:3:0:0:
41,63,123849,2,0,L|172:34,1,120,4|4,1:3|1:3,0:0:0:0:
249,115,124749,1,8,0:2:0:0:
327,67,125049,5,0,1:2:0:0:
327,67,125349,2,0,B|346:138|346:138|325:233,1,160,10|10,0:3|0:0,0:0:0:0:
274,282,126249,1,2,1:2:0:0:
274,282,126549,2,0,L|280:369,1,79.9999999999999,10|0,0:3|1:2,0:0:0:0:
438,379,127449,2,0,L|446:246,1,120,4|4,1:3|1:3,0:0:0:0:
475,143,128349,1,0,1:2:0:0:
426,79,128649,2,0,L|378:10,2,79.9999999999999,0|10|8,1:2|1:3|0:2,0:0:0:0:
391,151,129549,1,8,0:2:0:0:
431,232,129849,5,0,1:2:0:0:
431,232,130149,2,0,B|350:246|350:246|267:230,1,160,10|10,0:3|0:2,0:0:0:0:
202,194,131049,1,2,1:2:0:0:
202,194,131349,2,0,B|121:180|121:180|38:196,1,160,10|10,0:3|0:0,0:0:0:0:
49,274,132249,1,0,1:2:0:0:
202,317,132849,1,4,1:3:0:0:
354,268,133449,2,0,L|325:144,2,120,4|4|10,1:3|1:3|0:2,0:0:0:0:
372,352,134649,5,0,1:2:0:0:
372,352,134949,2,0,P|424:322|428:221,1,160,10|8,0:3|0:2,0:0:0:0:
400,156,135849,1,0,1:2:0:0:
400,156,136149,2,0,P|385:117|383:76,1,79.9999999999999,10|0,0:3|1:2,0:0:0:0:
395,0,136749,1,0,1:2:0:0:
315,11,137049,2,0,L|186:26,1,120,4|4,1:3|1:3,0:0:0:0:
76,40,137949,1,0,1:2:0:0:
104,121,138249,1,0,1:2:0:0:
104,121,138549,2,0,P|141:132|194:119,1,79.9999999999999,10|8,1:3|0:2,0:0:0:0:
250,80,139149,1,8,0:2:0:0:
331,100,139449,5,0,1:2:0:0:
331,100,139749,2,0,P|348:184|333:267,1,160,10|10,0:3|0:2,0:0:0:0:
262,287,140649,1,0,1:2:0:0:
262,287,140949,2,0,P|210:297|173:278,1,79.9999999999999,10|8,0:3|0:2,0:0:0:0:
147,217,141549,1,8,0:2:0:0:
122,140,141849,1,0,0:2:0:0:
22,264,142449,1,4,1:3:0:0:
154,354,143049,2,0,L|284:331,1,120,4|4,1:3|1:3,0:0:0:0:
390,311,143949,1,10,0:2:0:0:
467,349,144249,5,0,1:2:0:0:
467,349,144549,2,0,B|495:298|426:245|458:189,1,160,10|10,0:3|0:2,0:0:0:0:
494,124,145449,1,0,1:2:0:0:
494,124,145749,2,0,P|451:110|402:114,1,79.9999999999999,10|6,0:3|1:2,0:0:0:0:
338,127,146349,1,2,1:2:0:0:
350,205,146649,2,0,L|365:334,1,120,4|4,1:3|1:3,0:0:0:0:
248,292,147549,1,0,0:2:0:0:
168,300,147849,2,0,L|176:217,1,79.9999999999999,0|10,1:2|1:3,0:0:0:0:
153,143,148449,2,0,L|145:60,1,79.9999999999999,8|8,0:2|0:2,0:0:0:0:
71,32,149049,5,2,1:2:0:0:
71,32,149349,2,0,P|57:83|92:198,1,160,10|2,0:3|1:2,0:0:0:0:
157,233,150249,1,2,1:2:0:0:
157,233,150549,2,0,P|199:245|245:238,1,79.9999999999999,10|0,0:3|1:2,0:0:0:0:
294,188,151149,1,10,0:2:0:0:
327,115,151449,1,10,0:2:0:0:
458,205,152049,1,4,1:3:0:0:
350,323,152649,2,0,L|228:299,2,120,4|4|2,1:3|1:3|1:2,0:0:0:0:
438,336,153849,5,2,1:2:0:0:
438,336,154149,2,0,P|421:268|437:176,1,160,10|0,0:3|1:2,0:0:0:0:
444,100,155049,1,0,1:2:0:0:
444,100,155349,2,0,P|393:89|362:102,2,79.9999999999999,10|8|0,0:3|0:2|1:2,0:0:0:0:
440,185,156249,5,0,1:2:0:0:
440,185,156549,2,0,P|372:202|280:186,1,160,10|0,0:3|1:2,0:0:0:0:
204,179,157449,1,0,1:2:0:0:
204,179,157749,2,0,P|193:230|206:261,2,79.9999999999999,10|8|0,0:3|0:2|1:2,0:0:0:0:
215,99,158649,5,0,1:2:0:0:
215,99,158949,2,0,P|272:64|375:64,1,160,10|0,0:3|1:2,0:0:0:0:
394,145,159849,1,0,1:2:0:0:
394,145,160149,2,0,P|336:179|234:180,1,160,10|0,0:3|1:2,0:0:0:0:
165,171,161049,1,0,1:2:0:0:
165,171,161349,2,0,P|99:187|27:259,1,160,10|0,0:3|1:2,0:0:0:0:
70,330,162249,1,0,1:2:0:0:
70,330,162549,2,0,P|135:313|207:241,1,160,10|0,0:3|1:2,0:0:0:0:
138,203,163449,6,0,L|105:46,1,160,0|0,1:2|1:2,0:0:0:0:
185,46,164349,1,0,1:2:0:0:
264,39,164649,2,0,L|244:211,1,160,0|0,1:2|0:0,0:0:0:0:
325,199,165549,1,0,1:2:0:0:
404,204,165849,2,0,L|376:31,3,160,0|0|0|0,1:2|1:2|1:2|1:2,0:0:0:0:
256,192,168249,12,0,171849,1:2:0:0:
137,44,173049,6,0,B|184:22|184:22|277:41,1,132.00000402832,2|2,0:0|0:0,0:0:0:0:
346,64,173799,1,10,0:3:0:0:
407,180,174249,2,0,B|380:230|380:230|377:315,1,132.00000402832,2|10,0:3|0:3,0:0:0:0:
432,374,174999,1,8,0:0:0:0:
300,371,175449,2,0,L|199:360,1,88.0000026855468,2|8,0:0|0:0,0:0:0:0:
125,346,176049,1,2,2:0:0:0:
72,275,176349,1,0,0:0:0:0:
120,201,176649,2,0,L|211:221,1,88.0000026855468,0|8,0:0|0:0,0:0:0:0:
290,243,177249,1,0,0:0:0:0:
354,182,177549,1,8,0:0:0:0:
321,100,177849,6,0,L|340:7,1,88.0000026855468,2|8,0:3|0:0,0:0:0:0:
426,14,178449,2,0,L|445:107,1,88.0000026855468,2|2,0:3|0:0,0:0:0:0:
467,184,179049,2,0,B|415:202|415:202|325:190,1,132.00000402832,2|10,0:0|0:0,0:0:0:0:
251,177,179799,1,10,0:0:0:0:
139,106,180249,2,0,B|123:148|123:148|134:241,1,132.00000402832,2|2,0:0|0:0,0:0:0:0:
158,318,180999,1,10,0:0:0:0:
280,269,181449,1,2,0:3:0:0:
284,181,181749,1,10,0:3:0:0:
289,93,182049,2,0,L|275:1,1,88.0000026855468,2|8,0:3|0:3,0:0:0:0:
363,18,182649,6,0,B|398:40|398:40|503:31,1,132.00000402832,10|2,0:0|0:0,0:0:0:0:
460,116,183399,1,10,0:0:0:0:
496,242,183849,2,0,B|474:277|474:277|483:382,1,132.00000402832,2|8,0:0|0:0,0:0:0:0:
395,346,184599,1,10,0:0:0:0:
265,370,185049,6,0,B|243:335|243:335|252:230,1,132.00000402832,2|2,0:0|0:0,0:0:0:0:
271,158,185799,1,10,0:0:0:0:
187,55,186249,1,2,0:0:0:0:
72,113,186699,1,10,0:0:0:0:
70,200,186999,1,10,0:0:0:0:
197,165,187449,6,0,B|237:174|237:174|305:254,1,132.00000402832,2|2,0:0|0:0,0:0:0:0:
302,331,188199,1,10,0:0:0:0:
391,234,188649,1,2,0:0:0:0:
313,126,189099,1,10,0:0:0:0:
362,52,189399,1,10,0:0:0:0:
232,25,189849,6,0,L|142:22,1,88.0000026855468,2|8,2:0|0:0,0:0:0:0:
130,109,190449,2,0,L|220:112,1,88.0000026855468,2|0,2:0|0:0,0:0:0:0:
279,175,191049,1,2,2:3:0:0:
260,350,191649,1,2,2:0:0:0:
416,270,192249,6,0,L|406:173,1,88.0000026855468,2|8,0:1|0:0,0:0:0:0:
363,103,192849,2,0,L|263:86,1,88.0000026855468,2|2,0:2|0:3,0:0:0:0:
188,79,193449,2,0,B|140:100|140:100|52:90,1,132.00000402832,2|10,0:2|0:0,0:0:0:0:
0,27,194199,1,8,0:0:0:0:
2,158,194649,2,0,L|16:260,1,88.0000026855468,2|10,0:0|0:3,0:0:0:0:
101,252,195249,1,2,0:2:0:0:
113,164,195549,1,2,0:2:0:0:
195,197,195849,2,0,B|224:219|224:219|334:211,1,132.00000402832,2|10,0:0|0:0,0:0:0:0:
407,203,196599,1,10,0:0:0:0:
439,330,197049,6,0,L|336:338,1,88.0000026855468,2|10,0:0|0:3,0:0:0:0:
271,300,197649,2,0,L|183:293,1,88.0000026855468,2|0,0:2|0:0,0:0:0:0:
207,208,198249,2,0,B|220:161|220:161|207:62,1,132.00000402832,2|10,0:0|0:0,0:0:0:0:
337,108,199149,1,2,0:0:0:0:
408,57,199449,2,0,B|421:104|421:104|408:203,1,132.00000402832,2|2,0:3|0:3,0:0:0:0:
389,272,200199,1,10,0:3:0:0:
267,220,200649,1,2,0:2:0:0:
187,182,200949,1,8,0:0:0:0:
111,227,201249,2,0,L|22:218,1,88.0000026855468,8|8,0:0|0:0,0:0:0:0:
40,131,201849,6,0,L|28:42,1,88.0000026855468,2|8,0:0|0:0,0:0:0:0:
112,18,202449,2,0,L|124:107,1,88.0000026855468,2|2,0:2|0:2,0:0:0:0:
140,191,203049,1,2,0:0:0:0:
227,192,203349,2,0,L|322:201,1,88.0000026855468,8|0,0:0|0:0,0:0:0:0:
402,206,203949,1,0,0:0:0:0:
479,163,204249,2,0,B|492:194|492:194|483:306,1,132.00000402832,2|2,0:3|0:0,0:0:0:0:
463,377,204999,1,2,0:3:0:0:
331,364,205449,6,0,B|318:333|318:333|327:221,1,132.00000402832,2|10,0:0|0:0,0:0:0:0:
344,148,206199,1,10,0:0:0:0:
300,23,206649,2,0,B|199:15,1,88.0000026855468,2|8,0:0|0:0,0:0:0:0:
124,24,207249,2,0,L|153:110,1,88.0000026855468,2|2,0:2|0:2,0:0:0:0:
105,182,207849,2,0,B|148:202|148:202|253:194,1,132.00000402832,2|10,0:0|0:0,0:0:0:0:
317,175,208599,1,10,0:0:0:0:
446,202,209049,2,0,L|435:298,1,88.0000026855468,2|8,0:0|0:0,0:0:0:0:
419,376,209649,1,0,0:0:0:0:
340,336,209949,1,0,0:0:0:0:
260,369,210249,6,0,P|233:316|255:215,1,160,2|2,2:0|0:3,0:0:0:0:
308,157,211149,1,2,0:3:0:0:
277,78,211449,1,4,0:0:0:0:
