osu file format v14

[General]
AudioFilename: audio.mp3
AudioLeadIn: 0
PreviewTime: 47455
Countdown: 1
SampleSet: Soft
StackLeniency: 0.7
Mode: 0
LetterboxInBreaks: 0
WidescreenStoryboard: 0

[Editor]
Bookmarks: 69449
DistanceSpacing: 0.6
BeatDivisor: 1
GridSize: 8
TimelineZoom: 1

[Metadata]
Title:Huong Dem Bay Xa
TitleUnicode:Hương Đêm Bay Xa
Artist:Hari Won
ArtistUnicode:Hari Won
Creator:Sneaky_Pilot
Version:
Source:
Tags:
BeatmapID:1848423
BeatmapSetID:884315

[Difficulty]
HPDrainRate:6
CircleSize:4.5
OverallDifficulty:7
ApproachRate:9.4
SliderMultiplier:1.4
SliderTickRate:1

[Events]
//Background and Video events
0,0,"huong dem ba xa.jpg",0,0
//Break Periods
//Storyboard Layer 0 (Background)
//Storyboard Layer 1 (Fail)
//Storyboard Layer 2 (Pass)
//Storyboard Layer 3 (Foreground)
//Storyboard Sound Samples

[TimingPoints]
1708,175.953079178886,4,2,0,50,1,0
20007,-117.647058823529,4,2,0,50,0,0
47455,-66.6666666666667,4,2,0,50,0,0
49567,-133.333333333333,4,2,0,50,0,1
74904,-133.333333333333,4,2,0,50,0,0

[HitObjects]
130,103,1708,6,0,P|79:173|91:284,1,140
165,190,2059,2,0,L|309:267,1,140
416,72,2411,5,0,0:0:0:0:
376,248,2587,1,0,0:0:0:0:
210,317,2763,1,0,0:0:0:0:
406,154,2939,5,0,0:0:0:0:
288,288,3115,1,0,0:0:0:0:
125,344,3291,1,0,0:0:0:0:
168,108,3467,5,0,0:0:0:0:
271,170,3643,1,0,0:0:0:0:
165,236,3819,1,0,0:0:0:0:
375,90,3995,6,0,P|445:217|395:261,1,140
359,197,4347,2,0,P|318:336|252:332,1,140,0|0,0:0|0:0,0:3:0:0:
286,243,4699,2,0,P|157:310|114:260,1,140,0|0,0:0|0:0,0:3:0:0:
183,216,5051,2,0,P|39:195|34:129,1,140
152,129,5403,2,0,P|33:45|59:-15,1,140
329,100,5754,6,0,L|413:229,1,140
261,156,6106,1,0,0:0:0:0:
320,241,6282,1,0,0:0:0:0:
228,235,6458,2,0,L|60:299,1,140
118,94,6810,1,0,0:0:0:0:
394,117,6986,1,0,0:0:0:0:
216,337,7162,1,0,0:0:0:0:
249,68,7338,6,0,L|347:226,1,140
207,165,7690,2,0,L|83:231,1,140
356,288,8042,2,0,B|397:246|397:246|326:167,1,140
260,149,8394,2,0,B|219:191|219:191|290:270,1,140
93,264,8746,5,0,0:0:0:0:
235,70,8922,1,0,0:0:0:0:
353,242,9098,1,0,0:0:0:0:
86,83,9273,1,0,0:0:0:0:
76,293,9449,2,0,L|224:216,1,140
389,126,9801,1,0,0:0:0:0:
50,207,9977,2,0,L|216:200,1,140
404,188,10329,1,0,0:0:0:0:
132,323,10505,6,0,P|231:314|296:284,1,140
186,237,10857,2,0,P|281:209|339:167,1,140
175,152,11209,1,0,0:0:0:0:
266,120,11385,1,0,0:0:0:0:
400,317,11561,1,0,0:0:0:0:
432,99,11737,6,0,L|232:157,1,140
70,299,12089,2,0,L|90:150,1,140
435,53,12441,1,0,0:0:0:0:
208,233,12617,1,0,0:0:0:0:
420,164,12793,1,0,0:0:0:0:
217,334,12968,1,0,0:0:0:0:
243,56,13144,6,0,L|83:102,1,140
201,150,13496,2,0,L|54:202,1,140
197,241,13848,2,0,L|48:290,1,140
349,123,14200,5,0,0:0:0:0:
224,272,14376,1,0,0:0:0:0:
349,123,14552,5,0,0:0:0:0:
190,237,14728,1,0,0:0:0:0:
349,123,14904,5,0,0:0:0:0:
224,272,15080,1,0,0:0:0:0:
74,108,15256,6,0,P|232:92|254:118,1,140
414,87,15608,1,0,0:0:0:0:
203,157,15784,1,0,0:0:0:0:
366,232,15960,1,0,0:0:0:0:
184,312,16136,1,0,0:0:0:0:
324,319,16312,6,0,P|228:191|239:159,1,140
144,66,16664,2,0,L|326:72,1,140
415,121,17015,2,0,L|437:304,1,140
299,199,17367,2,0,B|133:200|138:200|83:316,1,140
155,124,17719,1,0,0:0:0:0:
276,126,17895,1,0,0:0:0:0:
257,275,18071,1,0,0:0:0:0:
145,273,18247,1,0,0:0:0:0:
429,85,18423,6,0,L|227:61,1,140
272,114,18775,2,0,L|98:211,1,140
159,209,19127,2,0,L|117:370,1,140
129,88,20007,6,0,L|279:160,1,119.000002269745
140,194,20359,2,0,L|290:266,1,119.000002269745
145,291,20710,2,0,L|295:363,1,119.000002269745
404,87,21238,5,0,0:0:0:0:
311,48,21414,2,0,P|367:163|400:141,1,119.000002269745,0|0,0:3|0:3,0:3:0:0:
368,203,21766,1,0,0:0:0:0:
301,263,21942,1,0,0:0:0:0:
219,301,22118,1,0,0:0:0:0:
219,301,22294,2,0,L|165:127,1,119.000002269745
171,151,22646,1,0,0:0:0:0:
154,112,22822,1,0,0:0:0:0:
380,88,22998,6,0,L|246:198,1,119.000002269745
367,193,23350,2,0,L|245:318,1,119.000002269745
191,319,23702,1,0,0:0:0:0:
91,124,23878,1,0,0:0:0:0:
211,108,24054,2,0,L|369:92,1,119.000002269745
403,268,24405,1,0,0:0:0:0:
312,279,24581,2,0,L|96:292,1,119.000002269745
193,286,24933,2,0,L|87:184,1,119.000002269745
401,63,25285,5,0,0:0:0:0:
206,101,25461,1,0,0:0:0:0:
352,232,25637,1,0,0:0:0:0:
72,264,25813,2,0,L|236:206,1,119.000002269745
260,198,26165,1,0,0:0:0:0:
360,157,26341,1,0,0:0:0:0:
156,73,26517,1,0,0:0:0:0:
110,298,26693,6,0,L|245:299,1,119.000002269745
313,296,27045,2,0,P|409:221|373:148,1,119.000002269745
388,74,27397,1,0,0:0:0:0:
87,151,27573,1,0,0:0:0:0:
300,239,27749,1,0,0:0:0:0:
218,73,27925,1,0,0:0:0:0:
150,239,28100,2,0,P|196:348|277:308,1,119.000002269745
228,274,28452,2,0,P|171:169|94:216,1,119.000002269745
393,68,29156,6,0,L|193:81,1,119.000002269745
387,67,29508,2,0,L|291:162,1,119.000002269745
387,67,29860,2,0,L|428:211,1,119.000002269745
340,267,30212,5,0,0:0:0:0:
256,296,30388,1,0,0:0:0:0:
176,314,30564,1,0,0:0:0:0:
89,328,30740,1,0,0:0:0:0:
62,246,30916,2,0,L|186:217,1,119.000002269745
254,202,31268,2,0,L|378:173,1,119.000002269745
75,167,31620,5,0,0:0:0:0:
159,138,31796,1,0,0:0:0:0:
238,120,31972,1,0,0:0:0:0:
326,106,32148,1,0,0:0:0:0:
363,221,32323,2,0,L|227:323,1,119.000002269745
236,219,32675,2,0,L|89:205,1,119.000002269745
222,141,33027,2,0,L|131:32,1,119.000002269745
410,86,33379,5,0,0:0:0:0:
64,258,33555,2,0,L|82:114,1,119.000002269745
207,194,33907,1,0,0:0:0:0:
426,214,34083,1,0,0:0:0:0:
273,301,34259,1,0,0:0:0:0:
302,61,34435,2,0,L|112:92,1,119.000002269745
110,234,34787,5,0,0:0:0:0:
374,136,34963,1,0,0:0:0:0:
271,295,35139,1,0,0:0:0:0:
155,87,35315,1,0,0:0:0:0:
438,298,35490,1,0,0:0:0:0:
102,317,35666,6,0,L|231:209,1,119.000002269745
263,184,36018,2,0,L|376:88,1,119.000002269745
103,136,36370,2,0,L|198:47,1,119.000002269745
282,332,36722,2,0,L|367:232,1,119.000002269745
412,84,37074,1,0,0:0:0:0:
166,77,37250,1,0,0:0:0:0:
371,294,37426,1,0,0:0:0:0:
277,192,37602,1,0,0:0:0:0:
132,256,37778,2,0,P|164:332|281:308,1,119.000002269745
394,56,38306,6,0,L|230:125,1,119.000002269745
372,159,38658,2,0,L|234:203,1,119.000002269745
311,262,39010,2,0,L|149:306,1,119.000002269745
124,72,39361,1,0,0:0:0:0:
140,276,39537,1,0,0:0:0:0:
51,177,39713,1,0,0:0:0:0:
255,168,39889,1,0,0:0:0:0:
432,283,40065,6,0,L|421:148,1,119.000002269745
285,312,40417,2,0,L|274:184,1,119.000002269745
105,71,40769,1,0,0:0:0:0:
445,126,40945,1,0,0:0:0:0:
165,316,41121,1,0,0:0:0:0:
286,88,41297,1,0,0:0:0:0:
357,281,41473,6,0,L|229:213,1,119.000002269745
160,189,41825,2,0,L|37:121,1,119.000002269745
433,100,42177,2,0,P|340:92|314:130,1,119.000002269745
376,158,42529,1,0,0:0:0:0:
376,158,42705,1,0,0:0:0:0:
376,158,42881,1,0,0:0:0:0:
337,237,43056,2,0,L|204:291,1,119.000002269745
242,180,43408,2,0,L|104:224,1,119.000002269745
357,82,43760,5,0,0:0:0:0:
189,322,43936,1,0,0:0:0:0:
415,227,44112,1,0,0:0:0:0:
128,114,44288,2,0,P|82:225|85:233,1,119.000002269745
187,232,44640,1,0,0:0:0:0:
224,161,44992,6,0,L|100:89,1,119.000002269745
284,194,45344,2,0,L|160:122,1,119.000002269745
335,222,45696,2,0,L|211:150,1,119.000002269745
395,255,46048,2,0,L|271:183,1,119.000002269745
197,292,46400,5,0,0:0:0:0:
124,177,46576,1,0,0:0:0:0:
204,77,46751,1,0,0:0:0:0:
114,293,46927,5,0,0:0:0:0:
41,178,47103,1,0,0:0:0:0:
121,78,47278,1,0,0:0:0:0:
101,69,48335,5,0,0:0:0:0:
389,134,48511,1,0,0:0:0:0:
116,292,48687,1,0,0:0:0:0:
284,238,48863,1,0,0:0:0:0:
462,302,49039,1,0,0:0:0:0:
261,67,49215,1,0,0:0:0:0:
309,291,49391,1,0,0:0:0:0:
365,116,49567,6,0,L|223:190,1,105.000004005432
161,194,49919,1,0,0:0:0:0:
161,194,50095,1,0,0:0:0:0:
161,194,50271,1,0,0:0:0:0:
221,280,50447,2,0,L|387:232,1,105.000004005432
382,95,50798,5,0,0:0:0:0:
76,280,50974,1,0,0:0:0:0:
346,296,51150,1,0,0:0:0:0:
140,68,51326,1,0,0:0:0:0:
379,201,51502,1,0,0:0:0:0:
201,320,51678,1,0,0:0:0:0:
105,241,51854,6,0,L|236:169,1,105.000004005432
229,174,52206,1,0,0:0:0:0:
261,153,52382,1,0,0:0:0:0:
423,242,52558,2,0,L|409:126,1,105.000004005432
101,327,52910,5,0,0:0:0:0:
277,87,53086,1,0,0:0:0:0:
416,341,53262,1,0,0:0:0:0:
410,68,53438,1,0,0:0:0:0:
123,168,53614,1,0,0:0:0:0:
384,234,53790,1,0,0:0:0:0:
161,307,53966,1,0,0:0:0:0:
302,78,54142,1,0,0:0:0:0:
96,65,54317,1,0,0:0:0:0:
352,313,54493,1,0,0:0:0:0:
137,195,54669,6,0,L|260:185,1,105.000004005432
366,229,55021,2,0,L|250:180,1,105.000004005432
298,61,55373,1,0,0:0:0:0:
133,263,55549,1,0,0:0:0:0:
313,249,55725,1,0,0:0:0:0:
157,105,55901,1,0,0:0:0:0:
437,335,56077,6,0,L|444:197,1,105.000004005432
437,130,56429,2,0,L|374:34,1,105.000004005432
71,249,56781,2,0,L|206:253,1,105.000004005432
77,281,57133,2,0,L|182:355,1,105.000004005432
151,98,57485,5,0,0:0:0:0:
434,175,57661,1,0,0:0:0:0:
222,308,57837,1,0,0:0:0:0:
341,65,58012,1,0,0:0:0:0:
85,247,58188,1,0,0:0:0:0:
374,289,58364,1,0,0:0:0:0:
138,41,58540,1,0,0:0:0:0:
291,173,58716,6,0,L|204:270,1,105.000004005432
280,77,59068,2,0,L|403:81,1,105.000004005432
171,169,59420,2,0,L|312:168,1,105.000004005432
60,256,59772,2,0,L|200:255,1,105.000004005432
397,64,60124,5,0,0:0:0:0:
327,280,60300,1,0,0:0:0:0:
392,153,60476,5,0,0:0:0:0:
199,273,60652,1,0,0:0:0:0:
351,214,60828,5,0,0:0:0:0:
123,214,61004,1,0,0:0:0:0:
120,75,61180,2,0,L|288:91,1,105.000004005432
407,296,61532,2,0,L|256:292,1,105.000004005432
138,274,61883,2,0,L|276:195,1,105.000004005432
440,48,62235,2,0,L|317:163,1,105.000004005432
79,174,62587,2,0,L|211:191,1,105.000004005432
318,322,62939,1,0,0:0:0:0:
238,62,63115,1,0,0:0:0:0:
398,193,63291,1,0,0:0:0:0:
183,270,63467,1,0,0:0:0:0:
391,69,63643,1,0,0:0:0:0:
91,103,63819,1,0,0:0:0:0:
342,275,63995,1,0,0:0:0:0:
131,231,64171,2,0,L|313:156,1,105.000004005432
204,49,64347,2,0,L|314:153,1,105.000004005432
385,187,64699,1,0,0:0:0:0:
71,133,64875,1,0,0:0:0:0:
198,315,65051,1,0,0:0:0:0:
267,53,65227,1,0,0:0:0:0:
165,202,65403,2,0,B|284:206|283:206|240:115,1,105.000004005432
256,192,65754,12,0,67514,0:0:0:0:
156,133,67866,6,0,L|154:243,2,105.000004005432
350,127,68394,6,0,L|348:237,2,105.000004005432
156,133,68922,6,0,L|154:243,2,105.000004005432
350,127,69449,6,0,L|348:237,2,105.000004005432
121,92,69977,1,0,0:0:0:0:
310,164,70153,1,0,0:0:0:0:
148,301,70329,1,0,0:0:0:0:
430,62,70505,1,0,0:0:0:0:
117,210,70681,2,0,L|277:221,1,105.000004005432
373,294,71033,2,0,L|326:167,1,105.000004005432
181,76,71385,2,0,L|312:87,1,105.000004005432
173,314,71737,2,0,L|122:200,1,105.000004005432
456,104,72089,2,0,L|335:140,1,105.000004005432
115,106,72441,1,0,0:0:0:0:
234,187,72617,1,0,0:0:0:0:
98,288,72793,1,0,0:0:0:0:
207,65,72968,1,0,0:0:0:0:
363,307,73144,1,0,0:0:0:0:
151,173,73320,2,0,L|309:176,1,105.000004005432
272,298,73672,2,0,L|363:191,1,105.000004005432
426,271,74024,2,0,L|457:162,1,105.000004005432
182,104,74376,1,0,0:0:0:0:
327,188,74552,1,0,0:0:0:0:
148,288,74728,1,0,0:0:0:0:
325,69,74904,1,0,0:0:0:0:
