osu file format v14

[General]
AudioFilename: audio.mp3
AudioLeadIn: 0
PreviewTime: -1
Countdown: 1
SampleSet: None
StackLeniency: 0.7
Mode: 0
LetterboxInBreaks: 0
WidescreenStoryboard: 0

[Editor]
DistanceSpacing: 1
BeatDivisor: 4
GridSize: 8
TimelineZoom: 0.9

[Metadata]
Title:Follow Me (Club Mix) (ft. Jason Derulo)
TitleUnicode:Follow Me (Club Mix) (ft. Jason Derulo)
Artist:Hardwell
ArtistUnicode:Hardwell
Creator:despicablealex
Version:Normal
Source:
Tags:
BeatmapID:925785
BeatmapSetID:429041

[Difficulty]
HPDrainRate:5
CircleSize:5
OverallDifficulty:5
ApproachRate:5
SliderMultiplier:1.4
SliderTickRate:1

[Events]
//Background and Video events
0,0,"United-We-Are-Beatport-Deluxe-Version-cover.jpg",0,0
//Break Periods
//Storyboard Layer 0 (Background)
//Storyboard Layer 1 (Fail)
//Storyboard Layer 2 (Pass)
//Storyboard Layer 3 (Foreground)
//Storyboard Sound Samples

[TimingPoints]
0,300,4,1,0,100,1,0

[HitObjects]
168,152,75,5,0,0:0:0:0:
168,152,600,1,0,0:0:0:0:
168,152,1125,1,0,0:0:0:0:
168,152,1650,1,0,0:0:0:0:
168,152,2100,1,0,0:0:0:0:
168,152,2625,1,0,0:0:0:0:
168,152,3150,1,0,0:0:0:0:
168,152,3600,1,0,0:0:0:0:
168,152,3975,1,0,0:0:0:0:
168,152,4425,1,0,0:0:0:0:
168,152,4950,1,0,0:0:0:0:
168,152,5400,1,0,0:0:0:0:
168,152,5925,1,0,0:0:0:0:
168,152,6300,1,0,0:0:0:0:
168,152,6825,1,0,0:0:0:0:
168,152,7275,1,0,0:0:0:0:
168,152,7725,1,0,0:0:0:0:
168,152,8100,1,0,0:0:0:0:
168,152,8625,1,0,0:0:0:0:
168,152,9150,1,0,0:0:0:0:
168,152,9675,1,0,0:0:0:0:
168,152,10125,1,0,0:0:0:0:
168,152,10500,1,0,0:0:0:0:
168,152,10950,1,0,0:0:0:0:
168,152,11400,1,0,0:0:0:0:
168,152,11850,1,0,0:0:0:0:
168,152,12375,1,0,0:0:0:0:
168,152,12825,1,0,0:0:0:0:
168,152,13575,1,0,0:0:0:0:
168,152,14100,1,0,0:0:0:0:
168,152,14325,1,0,0:0:0:0:
168,152,14775,1,0,0:0:0:0:
168,152,15225,1,0,0:0:0:0:
168,152,15750,1,0,0:0:0:0:
168,152,16200,1,0,0:0:0:0:
168,152,16650,1,0,0:0:0:0:
168,152,17025,1,0,0:0:0:0:
168,152,17550,1,0,0:0:0:0:
168,152,18000,1,0,0:0:0:0:
168,152,18450,1,0,0:0:0:0:
168,152,18975,1,0,0:0:0:0:
168,152,19500,1,0,0:0:0:0:
168,152,19875,1,0,0:0:0:0:
168,152,20475,1,0,0:0:0:0:
168,152,20850,1,0,0:0:0:0:
168,152,21225,1,0,0:0:0:0:
168,152,21750,1,0,0:0:0:0:
168,152,22275,1,0,0:0:0:0:
168,152,22725,1,0,0:0:0:0:
168,152,23250,1,0,0:0:0:0:
168,152,23700,1,0,0:0:0:0:
168,152,24075,1,0,0:0:0:0:
168,152,24600,1,0,0:0:0:0:
168,152,25050,1,0,0:0:0:0:
168,152,25575,1,0,0:0:0:0:
168,152,26025,1,0,0:0:0:0:
168,152,26475,1,0,0:0:0:0:
168,152,26925,1,0,0:0:0:0:
168,152,27375,1,0,0:0:0:0:
168,152,27900,1,0,0:0:0:0:
168,152,28350,1,0,0:0:0:0:
168,152,28800,1,0,0:0:0:0:
168,152,29025,1,0,0:0:0:0:
168,152,29250,1,0,0:0:0:0:
168,152,29475,1,0,0:0:0:0:
168,152,29850,1,0,0:0:0:0:
168,152,30225,1,0,0:0:0:0:
168,152,30450,1,0,0:0:0:0:
168,152,30675,1,0,0:0:0:0:
168,152,30900,1,0,0:0:0:0:
168,152,31050,1,0,0:0:0:0:
168,152,31350,1,0,0:0:0:0:
168,152,31650,1,0,0:0:0:0:
168,152,31950,1,0,0:0:0:0:
168,152,32250,1,0,0:0:0:0:
168,152,32550,1,0,0:0:0:0:
168,152,32700,1,0,0:0:0:0:
168,152,32925,1,0,0:0:0:0:
168,152,33150,1,0,0:0:0:0:
168,152,33375,1,0,0:0:0:0:
168,152,33600,1,0,0:0:0:0:
168,152,33900,1,0,0:0:0:0:
168,152,34200,1,0,0:0:0:0:
168,152,34500,1,0,0:0:0:0:
168,152,34650,1,0,0:0:0:0:
168,152,34875,1,0,0:0:0:0:
168,152,35100,1,0,0:0:0:0:
168,152,35325,1,0,0:0:0:0:
168,152,35625,1,0,0:0:0:0:
168,152,36150,1,0,0:0:0:0:
168,152,36375,1,0,0:0:0:0:
168,152,36525,1,0,0:0:0:0:
168,152,36750,1,0,0:0:0:0:
168,152,36975,1,0,0:0:0:0:
168,152,37275,1,0,0:0:0:0:
168,152,37500,1,0,0:0:0:0:
168,152,37725,1,0,0:0:0:0:
168,152,37950,1,0,0:0:0:0:
168,152,38175,1,0,0:0:0:0:
168,152,38400,1,0,0:0:0:0:
168,152,38625,1,0,0:0:0:0:
168,152,38850,1,0,0:0:0:0:
168,152,39000,1,0,0:0:0:0:
168,152,39300,1,0,0:0:0:0:
168,152,39525,1,0,0:0:0:0:
168,152,39750,1,0,0:0:0:0:
168,152,39975,1,0,0:0:0:0:
168,152,40200,1,0,0:0:0:0:
168,152,40425,1,0,0:0:0:0:
168,152,40650,1,0,0:0:0:0:
168,152,40875,1,0,0:0:0:0:
168,152,41100,1,0,0:0:0:0:
168,152,41325,1,0,0:0:0:0:
168,152,41550,1,0,0:0:0:0:
168,152,41925,1,0,0:0:0:0:
168,152,42075,1,0,0:0:0:0:
168,152,42300,1,0,0:0:0:0:
168,152,42600,1,0,0:0:0:0:
168,152,42825,1,0,0:0:0:0:
168,152,43050,1,0,0:0:0:0:
168,152,43275,1,0,0:0:0:0:
168,152,43500,1,0,0:0:0:0:
168,152,43725,1,0,0:0:0:0:
168,152,43950,1,0,0:0:0:0:
168,152,44175,1,0,0:0:0:0:
168,152,44700,1,0,0:0:0:0:
192,104,45750,1,0,0:0:0:0:
160,112,47625,1,0,0:0:0:0:
160,112,48075,1,0,0:0:0:0:
184,80,48900,1,0,0:0:0:0:
184,80,49350,1,0,0:0:0:0:
184,80,49950,1,0,0:0:0:0:
176,120,51150,1,0,0:0:0:0:
176,120,51375,1,0,0:0:0:0:
176,120,51675,1,0,0:0:0:0:
176,120,51900,1,0,0:0:0:0:
208,88,52650,1,0,0:0:0:0:
208,88,52950,1,0,0:0:0:0:
208,88,53175,1,0,0:0:0:0:
192,120,54225,1,0,0:0:0:0:
192,120,54450,1,0,0:0:0:0:
192,120,54750,1,0,0:0:0:0:
192,120,54975,1,0,0:0:0:0:
192,120,55200,1,0,0:0:0:0:
192,120,55425,1,0,0:0:0:0:
192,120,55725,1,0,0:0:0:0:
208,152,56475,1,0,0:0:0:0:
208,152,56850,1,0,0:0:0:0:
208,152,57075,1,0,0:0:0:0:
208,152,57300,1,0,0:0:0:0:
208,152,57525,1,0,0:0:0:0:
256,128,58725,1,0,0:0:0:0:
256,128,58950,1,0,0:0:0:0:
256,128,59175,1,0,0:0:0:0:
256,128,59475,1,0,0:0:0:0:
256,152,60600,1,0,0:0:0:0:
256,152,60900,1,0,0:0:0:0:
256,152,61200,1,0,0:0:0:0:
256,152,61425,1,0,0:0:0:0:
256,152,61650,1,0,0:0:0:0:
256,152,61875,1,0,0:0:0:0:
256,152,62100,1,0,0:0:0:0:
256,152,62400,1,0,0:0:0:0:
256,152,62625,1,0,0:0:0:0:
256,152,62925,1,0,0:0:0:0:
256,152,63150,1,0,0:0:0:0:
256,152,64050,1,0,0:0:0:0:
256,152,64425,1,0,0:0:0:0:
256,152,64650,1,0,0:0:0:0:
256,152,64875,1,0,0:0:0:0:
256,152,65175,1,0,0:0:0:0:
256,152,65400,1,0,0:0:0:0:
256,152,65625,1,0,0:0:0:0:
256,152,65925,1,0,0:0:0:0:
256,152,66150,1,0,0:0:0:0:
256,152,66375,1,0,0:0:0:0:
256,152,66600,1,0,0:0:0:0:
256,152,66825,1,0,0:0:0:0:
256,152,67200,1,0,0:0:0:0:
248,176,68250,5,0,0:0:0:0:
248,176,68550,1,0,0:0:0:0:
248,176,68775,1,0,0:0:0:0:
248,176,69075,1,0,0:0:0:0:
248,176,69300,1,0,0:0:0:0:
248,176,69525,1,0,0:0:0:0:
248,176,69825,1,0,0:0:0:0:
248,176,70050,1,0,0:0:0:0:
248,176,70350,1,0,0:0:0:0:
248,176,70575,1,0,0:0:0:0:
248,176,70875,1,0,0:0:0:0:
248,176,71100,1,0,0:0:0:0:
248,176,71325,1,0,0:0:0:0:
248,176,71625,1,0,0:0:0:0:
248,176,71850,1,0,0:0:0:0:
248,176,72150,1,0,0:0:0:0:
248,176,72375,1,0,0:0:0:0:
248,176,72600,1,0,0:0:0:0:
248,176,72900,1,0,0:0:0:0:
248,176,73125,1,0,0:0:0:0:
248,176,73350,1,0,0:0:0:0:
248,176,73575,1,0,0:0:0:0:
248,176,73875,1,0,0:0:0:0:
248,176,74100,1,0,0:0:0:0:
248,176,74325,1,0,0:0:0:0:
248,176,74625,1,0,0:0:0:0:
248,176,74850,1,0,0:0:0:0:
248,176,75150,1,0,0:0:0:0:
248,176,75375,1,0,0:0:0:0:
248,176,75900,1,0,0:0:0:0:
248,176,76125,1,0,0:0:0:0:
248,176,76425,1,0,0:0:0:0:
248,176,76725,1,0,0:0:0:0:
248,176,76950,1,0,0:0:0:0:
248,176,77175,1,0,0:0:0:0:
248,176,77475,1,0,0:0:0:0:
248,176,77700,1,0,0:0:0:0:
248,176,77925,1,0,0:0:0:0:
248,176,78225,1,0,0:0:0:0:
248,176,78450,1,0,0:0:0:0:
248,176,78675,1,0,0:0:0:0:
248,176,78975,1,0,0:0:0:0:
248,176,79200,1,0,0:0:0:0:
248,176,79425,1,0,0:0:0:0:
248,176,79650,1,0,0:0:0:0:
248,176,79875,1,0,0:0:0:0:
248,176,80175,1,0,0:0:0:0:
248,176,80475,1,0,0:0:0:0:
248,176,80775,1,0,0:0:0:0:
248,176,81000,1,0,0:0:0:0:
248,176,81375,1,0,0:0:0:0:
248,176,81600,1,0,0:0:0:0:
248,176,82200,1,0,0:0:0:0:
256,192,82650,12,0,97125,0:0:0:0:
184,112,97275,5,0,0:0:0:0:
352,296,97800,1,0,0:0:0:0:
280,216,98025,1,0,0:0:0:0:
216,120,99000,1,0,0:0:0:0:
216,120,100275,1,0,0:0:0:0:
304,360,100800,1,0,0:0:0:0:
232,168,102075,1,0,0:0:0:0:
232,168,102450,1,0,0:0:0:0:
232,168,102900,1,0,0:0:0:0:
232,168,103275,1,0,0:0:0:0:
232,168,103650,1,0,0:0:0:0:
232,168,103875,1,0,0:0:0:0:
232,168,104100,1,0,0:0:0:0:
232,168,104325,1,0,0:0:0:0:
232,168,104550,1,0,0:0:0:0:
232,168,104850,1,0,0:0:0:0:
232,168,105225,1,0,0:0:0:0:
232,168,105900,1,0,0:0:0:0:
232,168,106125,1,0,0:0:0:0:
232,168,106350,1,0,0:0:0:0:
232,168,106575,1,0,0:0:0:0:
232,168,106800,1,0,0:0:0:0:
232,168,107100,1,0,0:0:0:0:
232,168,107400,1,0,0:0:0:0:
232,168,107625,1,0,0:0:0:0:
232,168,107850,1,0,0:0:0:0:
232,168,108075,1,0,0:0:0:0:
232,168,108450,1,0,0:0:0:0:
232,168,108675,1,0,0:0:0:0:
232,168,108900,1,0,0:0:0:0:
232,168,109125,1,0,0:0:0:0:
232,168,109350,1,0,0:0:0:0:
232,168,109575,1,0,0:0:0:0:
232,168,109800,1,0,0:0:0:0:
232,168,110100,1,0,0:0:0:0:
232,168,110325,1,0,0:0:0:0:
232,168,110625,1,0,0:0:0:0:
232,168,110850,1,0,0:0:0:0:
232,168,111075,1,0,0:0:0:0:
232,168,111375,1,0,0:0:0:0:
232,168,111525,1,0,0:0:0:0:
232,168,111750,1,0,0:0:0:0:
232,168,112200,1,0,0:0:0:0:
232,168,112425,1,0,0:0:0:0:
232,168,112650,1,0,0:0:0:0:
232,168,112875,1,0,0:0:0:0:
232,168,113100,1,0,0:0:0:0:
232,168,113325,1,0,0:0:0:0:
232,168,113550,1,0,0:0:0:0:
232,168,113775,1,0,0:0:0:0:
232,168,114000,1,0,0:0:0:0:
232,168,114225,1,0,0:0:0:0:
232,168,114450,1,0,0:0:0:0:
232,168,114675,1,0,0:0:0:0:
232,168,114975,1,0,0:0:0:0:
232,168,115200,1,0,0:0:0:0:
232,168,115500,1,0,0:0:0:0:
232,168,115725,1,0,0:0:0:0:
232,168,116100,1,0,0:0:0:0:
232,168,116400,1,0,0:0:0:0:
232,168,116700,1,0,0:0:0:0:
232,168,116925,1,0,0:0:0:0:
232,168,117150,1,0,0:0:0:0:
232,168,117375,1,0,0:0:0:0:
232,168,117600,1,0,0:0:0:0:
232,168,117900,1,0,0:0:0:0:
232,168,118125,1,0,0:0:0:0:
232,168,118425,1,0,0:0:0:0:
232,168,118650,1,0,0:0:0:0:
232,168,118875,1,0,0:0:0:0:
232,168,119100,1,0,0:0:0:0:
232,168,119400,1,0,0:0:0:0:
232,168,119775,1,0,0:0:0:0:
232,168,120075,1,0,0:0:0:0:
232,168,120375,1,0,0:0:0:0:
232,168,120600,1,0,0:0:0:0:
232,168,120825,1,0,0:0:0:0:
232,168,121125,1,0,0:0:0:0:
232,168,121350,1,0,0:0:0:0:
232,168,121575,1,0,0:0:0:0:
232,168,121875,1,0,0:0:0:0:
232,168,122100,1,0,0:0:0:0:
232,168,122325,1,0,0:0:0:0:
232,168,122550,1,0,0:0:0:0:
232,168,122850,1,0,0:0:0:0:
232,168,123075,1,0,0:0:0:0:
232,168,123375,1,0,0:0:0:0:
232,168,123675,1,0,0:0:0:0:
232,168,123900,1,0,0:0:0:0:
232,168,124125,1,0,0:0:0:0:
232,168,124350,1,0,0:0:0:0:
232,168,124650,1,0,0:0:0:0:
232,168,124875,1,0,0:0:0:0:
232,168,125175,1,0,0:0:0:0:
232,168,125475,1,0,0:0:0:0:
232,168,125700,1,0,0:0:0:0:
232,168,126075,1,0,0:0:0:0:
232,168,126300,1,0,0:0:0:0:
232,168,126525,1,0,0:0:0:0:
232,168,126825,1,0,0:0:0:0:
216,128,127500,1,0,0:0:0:0:
176,120,128625,1,0,0:0:0:0:
176,120,128850,1,0,0:0:0:0:
176,120,129075,1,0,0:0:0:0:
176,120,129375,1,0,0:0:0:0:
176,120,129525,1,0,0:0:0:0:
176,120,129900,1,0,0:0:0:0:
176,120,130200,1,0,0:0:0:0:
176,120,130425,1,0,0:0:0:0:
176,120,130650,1,0,0:0:0:0:
176,168,131850,1,0,0:0:0:0:
176,168,132150,1,0,0:0:0:0:
176,168,132375,1,0,0:0:0:0:
176,168,132600,1,0,0:0:0:0:
176,168,132825,1,0,0:0:0:0:
176,168,133050,1,0,0:0:0:0:
176,168,133275,1,0,0:0:0:0:
176,168,133575,1,0,0:0:0:0:
176,168,133800,1,0,0:0:0:0:
176,168,134025,1,0,0:0:0:0:
176,168,134325,1,0,0:0:0:0:
176,168,134550,1,0,0:0:0:0:
176,168,134775,1,0,0:0:0:0:
168,200,135750,1,0,0:0:0:0:
168,200,135975,1,0,0:0:0:0:
168,200,136200,1,0,0:0:0:0:
168,200,136425,1,0,0:0:0:0:
168,200,136725,1,0,0:0:0:0:
168,200,136950,1,0,0:0:0:0:
168,200,137175,1,0,0:0:0:0:
168,200,137400,1,0,0:0:0:0:
168,200,137625,1,0,0:0:0:0:
168,200,137850,1,0,0:0:0:0:
168,200,138075,1,0,0:0:0:0:
168,200,138300,1,0,0:0:0:0:
168,200,138525,1,0,0:0:0:0:
168,200,138750,1,0,0:0:0:0:
168,200,139050,1,0,0:0:0:0:
168,200,139275,1,0,0:0:0:0:
176,136,140325,1,0,0:0:0:0:
176,136,140550,1,0,0:0:0:0:
176,136,140775,1,0,0:0:0:0:
176,136,141000,1,0,0:0:0:0:
176,136,141225,1,0,0:0:0:0:
176,136,141450,1,0,0:0:0:0:
216,120,142650,1,0,0:0:0:0:
216,120,142875,1,0,0:0:0:0:
216,120,143100,1,0,0:0:0:0:
216,120,143400,1,0,0:0:0:0:
216,120,143625,1,0,0:0:0:0:
216,120,143925,1,0,0:0:0:0:
216,120,144150,1,0,0:0:0:0:
216,120,144375,1,0,0:0:0:0:
216,120,144600,1,0,0:0:0:0:
216,120,144825,1,0,0:0:0:0:
216,120,145125,1,0,0:0:0:0:
216,120,145350,1,0,0:0:0:0:
216,120,145575,1,0,0:0:0:0:
208,160,146700,1,0,0:0:0:0:
208,160,147000,1,0,0:0:0:0:
208,160,147225,1,0,0:0:0:0:
208,160,147525,1,0,0:0:0:0:
208,160,147750,1,0,0:0:0:0:
208,160,147975,1,0,0:0:0:0:
208,160,148275,1,0,0:0:0:0:
208,160,148500,1,0,0:0:0:0:
208,160,148800,1,0,0:0:0:0:
208,160,149100,1,0,0:0:0:0:
208,160,149400,1,0,0:0:0:0:
208,160,149625,1,0,0:0:0:0:
208,160,149850,1,0,0:0:0:0:
208,160,150075,1,0,0:0:0:0:
208,160,150375,1,0,0:0:0:0:
208,160,150600,1,0,0:0:0:0:
208,160,150825,1,0,0:0:0:0:
208,160,151050,1,0,0:0:0:0:
208,160,151350,1,0,0:0:0:0:
208,160,151575,1,0,0:0:0:0:
208,160,151875,1,0,0:0:0:0:
208,160,152100,1,0,0:0:0:0:
208,160,152325,1,0,0:0:0:0:
208,160,152550,1,0,0:0:0:0:
208,160,152775,1,0,0:0:0:0:
208,160,153000,1,0,0:0:0:0:
208,160,153225,1,0,0:0:0:0:
208,160,153375,1,0,0:0:0:0:
208,160,153600,1,0,0:0:0:0:
208,160,153825,1,0,0:0:0:0:
208,160,154050,1,0,0:0:0:0:
208,160,154275,1,0,0:0:0:0:
208,160,154500,1,0,0:0:0:0:
208,160,154725,1,0,0:0:0:0:
208,160,154950,1,0,0:0:0:0:
208,160,155175,1,0,0:0:0:0:
208,192,156675,1,0,0:0:0:0:
200,144,157500,1,0,0:0:0:0:
200,144,157875,1,0,0:0:0:0:
176,144,159450,1,0,0:0:0:0:
176,144,159675,1,0,0:0:0:0:
176,144,159900,1,0,0:0:0:0:
176,144,160200,1,0,0:0:0:0:
176,144,160425,1,0,0:0:0:0:
208,112,161400,1,0,0:0:0:0:
208,112,161625,1,0,0:0:0:0:
208,112,161850,1,0,0:0:0:0:
208,112,162075,1,0,0:0:0:0:
208,112,162300,1,0,0:0:0:0:
208,112,162525,1,0,0:0:0:0:
208,112,162750,1,0,0:0:0:0:
208,144,163650,1,0,0:0:0:0:
208,144,163950,1,0,0:0:0:0:
208,144,164175,1,0,0:0:0:0:
208,144,164400,1,0,0:0:0:0:
208,144,164625,1,0,0:0:0:0:
184,136,166425,1,0,0:0:0:0:
184,136,166650,1,0,0:0:0:0:
184,136,166950,1,0,0:0:0:0:
184,136,167175,1,0,0:0:0:0:
184,136,167475,1,0,0:0:0:0:
232,160,168600,1,0,0:0:0:0:
232,160,168825,1,0,0:0:0:0:
232,160,169050,1,0,0:0:0:0:
232,160,169350,1,0,0:0:0:0:
232,160,169500,1,0,0:0:0:0:
216,128,170700,1,0,0:0:0:0:
216,128,170925,1,0,0:0:0:0:
216,128,171150,1,0,0:0:0:0:
216,128,171375,1,0,0:0:0:0:
216,128,171600,1,0,0:0:0:0:
216,128,171825,1,0,0:0:0:0:
224,168,173025,1,0,0:0:0:0:
224,168,173250,1,0,0:0:0:0:
224,168,173475,1,0,0:0:0:0:
224,168,173700,1,0,0:0:0:0:
224,168,173925,1,0,0:0:0:0:
224,168,174075,1,0,0:0:0:0:
224,168,174375,1,0,0:0:0:0:
224,168,174600,1,0,0:0:0:0:
224,168,174825,1,0,0:0:0:0:
224,168,175050,1,0,0:0:0:0:
224,168,175350,1,0,0:0:0:0:
224,168,175650,1,0,0:0:0:0:
224,168,175875,1,0,0:0:0:0:
224,168,176100,1,0,0:0:0:0:
224,168,176400,1,0,0:0:0:0:
224,168,176625,1,0,0:0:0:0:
224,168,176850,1,0,0:0:0:0:
224,168,177150,1,0,0:0:0:0:
224,168,177375,1,0,0:0:0:0:
224,168,177675,1,0,0:0:0:0:
224,168,177900,1,0,0:0:0:0:
224,168,178200,1,0,0:0:0:0:
224,168,178425,1,0,0:0:0:0:
224,168,178725,1,0,0:0:0:0:
224,168,179025,1,0,0:0:0:0:
224,168,179250,1,0,0:0:0:0:
224,168,179550,1,0,0:0:0:0:
224,168,179775,1,0,0:0:0:0:
224,168,180075,1,0,0:0:0:0:
224,168,180300,1,0,0:0:0:0:
224,168,180525,1,0,0:0:0:0:
224,168,180825,1,0,0:0:0:0:
224,168,181050,1,0,0:0:0:0:
224,168,181275,1,0,0:0:0:0:
224,168,181575,1,0,0:0:0:0:
224,168,181800,1,0,0:0:0:0:
224,168,182025,1,0,0:0:0:0:
224,168,182250,1,0,0:0:0:0:
224,168,182550,1,0,0:0:0:0:
224,168,182775,1,0,0:0:0:0:
224,168,183000,1,0,0:0:0:0:
224,168,183300,1,0,0:0:0:0:
224,168,183525,1,0,0:0:0:0:
224,168,183900,1,0,0:0:0:0:
224,168,184200,1,0,0:0:0:0:
224,168,184500,1,0,0:0:0:0:
224,168,184725,1,0,0:0:0:0:
224,168,184950,1,0,0:0:0:0:
224,168,185250,1,0,0:0:0:0:
224,168,185550,1,0,0:0:0:0:
224,168,185850,1,0,0:0:0:0:
224,168,186150,1,0,0:0:0:0:
224,168,186600,1,0,0:0:0:0:
200,168,187725,1,0,0:0:0:0:
200,136,189150,1,0,0:0:0:0:
280,136,191025,1,0,0:0:0:0:
208,240,192825,1,0,0:0:0:0:
184,112,194925,1,0,0:0:0:0:
280,112,196575,1,0,0:0:0:0:
280,224,198225,1,0,0:0:0:0:
176,232,200325,1,0,0:0:0:0:
168,104,202350,1,0,0:0:0:0:
168,104,202800,1,0,0:0:0:0:
168,104,203175,1,0,0:0:0:0:
168,104,203625,1,0,0:0:0:0:
168,104,204150,1,0,0:0:0:0:
168,104,204600,1,0,0:0:0:0:
168,104,205050,1,0,0:0:0:0:
168,104,205575,1,0,0:0:0:0:
168,104,206025,1,0,0:0:0:0:
168,104,206475,1,0,0:0:0:0:
168,104,206925,1,0,0:0:0:0:
168,104,207375,1,0,0:0:0:0:
168,104,207825,1,0,0:0:0:0:
168,104,208125,1,0,0:0:0:0:
168,104,208425,1,0,0:0:0:0:
168,104,208950,1,0,0:0:0:0:
168,104,209400,1,0,0:0:0:0:
168,104,209850,1,0,0:0:0:0:
168,104,210225,1,0,0:0:0:0:
168,104,210600,1,0,0:0:0:0:
168,104,210825,1,0,0:0:0:0:
168,104,211050,1,0,0:0:0:0:
168,104,211275,1,0,0:0:0:0:
168,104,211725,1,0,0:0:0:0:
168,104,212025,1,0,0:0:0:0:
168,104,212250,1,0,0:0:0:0:
168,104,212550,1,0,0:0:0:0:
168,104,212775,1,0,0:0:0:0:
168,104,213075,1,0,0:0:0:0:
168,104,213600,1,0,0:0:0:0:
168,104,214050,1,0,0:0:0:0:
168,104,214500,1,0,0:0:0:0:
168,104,215025,1,0,0:0:0:0:
168,104,215475,1,0,0:0:0:0:
168,104,215775,1,0,0:0:0:0:
304,96,217275,1,0,0:0:0:0:
304,96,217650,1,0,0:0:0:0:
304,96,218175,1,0,0:0:0:0:
304,96,218625,1,0,0:0:0:0:
304,96,218850,1,0,0:0:0:0:
304,96,219075,1,0,0:0:0:0:
304,96,219300,1,0,0:0:0:0:
304,96,219525,1,0,0:0:0:0:
304,96,219750,1,0,0:0:0:0:
304,96,219975,1,0,0:0:0:0:
304,96,220200,1,0,0:0:0:0:
304,96,220425,1,0,0:0:0:0:
304,96,220650,1,0,0:0:0:0:
304,96,220950,1,0,0:0:0:0:
304,96,221475,1,0,0:0:0:0:
304,96,221850,1,0,0:0:0:0:
304,96,222300,1,0,0:0:0:0:
304,96,222675,1,0,0:0:0:0:
304,96,222900,1,0,0:0:0:0:
304,96,223125,1,0,0:0:0:0:
304,96,223350,1,0,0:0:0:0:
304,96,223575,1,0,0:0:0:0:
304,96,223800,1,0,0:0:0:0:
304,96,224025,1,0,0:0:0:0:
304,96,224250,1,0,0:0:0:0:
304,96,224475,1,0,0:0:0:0:
304,96,224775,1,0,0:0:0:0:
304,96,225225,1,0,0:0:0:0:
304,96,225450,1,0,0:0:0:0:
304,96,225975,1,0,0:0:0:0:
304,96,226275,1,0,0:0:0:0:
304,96,226500,1,0,0:0:0:0:
304,96,226725,1,0,0:0:0:0:
304,96,226950,1,0,0:0:0:0:
304,96,227175,1,0,0:0:0:0:
304,96,227400,1,0,0:0:0:0:
304,96,227700,1,0,0:0:0:0:
304,96,227850,1,0,0:0:0:0:
304,96,228075,1,0,0:0:0:0:
304,96,228375,1,0,0:0:0:0:
304,96,228600,1,0,0:0:0:0:
304,96,228975,1,0,0:0:0:0:
304,96,229275,1,0,0:0:0:0:
304,96,229500,1,0,0:0:0:0:
304,96,229950,1,0,0:0:0:0:
304,96,230250,1,0,0:0:0:0:
304,96,230475,1,0,0:0:0:0:
304,96,230775,1,0,0:0:0:0:
304,96,231000,1,0,0:0:0:0:
304,96,231300,1,0,0:0:0:0:
288,120,232275,1,0,0:0:0:0:
64,160,232800,1,0,0:0:0:0:
280,120,233250,1,0,0:0:0:0:
56,192,233775,1,0,0:0:0:0:
280,120,234300,1,0,0:0:0:0:
56,192,234825,1,0,0:0:0:0:
280,120,235350,1,0,0:0:0:0:
48,200,235875,1,0,0:0:0:0:
296,112,236475,1,0,0:0:0:0:
88,192,237000,1,0,0:0:0:0:
272,120,237450,1,0,0:0:0:0:
248,144,238725,1,0,0:0:0:0:
248,144,239250,1,0,0:0:0:0:
248,144,239700,1,0,0:0:0:0:
248,144,239925,1,0,0:0:0:0:
248,144,240150,1,0,0:0:0:0:
248,144,240300,1,0,0:0:0:0:
248,144,240525,1,0,0:0:0:0:
248,144,240750,1,0,0:0:0:0:
248,144,241050,1,0,0:0:0:0:
248,144,241275,1,0,0:0:0:0:
248,144,241500,1,0,0:0:0:0:
248,144,241800,1,0,0:0:0:0:
248,144,242025,1,0,0:0:0:0:
248,144,242250,1,0,0:0:0:0:
248,144,242475,1,0,0:0:0:0:
248,144,242775,1,0,0:0:0:0:
248,144,243000,1,0,0:0:0:0:
248,144,243225,1,0,0:0:0:0:
248,144,243375,1,0,0:0:0:0:
248,144,243675,1,0,0:0:0:0:
248,144,243825,1,0,0:0:0:0:
208,168,243975,1,0,0:0:0:0:
272,136,244125,1,0,0:0:0:0:
176,184,244350,1,0,0:0:0:0:
304,120,244650,1,0,0:0:0:0:
240,152,244800,1,0,0:0:0:0:
240,152,244950,1,0,0:0:0:0:
240,152,245100,1,0,0:0:0:0:
240,152,245550,1,0,0:0:0:0:
240,152,246000,1,0,0:0:0:0:
192,104,247200,1,0,0:0:0:0:
192,104,247575,1,0,0:0:0:0:
192,104,248100,1,0,0:0:0:0:
192,104,248550,1,0,0:0:0:0:
192,104,248850,1,0,0:0:0:0:
192,104,249150,1,0,0:0:0:0:
192,104,249375,1,0,0:0:0:0:
192,104,249600,1,0,0:0:0:0:
192,104,249825,1,0,0:0:0:0:
192,104,250125,1,0,0:0:0:0:
192,104,250350,1,0,0:0:0:0:
192,104,250575,1,0,0:0:0:0:
192,136,251625,1,0,0:0:0:0:
192,136,252000,1,0,0:0:0:0:
192,136,252450,1,0,0:0:0:0:
192,136,252675,1,0,0:0:0:0:
192,136,252900,1,0,0:0:0:0:
192,136,253200,1,0,0:0:0:0:
192,136,253425,1,0,0:0:0:0:
192,136,253650,1,0,0:0:0:0:
192,136,253950,1,0,0:0:0:0:
192,136,254250,1,0,0:0:0:0:
184,104,254850,1,0,0:0:0:0:
184,104,255225,1,0,0:0:0:0:
184,104,255750,1,0,0:0:0:0:
184,104,256050,1,0,0:0:0:0:
184,104,256425,1,0,0:0:0:0:
184,104,256725,1,0,0:0:0:0:
184,104,257025,1,0,0:0:0:0:
184,104,257250,1,0,0:0:0:0:
96,376,257850,1,0,0:0:0:0:
136,264,258150,1,0,0:0:0:0:
208,32,258675,1,0,0:0:0:0:
152,208,259125,1,0,0:0:0:0:
208,32,259500,1,0,0:0:0:0:
144,232,259950,1,0,0:0:0:0:
208,40,260400,1,0,0:0:0:0:
168,152,260700,1,0,0:0:0:0:
208,48,260925,1,0,0:0:0:0:
152,184,261225,1,0,0:0:0:0:
192,136,262200,1,0,0:0:0:0:
192,136,262650,1,0,0:0:0:0:
192,136,263100,1,0,0:0:0:0:
192,136,263700,1,0,0:0:0:0:
192,136,264225,1,0,0:0:0:0:
192,136,264525,1,0,0:0:0:0:
192,136,264750,1,0,0:0:0:0:
192,136,265050,1,0,0:0:0:0:
192,136,265350,1,0,0:0:0:0:
192,136,265650,1,0,0:0:0:0:
192,136,266025,1,0,0:0:0:0:
192,136,266475,1,0,0:0:0:0:
192,136,266850,1,0,0:0:0:0:
192,136,267225,1,0,0:0:0:0:
192,136,267450,1,0,0:0:0:0:
192,136,267975,1,0,0:0:0:0:
192,136,268350,1,0,0:0:0:0:
192,136,268650,1,0,0:0:0:0:
192,136,268950,1,0,0:0:0:0:
192,136,269250,1,0,0:0:0:0:
192,136,269700,1,0,0:0:0:0:
192,136,270075,1,0,0:0:0:0:
192,136,270450,1,0,0:0:0:0:
192,136,270825,1,0,0:0:0:0:
192,136,271200,1,0,0:0:0:0:
192,136,271500,1,0,0:0:0:0:
192,136,271800,1,0,0:0:0:0:
192,136,272100,1,0,0:0:0:0:
192,136,272400,1,0,0:0:0:0:
192,136,272700,1,0,0:0:0:0:
192,136,272925,1,0,0:0:0:0:
192,136,273225,1,0,0:0:0:0:
192,136,273525,1,0,0:0:0:0:
192,136,273825,1,0,0:0:0:0:
192,136,274125,1,0,0:0:0:0:
192,136,274500,1,0,0:0:0:0:
192,136,274875,1,0,0:0:0:0:
192,136,275250,1,0,0:0:0:0:
192,136,275475,1,0,0:0:0:0:
192,136,275775,1,0,0:0:0:0:
192,136,276075,1,0,0:0:0:0:
192,136,276375,1,0,0:0:0:0:
192,136,276750,1,0,0:0:0:0:
192,136,277200,1,0,0:0:0:0:
192,136,277575,1,0,0:0:0:0:
192,136,278025,1,0,0:0:0:0:
192,136,278325,1,0,0:0:0:0:
192,136,278625,1,0,0:0:0:0:
192,136,278925,1,0,0:0:0:0:
192,136,279450,1,0,0:0:0:0:
192,136,279750,1,0,0:0:0:0:
192,136,280125,1,0,0:0:0:0:
192,136,280425,1,0,0:0:0:0:
192,136,280725,1,0,0:0:0:0:
192,136,280950,1,0,0:0:0:0:
192,136,281250,1,0,0:0:0:0:
192,136,281625,1,0,0:0:0:0:
192,136,282000,1,0,0:0:0:0:
192,136,282375,1,0,0:0:0:0:
192,136,282675,1,0,0:0:0:0:
192,136,283200,1,0,0:0:0:0:
192,136,283500,1,0,0:0:0:0:
192,136,283800,1,0,0:0:0:0:
192,136,284175,1,0,0:0:0:0:
192,136,284400,1,0,0:0:0:0:
192,136,284700,1,0,0:0:0:0:
192,136,285000,1,0,0:0:0:0:
192,136,285300,1,0,0:0:0:0:
192,136,285600,1,0,0:0:0:0:
192,136,285900,1,0,0:0:0:0:
192,136,286200,1,0,0:0:0:0:
192,136,286500,1,0,0:0:0:0:
192,136,286725,1,0,0:0:0:0:
192,136,287025,1,0,0:0:0:0:
192,136,287325,1,0,0:0:0:0:
192,136,287625,1,0,0:0:0:0:
192,136,287925,1,0,0:0:0:0:
192,136,288225,1,0,0:0:0:0:
192,136,288525,1,0,0:0:0:0:
192,136,288825,1,0,0:0:0:0:
192,136,289200,1,0,0:0:0:0:
192,136,289500,1,0,0:0:0:0:
192,136,289800,1,0,0:0:0:0:
192,136,290100,1,0,0:0:0:0:
192,136,290400,1,0,0:0:0:0:
192,136,290700,1,0,0:0:0:0:
192,136,291075,1,0,0:0:0:0:
192,136,291375,1,0,0:0:0:0:
192,136,291675,1,0,0:0:0:0:
192,136,292200,1,0,0:0:0:0:
192,136,292725,1,0,0:0:0:0:
192,136,293175,1,0,0:0:0:0:
192,136,293625,1,0,0:0:0:0:
192,136,293925,1,0,0:0:0:0:
192,136,294525,1,0,0:0:0:0:
192,136,295050,1,0,0:0:0:0:
192,136,295500,1,0,0:0:0:0:
192,136,296025,1,0,0:0:0:0:
192,136,296475,1,0,0:0:0:0:
192,136,296850,1,0,0:0:0:0:
192,136,297375,1,0,0:0:0:0:
192,136,297825,1,0,0:0:0:0:
192,136,298200,1,0,0:0:0:0:
192,136,298725,1,0,0:0:0:0:
192,136,299175,1,0,0:0:0:0:
192,136,299700,1,0,0:0:0:0:
192,136,300150,1,0,0:0:0:0:
192,136,300600,1,0,0:0:0:0:
192,136,301125,1,0,0:0:0:0:
192,136,301650,1,0,0:0:0:0:
192,136,302100,1,0,0:0:0:0:
192,136,302625,1,0,0:0:0:0:
192,136,303000,1,0,0:0:0:0:
192,136,303450,1,0,0:0:0:0:
192,136,303825,1,0,0:0:0:0:
192,136,304425,1,0,0:0:0:0:
192,136,305025,1,0,0:0:0:0:
192,136,305475,1,0,0:0:0:0:
192,136,305925,1,0,0:0:0:0:
192,136,306375,1,0,0:0:0:0:
192,136,306825,1,0,0:0:0:0:
192,136,307275,1,0,0:0:0:0:
192,136,307800,1,0,0:0:0:0:
192,136,308325,1,0,0:0:0:0:
192,136,308775,1,0,0:0:0:0:
192,136,309075,1,0,0:0:0:0:
192,136,309375,1,0,0:0:0:0:
192,136,309900,1,0,0:0:0:0:
192,136,310350,1,0,0:0:0:0:
192,136,310575,1,0,0:0:0:0:
192,136,310800,1,0,0:0:0:0:
192,136,310950,1,0,0:0:0:0:
192,136,311400,1,0,0:0:0:0:
192,136,311775,1,0,0:0:0:0:
192,136,312000,1,0,0:0:0:0:
192,136,312300,1,0,0:0:0:0:
192,136,312450,1,0,0:0:0:0:
192,136,312675,1,0,0:0:0:0:
192,136,313050,1,0,0:0:0:0:
192,136,313350,1,0,0:0:0:0:
192,136,313575,1,0,0:0:0:0:
192,136,314025,1,0,0:0:0:0:
192,136,314250,1,0,0:0:0:0:
192,136,314475,1,0,0:0:0:0:
192,136,314775,1,0,0:0:0:0:
192,136,315000,1,0,0:0:0:0:
192,136,315225,1,0,0:0:0:0:
192,136,315525,1,0,0:0:0:0:
192,136,315900,1,0,0:0:0:0:
192,136,316200,1,0,0:0:0:0:
192,136,316425,1,0,0:0:0:0:
192,136,316875,1,0,0:0:0:0:
192,136,317175,1,0,0:0:0:0:
192,136,317400,1,0,0:0:0:0:
192,136,317850,1,0,0:0:0:0:
192,136,318075,1,0,0:0:0:0:
192,136,318300,1,0,0:0:0:0:
192,136,318750,1,0,0:0:0:0:
192,136,319050,1,0,0:0:0:0:
192,136,319275,1,0,0:0:0:0:
192,136,319725,1,0,0:0:0:0:
192,136,319950,1,0,0:0:0:0:
192,136,320175,1,0,0:0:0:0:
192,136,320550,1,0,0:0:0:0:
192,136,320850,1,0,0:0:0:0:
192,136,321075,1,0,0:0:0:0:
192,136,321375,1,0,0:0:0:0:
192,136,321675,1,0,0:0:0:0:
192,136,322050,1,0,0:0:0:0:
192,136,322275,1,0,0:0:0:0:
192,136,322500,1,0,0:0:0:0:
192,136,322800,1,0,0:0:0:0:
192,136,323025,1,0,0:0:0:0:
192,136,323250,1,0,0:0:0:0:
192,136,323475,1,0,0:0:0:0:
192,136,323775,1,0,0:0:0:0:
192,136,324000,1,0,0:0:0:0:
192,136,324225,1,0,0:0:0:0:
192,136,324600,1,0,0:0:0:0:
192,136,324900,1,0,0:0:0:0:
192,136,325200,1,0,0:0:0:0:
192,136,325425,1,0,0:0:0:0:
192,136,325650,1,0,0:0:0:0:
192,136,327150,1,0,0:0:0:0:
192,136,327375,1,0,0:0:0:0:
