osu file format v14

[General]
AudioFilename: audio.mp3
AudioLeadIn: 0
PreviewTime: 40934
Countdown: 0
SampleSet: Soft
StackLeniency: 0.7
Mode: 2
LetterboxInBreaks: 0
EpilepsyWarning: 1
WidescreenStoryboard: 1

[Editor]
Bookmarks: 505,41755,68005,98005,105505,135505,161755,191520
DistanceSpacing: 1
BeatDivisor: 4
GridSize: 4
TimelineZoom: 1.500001

[Metadata]
Title:Arcadia
TitleUnicode:Arcadia
Artist:Hardwell & Joey Dale feat. Luciana
ArtistUnicode:Hardwell & Joey Dale feat. Luciana
Creator:JBHyperion
Version:Radiance
Source:
Tags:Dutch Progressive House Electronic Dance Music EDM Electro Dubstep United We Are Caporaso Daleboudt Robbert van Corput Nick Clow Magic Girl Withered Lotus Sorcerer Riari P_i_k_u Piku guineaQ
BeatmapID:1009520
BeatmapSetID:472434

[Difficulty]
HPDrainRate:7
CircleSize:3.2
OverallDifficulty:9
ApproachRate:9
SliderMultiplier:3.3
SliderTickRate:1

[Events]
//Background and Video events
0,0,"Arcadia2.jpg",0,0
//Break Periods
//Storyboard Layer 0 (Background)
//Storyboard Layer 1 (Fail)
//Storyboard Layer 2 (Pass)
//Storyboard Layer 3 (Foreground)
//Storyboard Sound Samples

[TimingPoints]
505,468.75,4,3,1,50,1,0
505,-133.333333333333,4,3,1,50,0,0
2145,-133.333333333333,4,2,1,35,0,0
2380,-133.333333333333,4,3,1,50,0,0
4020,-133.333333333333,4,2,1,35,0,0
4255,-133.333333333333,4,3,1,50,0,0
6130,-100,4,3,1,55,0,0
6598,-100,4,3,1,60,0,0
7067,-100,4,3,1,65,0,0
7536,-100,4,3,1,70,0,0
8005,-300,4,3,1,75,0,0
8239,-300,4,2,1,40,0,0
9880,-200,4,2,1,45,0,0
10817,-151.515151515152,4,2,1,50,0,0
11208,-151.515151515152,4,2,1,50,0,0
11286,-100,4,2,1,50,0,0
11676,-100,4,2,1,50,0,0
11755,-151.515151515152,4,2,1,65,0,0
24880,-151.515151515152,4,2,1,75,0,0
25583,-100,4,2,1,75,0,0
26286,-151.515151515152,4,2,1,75,0,0
26755,-151.515151515152,4,2,1,85,0,0
40817,-66.6666666666667,4,2,1,85,0,0
41286,-40,4,2,1,85,0,0
41755,-151.515151515152,4,2,1,95,0,0
47848,-80,4,2,1,95,0,0
48083,-151.515151515152,4,2,1,95,0,0
56755,-151.515151515152,4,2,1,80,0,0
57223,-151.515151515152,4,2,1,60,0,0
58630,-151.515151515152,4,2,1,70,0,0
60505,-151.515151515152,4,3,1,40,0,0
61442,-151.515151515152,4,3,1,45,0,0
62380,-151.515151515152,4,3,1,50,0,0
63317,-151.515151515152,4,3,1,55,0,0
64255,-151.515151515152,4,3,1,60,0,0
65192,-151.515151515152,4,3,1,65,0,0
65661,-151.515151515152,4,3,1,70,0,0
67067,-151.515151515152,4,3,1,60,0,0
67301,-151.515151515152,4,3,0,60,0,0
67536,-151.515151515152,4,3,1,60,0,0
68005,-133.333333333333,4,3,2,90,0,1
73395,-133.333333333333,4,2,1,40,0,1
73630,-133.333333333333,4,3,2,85,0,1
74098,-133.333333333333,4,3,2,80,0,1
74567,-133.333333333333,4,3,2,75,0,1
75036,-117.647058823529,4,3,2,100,0,1
75270,-133.333333333333,4,3,2,100,0,1
75505,-133.333333333333,4,3,2,90,0,1
77380,-80,4,3,2,90,0,1
78317,-133.333333333333,4,3,2,90,0,1
80895,-133.333333333333,4,2,1,40,0,1
81130,-151.515151515152,4,2,1,80,0,0
81598,-151.515151515152,4,2,1,70,0,0
82067,-151.515151515152,4,2,1,60,0,0
82536,-151.515151515152,4,2,1,50,0,0
82770,-151.515151515152,4,2,1,50,0,0
83005,-133.333333333333,4,3,2,90,0,1
86520,-133.333333333333,4,2,1,40,0,1
86755,-133.333333333333,4,3,2,90,0,1
88395,-133.333333333333,4,2,1,40,0,1
88630,-66.6666666666667,4,3,2,90,0,1
88981,-133.333333333333,4,3,2,90,0,1
89567,-133.333333333333,4,3,2,85,0,1
90036,-133.333333333333,4,3,2,80,0,1
90505,-133.333333333333,4,3,2,90,0,1
92145,-133.333333333333,4,2,1,40,0,1
92380,-66.6666666666667,4,3,2,90,0,1
92614,-133.333333333333,4,3,2,90,0,1
95895,-133.333333333333,4,2,1,40,0,1
96130,-151.515151515152,4,2,1,80,0,0
96598,-151.515151515152,4,2,1,70,0,0
97067,-151.515151515152,4,2,1,60,0,0
97536,-151.515151515152,4,2,1,50,0,0
97770,-133.333333333333,4,2,1,40,0,0
98005,-300,4,2,1,75,0,0
98239,-300,4,2,1,50,0,0
99762,-300,4,2,1,20,0,0
99880,-300,4,2,1,50,0,0
101637,-300,4,2,1,20,0,0
101755,-200,4,2,1,50,0,0
103512,-200,4,2,1,20,0,0
103630,-200,4,2,1,55,0,0
104450,-200,4,2,1,25,0,0
104567,-133.333333333333,4,2,1,60,0,0
104919,-133.333333333333,4,2,1,30,0,0
105036,-133.333333333333,4,2,1,60,0,0
105387,-133.333333333333,4,2,1,30,0,0
105505,-200,4,2,1,50,0,0
110895,-133.333333333333,4,2,1,50,0,0
111833,-200,4,2,1,50,0,0
116286,-133.333333333333,4,2,1,50,0,0
116755,-151.515151515152,4,2,1,50,0,0
118512,-151.515151515152,4,2,1,20,0,0
118864,-151.515151515152,4,2,1,25,0,0
119333,-151.515151515152,4,2,1,30,0,0
119567,-151.515151515152,4,2,1,5,0,0
119801,-151.515151515152,4,2,1,50,0,0
126130,-151.515151515152,4,2,1,55,0,0
127067,-151.515151515152,4,2,1,60,0,0
128005,-151.515151515152,4,2,1,65,0,0
129880,-151.515151515152,4,2,1,70,0,0
130817,-151.515151515152,4,2,1,75,0,0
131755,-151.515151515152,4,2,1,80,0,0
133630,-151.515151515152,4,2,1,85,0,0
134567,-151.515151515152,4,2,1,90,0,0
135505,-151.515151515152,4,2,1,90,0,0
139079,-151.515151515152,4,2,1,70,0,0
139255,-151.515151515152,4,2,1,90,0,0
146579,-151.515151515152,4,2,1,70,0,0
146755,-151.515151515152,4,2,1,90,0,0
148630,-151.515151515152,4,3,1,85,0,0
149098,-151.515151515152,4,3,1,80,0,0
149567,-151.515151515152,4,3,1,75,0,0
150036,-151.515151515152,4,3,1,70,0,0
150505,-151.515151515152,4,2,1,80,0,0
152614,-151.515151515152,4,2,1,60,0,0
154255,-151.515151515152,4,3,1,40,0,0
155192,-151.515151515152,4,3,1,45,0,0
156130,-151.515151515152,4,3,1,50,0,0
157067,-151.515151515152,4,3,1,55,0,0
158005,-151.515151515152,4,3,1,60,0,0
158942,-151.515151515152,4,3,1,65,0,0
159411,-151.515151515152,4,3,1,70,0,0
160817,-151.515151515152,4,3,1,60,0,0
161051,-151.515151515152,4,3,0,60,0,0
161286,-151.515151515152,4,3,1,60,0,0
161755,-133.333333333333,4,3,2,90,0,1
167145,-133.333333333333,4,2,1,40,0,1
167380,-133.333333333333,4,3,2,85,0,1
167848,-133.333333333333,4,3,2,80,0,1
168317,-133.333333333333,4,3,2,75,0,1
168786,-117.647058823529,4,3,2,100,0,1
169020,-133.333333333333,4,3,2,100,0,1
169255,-133.333333333333,4,3,2,90,0,1
171130,-80,4,3,2,90,0,1
172067,-133.333333333333,4,3,2,90,0,1
174645,-133.333333333333,4,2,1,40,0,1
174880,-151.515151515152,4,2,1,80,0,0
175348,-151.515151515152,4,2,1,85,0,0
175817,-151.515151515152,4,2,1,90,0,0
176286,-151.515151515152,4,2,1,80,0,0
176755,-133.333333333333,4,3,2,90,0,1
180270,-133.333333333333,4,2,1,40,0,1
180505,-133.333333333333,4,3,2,90,0,1
182145,-133.333333333333,4,2,1,40,0,1
182380,-66.6666666666667,4,3,2,90,0,1
182614,-133.333333333333,4,3,2,90,0,1
183317,-133.333333333333,4,3,2,85,0,1
183786,-133.333333333333,4,3,2,80,0,1
184255,-133.333333333333,4,3,2,90,0,1
185895,-133.333333333333,4,2,1,40,0,1
186598,-66.6666666666667,4,3,2,90,0,1
186832,-133.333333333333,4,3,2,90,0,1
188005,-133.333333333333,4,3,2,70,0,1
189645,-133.333333333333,4,2,1,40,0,1
189880,-151.515151515152,4,2,1,80,0,0
190348,-151.515151515152,4,2,1,70,0,0
190817,-151.515151515152,4,2,1,60,0,0
191286,-151.515151515152,4,2,1,50,0,0

[Colours]
Combo1 : 255,102,255
Combo2 : 58,95,225
Combo3 : 147,112,219
Combo4 : 50,200,255

[HitObjects]
324,192,505,6,0,L|448:160,1,123.750004720688,4|0,0:0|0:0,0:0:0:0:
364,160,856,1,2,0:0:0:0:
132,160,973,2,0,L|8:160,1,123.750004720688,8|0,0:0|0:0,0:0:0:0:
204,80,1442,1,2,0:0:0:0:
72,80,1676,1,0,0:0:0:0:
436,80,1911,1,8,0:0:0:0:
292,80,2145,2,0,L|260:80,3,30.937501180172,2|2|2|2,0:0|0:0|0:0|0:0,0:0:0:0:
404,160,2380,5,2,0:0:0:0:
460,196,2497,1,2,0:0:0:0:
460,260,2614,1,2,0:0:0:0:
404,296,2731,1,2,0:0:0:0:
220,296,2848,2,0,L|152:296,1,61.875002360344,8|0,0:0|0:0,0:0:0:0:
84,220,3083,2,0,L|148:220,1,61.875002360344,0|0,0:0|0:0,0:0:0:0:
236,144,3317,6,0,L|308:144,1,61.875002360344,2|0,0:0|0:0,0:0:0:0:
188,72,3551,2,0,L|236:23,1,61.875,0|0,0:0|0:0,0:0:0:0:
420,44,3786,2,0,L|352:28,1,61.875002360344,8|0,0:0|0:0,0:0:0:0:
256,104,4020,1,2,0:0:0:0:
236,144,4079,1,2,0:0:0:0:
241,189,4137,1,2,0:0:0:0:
271,224,4196,1,2,0:0:0:0:
420,196,4255,5,2,0:0:0:0:
436,264,4372,1,2,0:0:0:0:
400,324,4489,1,2,0:0:0:0:
332,344,4606,1,2,0:0:0:0:
80,340,4723,1,8,0:0:0:0:
14,321,4840,1,0,0:0:0:0:
17,253,4958,1,0,0:0:0:0:
83,239,5075,1,0,0:0:0:0:
332,240,5192,5,2,0:0:0:0:
320,172,5309,1,0,0:0:0:0:
272,124,5426,1,0,0:0:0:0:
204,116,5544,1,0,0:0:0:0:
428,116,5661,1,8,0:0:0:0:
493,97,5778,1,0,0:0:0:0:
490,29,5895,1,0,0:0:0:0:
456,16,5954,1,0,0:0:0:0:
412,16,6012,1,0,0:0:0:0:
356,16,6071,1,0,0:0:0:0:
177,252,6130,6,0,B|136:268,1,41.25
172,204,6247,2,0,B|128:204,1,41.25
177,157,6364,2,0,B|132:140,1,41.25
188,116,6481,2,0,B|156:84,1,41.25
384,172,6598,6,0,B|424:156,1,41.25
389,220,6715,2,0,B|436:220,1,41.25
384,267,6832,2,0,B|428:284,1,41.25
373,308,6949,2,0,B|404:340,1,41.25
196,308,7067,6,0,L|164:256,1,41.25,2|0,0:0|0:0,0:0:0:0:
208,308,7184,2,0,L|256:272,1,41.25
196,308,7301,2,0,L|136:288,1,41.25,2|0,0:0|0:0,0:0:0:0:
208,308,7419,2,0,L|268:308,1,41.25
84,76,7536,5,8,0:0:0:0:
45,94,7594,1,0,0:0:0:0:
19,128,7653,1,0,0:0:0:0:
8,169,7712,1,0,0:0:0:0:
17,212,7770,1,0,0:0:0:0:
42,246,7829,1,0,0:0:0:0:
79,267,7887,1,0,0:0:0:0:
122,270,7946,1,0,0:0:0:0:
428,252,8005,6,0,L|492:152,1,110,2|0,0:0|0:0,0:0:0:0:
324,256,8942,2,0,L|388:156,1,110,2|0,0:0|0:0,0:0:0:0:
184,260,9880,2,0,L|272:120,1,165,2|0,0:0|0:0,0:0:0:0:
52,260,10817,2,0,L|156:92,1,181.499999446106,2|0,0:0|0:0,0:0:0:0:
156,260,11286,2,0,B|16:192|16:192|16:60,1,275
264,60,11755,5,4,0:0:0:0:
116,60,12223,2,0,L|236:60,1,108.899999667664
468,60,12692,1,2,0:0:0:0:
324,140,12926,2,0,L|420:192,2,108.899999667664,0|0|0,0:0|0:0|0:0,0:0:0:0:
24,140,13630,5,4,0:0:0:0:
244,144,14098,2,0,L|256:256,1,108.899999667664
36,252,14567,1,2,0:0:0:0:
200,252,14801,1,0,0:0:0:0:
88,252,15036,1,0,0:0:0:0:
272,252,15270,1,0,0:0:0:0:
184,344,15387,1,0,0:0:0:0:
432,344,15505,6,0,L|444:232,1,108.899999667664,4|0,0:0|0:0,0:0:0:0:
244,192,15973,2,0,L|232:80,1,108.899999667664
452,84,16442,1,2,0:0:0:0:
288,84,16676,1,0,0:0:0:0:
400,84,16911,1,0,0:0:0:0:
144,84,17145,1,0,0:0:0:0:
452,84,17380,6,0,L|463:193,1,108.899999667664,2|0,0:0|0:0,0:0:0:0:
244,192,17848,1,2,0:0:0:0:
444,280,18083,1,0,0:0:0:0:
264,280,18200,1,0,0:0:0:0:
84,280,18317,1,4,0:0:0:0:
216,156,18551,1,0,0:0:0:0:
336,156,18669,1,0,0:0:0:0:
456,156,18786,1,2,0:0:0:0:
280,48,19020,1,0,0:0:0:0:
388,48,19137,1,0,0:0:0:0:
168,48,19255,6,0,L|40:48,1,108.899999667664,4|0,0:0|0:0,0:0:0:0:
248,144,19723,2,0,L|276:252,1,108.899999667664,0|0,0:0|0:0,0:0:0:0:
52,248,20192,2,0,L|156:192,1,108.899999667664,2|0,0:0|0:0,0:0:0:0:
316,196,20661,1,0,0:0:0:0:
184,196,20895,1,0,0:0:0:0:
484,196,21130,6,0,L|484:80,1,108.899999667664,4|0,0:0|0:0,0:0:0:0:
332,144,21598,2,0,L|332:28,1,108.899999667664,0|0,0:0|0:0,0:0:0:0:
32,144,22067,2,0,L|32:260,1,108.899999667664,4|0,0:0|0:0,0:0:0:0:
184,192,22536,2,0,L|300:192,1,108.899999667664,0|0,0:0|0:0,0:0:0:0:
360,192,22887,1,0,0:0:0:0:
84,272,23005,6,0,P|32:192|64:80,1,217.799999335327,4|0,0:0|0:0,0:0:0:0:
200,80,23708,1,0,0:0:0:0:
376,80,23942,1,2,0:0:0:0:
176,164,24176,1,0,0:0:0:0:
308,164,24411,1,0,0:0:0:0:
132,164,24645,1,0,0:0:0:0:
432,164,24880,6,0,L|440:280,1,108.899999667664,2|0,0:0|0:0,0:0:0:0:
220,272,25348,1,2,0:0:0:0:
376,164,25583,2,0,L|288:164,2,82.5,0|0|4,0:0|0:0|0:0,0:0:0:0:
144,72,26051,2,0,L|220:28,2,82.5,0|0|2,0:0|0:0|0:0,0:0:0:0:
320,72,26520,1,0,0:0:0:0:
20,72,26755,5,4,0:0:0:0:
304,152,27223,1,0,0:0:0:0:
84,192,27692,1,8,0:0:0:0:
240,192,27926,1,0,0:0:0:0:
460,192,28161,1,0,0:0:0:0:
328,192,28395,1,0,0:0:0:0:
28,192,28630,6,0,L|116:268,1,108.899999667664,2|0,0:0|0:0,0:0:0:0:
332,264,29098,1,0,0:0:0:0:
24,336,29567,1,8,0:0:0:0:
224,336,29801,1,0,0:0:0:0:
68,336,30036,1,0,0:0:0:0:
200,336,30270,1,0,0:0:0:0:
264,336,30387,1,0,0:0:0:0:
488,340,30505,6,0,L|496:228,1,108.899999667664,2|0,0:0|0:0,0:0:0:0:
288,192,30973,2,0,P|248:152|268:108,1,108.899999667664
468,192,31442,2,0,L|368:148,1,108.899999667664,8|0,0:0|0:0,0:0:0:0:
236,148,31911,1,0,0:0:0:0:
416,72,32145,1,0,0:0:0:0:
116,72,32380,6,0,L|8:96,1,108.899999667664,2|0,0:0|0:0,0:0:0:0:
228,72,32848,1,0,0:0:0:0:
28,172,33083,1,0,0:0:0:0:
208,172,33200,1,0,0:0:0:0:
388,172,33317,2,0,L|504:172,1,108.899999667664,8|0,0:0|0:0,0:0:0:0:
384,264,33669,1,0,0:0:0:0:
264,264,33786,1,8,0:0:0:0:
440,348,34020,1,0,0:0:0:0:
332,348,34137,1,0,0:0:0:0:
112,348,34255,6,0,L|0:348,1,108.899999667664,4|0,0:0|0:0,0:0:0:0:
300,192,34723,2,0,L|424:192,1,108.899999667664
84,192,35192,1,8,0:0:0:0:
216,192,35426,1,0,0:0:0:0:
40,192,35661,2,0,L|88:88,1,108.899999667664,0|0,0:0|0:0,0:0:0:0:
384,96,36130,6,0,L|504:96,2,108.899999667664,2|0|0,0:0|0:0|0:0,0:0:0:0:
86,92,36833,1,2,0:0:0:0:
252,96,37067,1,8,0:0:0:0:
64,184,37301,1,0,0:0:0:0:
364,184,37536,2,0,L|480:184,1,108.899999667664,8|0,0:0|0:0,0:0:0:0:
408,264,37887,1,0,0:0:0:0:
156,260,38005,6,0,L|32:260,1,108.899999667664,2|0,0:0|0:0,0:0:0:0:
364,184,38473,2,0,L|488:184,1,108.899999667664,0|0,0:0|0:0,0:0:0:0:
172,184,38942,1,8,0:0:0:0:
340,184,39176,1,0,0:0:0:0:
40,184,39411,1,0,0:0:0:0:
188,184,39645,1,0,0:0:0:0:
488,192,39880,6,0,L|488:76,1,108.899999667664,2|0,0:0|0:0,0:0:0:0:
272,80,40348,1,0,0:0:0:0:
488,192,40583,1,4,0:0:0:0:
380,192,40700,1,0,0:0:0:0:
132,192,40817,2,0,P|48:248|132:332,1,247.500009441376,8|0,0:0|0:0,0:0:0:0:
224,332,41169,1,0,0:0:0:0:
348,192,41286,6,0,B|32:192,1,309.375,8|0,0:0|0:0,0:0:0:0:
40,112,41520,2,0,B|248:112,1,206.25
488,112,41755,5,4,0:0:0:0:
184,112,42223,1,0,0:0:0:0:
444,268,42692,2,0,L|364:192,1,108.899999667664,8|0,0:0|0:0,0:0:0:0:
144,288,43161,2,0,L|193:189,1,108.899999667664,0|0,0:0|0:0,0:0:0:0:
492,196,43630,6,0,L|492:80,1,108.899999667664,2|0,0:0|0:0,0:0:0:0:
416,88,43981,1,0,0:0:0:0:
172,88,44098,2,0,L|36:88,1,108.899999667664,0|0,0:0|0:0,0:0:0:0:
128,168,44450,1,0,0:0:0:0:
372,172,44567,2,0,L|240:172,1,108.899999667664,8|0,0:0|0:0,0:0:0:0:
44,264,45036,2,0,L|168:264,1,108.899999667664,0|0,0:0|0:0,0:0:0:0:
452,332,45505,6,0,L|368:264,1,108.899999667664,2|0,0:0|0:0,0:0:0:0:
68,264,45973,2,0,L|68:148,1,108.899999667664,0|0,0:0|0:0,0:0:0:0:
368,156,46442,1,8,0:0:0:0:
200,156,46676,1,0,0:0:0:0:
344,156,46911,1,0,0:0:0:0:
44,156,47145,1,0,0:0:0:0:
372,156,47380,6,0,L|484:156,1,108.899999667664,2|0,0:0|0:0,0:0:0:0:
171,76,47848,2,0,P|116:148|196:191,1,206.25,2|0,0:0|0:0,0:0:0:0:
400,240,48200,1,0,0:0:0:0:
196,192,48317,6,0,L|80:192,1,108.899999667664,8|0,0:0|0:0,0:0:0:0:
152,272,48669,1,0,0:0:0:0:
269,272,48786,2,0,L|196:192,1,108.899999667664,8|0,0:0|0:0,0:0:0:0:
316,188,49137,1,0,0:0:0:0:
64,192,49255,6,0,L|52:76,1,108.899999667664,4|0,0:0|0:0,0:0:0:0:
432,192,49723,2,0,L|444:76,1,108.899999667664,0|0,0:0|0:0,0:0:0:0:
116,284,50192,2,0,L|232:284,1,108.899999667664,8|0,0:0|0:0,0:0:0:0:
72,196,50661,1,0,0:0:0:0:
372,192,50895,1,0,0:0:0:0:
44,196,51130,6,0,L|32:80,1,108.899999667664,2|0,0:0|0:0,0:0:0:0:
104,88,51481,1,0,0:0:0:0:
340,88,51598,2,0,L|476:88,1,108.899999667664,0|0,0:0|0:0,0:0:0:0:
120,88,52067,1,8,0:0:0:0:
364,172,52301,2,0,L|472:172,1,108.899999667664,0|0,0:0|0:0,0:0:0:0:
124,256,52770,1,0,0:0:0:0:
424,256,53005,6,0,L|300:256,1,108.899999667664,2|0,0:0|0:0,0:0:0:0:
244,256,53356,1,0,0:0:0:0:
464,172,53473,2,0,L|340:172,1,108.899999667664,0|0,0:0|0:0,0:0:0:0:
284,172,53824,1,0,0:0:0:0:
64,172,53942,2,0,L|148:87,1,108.899999667664,8|0,0:0|0:0,0:0:0:0:
360,96,54411,1,0,0:0:0:0:
60,96,54645,1,0,0:0:0:0:
416,96,54880,6,0,L|468:192,1,108.899999667664,2|0,0:0|0:0,0:0:0:0:
152,192,55348,2,0,L|40:192,1,108.899999667664,2|0,0:0|0:0,0:0:0:0:
152,300,55700,1,0,0:0:0:0:
396,300,55817,6,0,L|508:300,1,108.899999667664,8|0,0:0|0:0,0:0:0:0:
436,192,56169,1,0,0:0:0:0:
192,192,56286,2,0,L|236:152,1,54.4499998338318,8|0,0:0|0:0,0:0:0:0:
340,96,56520,2,0,L|260:96,1,54.4499998338318,0|0,0:0|0:0,0:0:0:0:
36,96,56755,5,4,0:0:0:0:
252,96,57223,1,0,0:0:0:0:
468,96,57692,1,2,0:0:0:0:
316,96,57926,1,0,0:0:0:0:
164,96,58161,1,0,0:0:0:0:
436,192,58630,5,2,0:0:0:0:
436,192,58747,1,0,0:0:0:0:
436,192,58864,1,0,0:0:0:0:
196,192,59098,1,2,0:0:0:0:
196,192,59215,1,0,0:0:0:0:
196,192,59332,1,0,0:0:0:0:
392,192,59567,1,4,0:0:0:0:
228,192,59801,1,0,0:0:0:0:
360,192,60036,1,2,0:0:0:0:
164,192,60270,1,0,0:0:0:0:
472,192,60505,5,8,0:0:0:0:
168,288,60973,1,8,0:0:0:0:
384,292,61442,2,0,L|384:184,1,108.899999667664,8|0,0:0|0:0,0:0:0:0:
188,184,61911,2,0,L|272:108,1,108.899999667664,8|0,0:0|0:0,0:0:0:0:
488,76,62380,5,8,0:0:0:0:
184,76,62614,1,0,0:0:0:0:
52,76,62848,1,8,0:0:0:0:
352,192,63083,1,0,0:0:0:0:
496,192,63317,1,8,0:0:0:0:
192,256,63551,1,0,0:0:0:0:
356,256,63785,1,8,0:0:0:0:
136,344,64020,1,0,0:0:0:0:
436,344,64255,6,0,L|496:344,1,54.4499998338318,10|0,0:0|0:0,0:0:0:0:
379,256,64489,2,0,L|324:256,1,54.4499998338318,2|0,0:0|0:0,0:0:0:0:
68,168,64723,2,0,L|128:112,1,54.4499998338318,2|0,0:0|0:0,0:0:0:0:
228,84,64958,2,0,L|168:84,1,54.4499998338318,2|0,0:0|0:0,0:0:0:0:
420,84,65192,6,0,L|480:84,1,54.4499998338318,8|2,0:0|0:0,0:0:0:0:
256,192,65426,2,0,L|192:192,1,54.4499998338318,2|2,0:0|0:0,0:0:0:0:
448,296,65661,2,0,L|388:296,1,54.4499998338318,8|2,0:0|0:0,0:0:0:0:
120,296,65895,2,0,L|200:296,1,54.4499998338318,2|2,0:0|0:0,0:0:0:0:
340,192,67067,6,0,L|352:120,1,54.4499998338318,4|4,0:0|0:0,0:0:0:0:
480,140,67301,2,0,L|436:100,1,54.4499998338318,8|8,0:0|0:0,0:0:0:0:
220,104,67536,1,8,0:0:0:0:
372,104,67770,1,0,0:0:0:0:
32,104,68005,6,0,L|16:244,1,123.750004720688,2|0,0:0|0:0,0:0:0:0:
316,228,68473,2,0,L|196:192,1,123.750004720688,8|0,0:0|0:0,0:0:0:0:
496,132,68942,1,4,0:0:0:0:
324,132,69176,1,0,0:0:0:0:
472,132,69411,2,0,L|364:64,1,123.750004720688,8|0,0:0|0:0,0:0:0:0:
48,192,69880,5,2,0:0:0:0:
236,192,69997,1,0,0:0:0:0:
424,192,70114,1,0,0:0:0:0:
116,192,70348,1,8,0:0:0:0:
304,192,70465,1,0,0:0:0:0:
492,192,70582,1,0,0:0:0:0:
184,192,70817,5,2,0:0:0:0:
388,192,71051,1,0,0:0:0:0:
240,192,71286,2,0,L|280:144,1,61.875002360344,8|0,0:0|0:0,0:0:0:0:
428,112,71520,2,0,L|368:68,1,61.875002360344,0|0,0:0|0:0,0:0:0:0:
132,76,71755,6,0,L|8:76,1,123.750004720688,2|0,0:0|0:0,0:0:0:0:
312,192,72223,2,0,L|188:192,1,123.750004720688,8|0,0:0|0:0,0:0:0:0:
492,192,72692,1,4,0:0:0:0:
332,276,72926,1,0,0:0:0:0:
172,276,73161,2,0,L|36:276,1,123.750004720688,8|2,0:0|0:0,0:0:0:0:
64,220,73454,1,2,0:0:0:0:
112,192,73512,1,2,0:0:0:0:
164,192,73571,1,2,0:0:0:0:
352,192,73630,6,0,L|268:192,2,82.5000031471254,2|0|0,0:0|0:0|0:0,0:0:0:0:
220,120,74098,2,0,L|279:60,2,82.5000031471254,2|0|0,0:0|0:0|0:0,0:0:0:0:
360,120,74567,1,2,0:0:0:0:
212,120,74723,1,2,0:0:0:0:
396,120,74880,1,2,0:0:0:0:
140,120,75036,2,0,B|68:120|68:120|8:84,1,140.250002675056,8|0,0:0|0:0,0:0:0:0:
384,36,75505,6,0,P|426:68|396:120,1,123.750004720688,2|0,0:0|0:0,0:0:0:0:
92,120,75973,2,0,B|40:157|40:157|88:196,1,123.750004720688,8|0,0:0|0:0,0:0:0:0:
392,192,76442,1,4,0:0:0:0:
208,192,76676,1,0,0:0:0:0:
52,192,76911,2,0,L|160:260,1,123.750004720688,8|0,0:0|0:0,0:0:0:0:
468,260,77380,6,0,L|364:260,2,103.125,2|0|0,0:0|0:0|0:0,0:0:0:0:
116,348,77848,2,0,L|220:348,2,103.125,8|0|0,0:0|0:0|0:0,0:0:0:0:
464,348,78317,5,2,0:0:0:0:
268,348,78551,1,0,0:0:0:0:
428,348,78786,1,8,0:0:0:0:
230,352,79020,2,0,L|292:352,1,61.875002360344
24,192,79255,6,0,L|24:64,1,123.750004720688,2|0,0:0|0:0,0:0:0:0:
396,152,79723,2,0,L|396:280,1,123.750004720688,8|0,0:0|0:0,0:0:0:0:
56,68,80192,1,4,0:0:0:0:
364,68,80426,1,0,0:0:0:0:
140,68,80661,2,0,L|263:68,1,123.750004720688,8|2,0:0|0:0,0:0:0:0:
312,108,80954,1,2,0:0:0:0:
312,164,81012,1,2,0:0:0:0:
264,200,81071,1,2,0:0:0:0:
100,284,81130,5,2,0:0:0:0:
196,284,81247,1,0,0:0:0:0:
292,284,81364,1,0,0:0:0:0:
488,176,81598,1,2,0:0:0:0:
412,176,81715,1,0,0:0:0:0:
336,176,81832,1,0,0:0:0:0:
116,168,82067,6,0,L|140:112,1,54.4499998338318,2|0,0:0|0:0,0:0:0:0:
280,80,82301,2,0,L|220:80,1,54.4499998338318,0|0,0:0|0:0,0:0:0:0:
348,148,82536,2,0,L|398:179,1,54.4499998338318,2|0,0:0|0:0,0:0:0:0:
264,192,82770,1,2,0:0:0:0:
219,221,82828,1,2,0:0:0:0:
197,271,82887,1,2,0:0:0:0:
206,324,82945,1,2,0:0:0:0:
460,324,83005,6,0,P|504:244|464:144,1,185.625007081032,2|2,0:0|0:0,0:0:0:0:
256,80,83473,2,0,L|128:80,1,123.750004720688,8|0,0:0|0:0,0:0:0:0:
432,80,83942,1,4,0:0:0:0:
124,176,84176,2,0,L|204:176,1,61.875002360344,0|2,0:0|0:0,0:0:0:0:
312,272,84411,1,8,0:0:0:0:
164,272,84645,1,0,0:0:0:0:
476,272,84880,5,2,0:0:0:0:
288,272,84997,1,0,0:0:0:0:
100,272,85114,1,0,0:0:0:0:
168,176,85231,1,0,0:0:0:0:
416,176,85348,5,8,0:0:0:0:
324,176,85465,1,0,0:0:0:0:
416,176,85583,1,0,0:0:0:0:
69,80,85817,1,2,0:0:0:0:
224,80,86051,2,0,L|144:80,1,61.875002360344,0|0,0:0|0:0,0:0:0:0:
312,80,86286,1,8,0:0:0:0:
88,176,86520,1,2,0:0:0:0:
56,228,86578,1,2,0:0:0:0:
57,289,86637,1,2,0:0:0:0:
89,341,86695,1,2,0:0:0:0:
248,344,86755,6,0,L|444:344,1,185.625007081032,2|2,0:0|0:0,0:0:0:0:
216,224,87223,1,8,0:0:0:0:
364,224,87458,1,0,0:0:0:0:
56,224,87692,1,4,0:0:0:0:
216,224,87926,2,0,L|256:172,1,61.875002360344,0|2,0:0|0:0,0:0:0:0:
116,176,88161,1,8,0:0:0:0:
340,176,88395,1,2,0:0:0:0:
391,141,88453,1,2,0:0:0:0:
442,107,88512,1,2,0:0:0:0:
494,73,88570,1,2,0:0:0:0:
288,72,88630,6,0,L|180:4,2,123.750004720688,2|0|0,0:0|0:0|0:0,0:0:0:0:
372,152,88981,1,0,0:0:0:0:
120,176,89098,1,8,0:0:0:0:
308,176,89215,1,0,0:0:0:0:
496,176,89333,2,0,L|496:252,1,61.875002360344,0|0,0:0|0:0,0:0:0:0:
272,288,89567,6,0,L|132:288,1,123.750004720688,2|0,0:0|0:0,0:0:0:0:
224,192,89919,1,0,0:0:0:0:
440,192,90036,2,0,L|376:192,1,61.875002360344,8|2,0:0|0:0,0:0:0:0:
284,100,90270,2,0,L|368:100,1,61.875002360344,2|0,0:0|0:0,0:0:0:0:
112,100,90505,6,0,B|20:100|20:100|20:204,1,185.625007081032,2|2,0:0|0:0,0:0:0:0:
236,192,90973,1,8,0:0:0:0:
88,192,91208,1,0,0:0:0:0:
400,192,91442,1,4,0:0:0:0:
236,192,91676,2,0,L|284:136,1,61.875002360344,0|2,0:0|0:0,0:0:0:0:
400,144,91911,1,8,0:0:0:0:
176,144,92145,1,2,0:0:0:0:
160,202,92203,1,2,0:0:0:0:
191,253,92262,1,2,0:0:0:0:
250,267,92320,1,2,0:0:0:0:
440,264,92380,6,0,L|340:192,2,123.750004720688,2|0|0,0:0|0:0|0:0,0:0:0:0:
360,268,92731,1,0,0:0:0:0:
120,164,92848,1,8,0:0:0:0:
212,164,92965,1,0,0:0:0:0:
120,164,93083,1,0,0:0:0:0:
420,68,93317,1,2,0:0:0:0:
265,68,93551,2,0,L|176:68,1,61.875002360344,0|0,0:0|0:0,0:0:0:0:
344,68,93786,1,8,0:0:0:0:
172,164,94020,2,0,L|240:164,1,61.875002360344
484,192,94255,6,0,B|484:284|484:284|384:284,1,185.625007081032,2|2,0:0|0:0,0:0:0:0:
204,284,94723,1,8,0:0:0:0:
352,284,94958,1,0,0:0:0:0:
44,284,95192,1,4,0:0:0:0:
204,284,95426,2,0,L|271:284,1,61.875002360344,0|2,0:0|0:0,0:0:0:0:
152,192,95661,1,8,0:0:0:0:
348,196,95895,1,2,0:0:0:0:
400,192,95953,1,2,0:0:0:0:
432,236,96012,1,2,0:0:0:0:
412,283,96070,1,2,0:0:0:0:
272,284,96130,5,2,0:0:0:0:
176,284,96247,1,0,0:0:0:0:
80,284,96364,1,0,0:0:0:0:
276,192,96598,1,2,0:0:0:0:
352,192,96715,1,0,0:0:0:0:
428,192,96832,1,0,0:0:0:0:
284,120,97067,6,0,L|344:120,1,54.4499998338318,2|0,0:0|0:0,0:0:0:0:
236,44,97301,2,0,L|287:14,1,54.4499998338318
196,120,97536,6,0,L|226:68,1,54.4499998338318,2|0,0:0|0:0,0:0:0:0:
338,120,97770,1,2,0:0:0:0:
378,152,97828,1,2,0:0:0:0:
378,216,97887,1,2,0:0:0:0:
340,252,97945,1,2,0:0:0:0:
160,376,98005,6,0,P|72:184|164:20,1,412.5,4|0,0:0|0:0,0:0:0:0:
162,21,99880,2,0,P|107:95|311:243,1,412.5,2|0,0:0|0:0,0:0:0:0:
302,248,101755,6,0,P|230:0|124:208,1,618.75,2|0,0:0|0:0,0:0:0:0:
115,192,103630,2,0,P|247:216|375:324,1,288.75,2|0,0:0|0:0,0:0:0:0:
366,311,104567,6,0,L|179:312,1,185.625007081032,2|0,0:0|0:0,0:0:0:0:
181,232,105036,2,0,L|367:232,1,185.625007081032,0|0,0:0|0:0,0:0:0:0:
116,156,105505,6,0,P|82:238|122:313,1,165,2|0,0:0|0:0,0:0:0:0:
296,304,106208,2,0,P|400:272|464:156,1,247.5,4|0,0:0|0:0,0:0:0:0:
168,52,107380,6,0,P|144:112|152:216,1,165,2|0,0:0|0:0,0:0:0:0:
332,212,108083,2,0,P|396:288|292:344,1,247.5,4|0,0:0|0:0,0:0:0:0:
28,192,109255,6,0,L|28:96,1,82.5,2|0,0:0|0:0,0:0:0:0:
144,112,109723,2,0,L|184:24,1,82.5,0|0,0:0|0:0,0:0:0:0:
360,36,110192,2,0,P|432:60|468:140,1,165,2|0,0:0|0:0,0:0:0:0:
204,136,110895,6,0,L|80:136,1,123.750004720688,4|0,0:0|0:0,0:0:0:0:
280,228,111364,2,0,L|152:228,1,123.750004720688,0|0,0:0|0:0,0:0:0:0:
356,308,111833,2,0,P|448:268|496:136,1,247.5,2|0,0:0|0:0,0:0:0:0:
132,32,113005,6,0,P|56:72|28:148,1,165,2|0,0:0|0:0,0:0:0:0:
232,144,113708,2,0,P|328:184|256:268,1,247.5,4|0,0:0|0:0,0:0:0:0:
52,268,114645,6,0,P|56:207|208:144,1,247.5,2|0,0:0|0:0,0:0:0:0:
392,232,115583,2,0,P|484:208|504:144,1,165,4|0,0:0|0:0,0:0:0:0:
320,112,116286,2,0,B|384:112|384:112|400:48,1,123.750004720688
136,48,116755,6,0,P|64:92|136:172,1,217.799999335327,2|0,0:0|0:0,0:0:0:0:
308,172,117458,2,0,P|412:168|460:356,1,326.699999002991,2|0,0:0|0:0,0:0:0:0:
208,352,118395,1,0,0:0:0:0:
256,192,118630,12,0,119567,0:0:0:0:
268,192,119801,6,0,L|144:192,1,108.899999667664,0|0,0:0|0:0,0:0:0:0:
432,192,120270,2,0,P|464:148|444:100,1,108.899999667664,2|0,0:0|0:0,0:0:0:0:
280,100,120739,2,0,B|64:100|64:100|128:128|136:188,1,326.699999002991,2|2,0:0|0:0,0:0:0:0:
24,212,121676,1,0,0:0:0:0:
156,212,121911,1,0,0:0:0:0:
428,212,122145,6,0,P|492:240|428:336,1,217.799999335327,2|0,0:0|0:0,0:0:0:0:
228,336,122848,2,0,L|116:336,1,108.899999667664,0|0,0:0|0:0,0:0:0:0:
260,240,123317,2,0,L|268:128,1,108.899999667664,2|0,0:0|0:0,0:0:0:0:
136,132,123786,1,0,0:0:0:0:
396,68,124020,6,0,P|448:120|412:252,1,217.799999335327,2|0,0:0|0:0,0:0:0:0:
220,248,124723,2,0,L|316:192,1,108.899999667664,0|0,0:0|0:0,0:0:0:0:
128,192,125192,1,2,0:0:0:0:
280,192,125426,1,0,0:0:0:0:
172,192,125661,1,0,0:0:0:0:
236,192,125895,1,0,0:0:0:0:
40,192,126130,6,0,L|32:80,1,108.899999667664,2|0,0:0|0:0,0:0:0:0:
228,84,126598,2,0,L|356:84,1,108.899999667664,0|0,0:0|0:0,0:0:0:0:
392,84,126950,1,0,0:0:0:0:
256,192,127067,6,0,L|128:192,1,108.899999667664,2|0,0:0|0:0,0:0:0:0:
92,192,127419,1,0,0:0:0:0:
228,276,127536,2,0,L|296:276,1,54.4499998338318,2|0,0:0|0:0,0:0:0:0:
160,328,127770,2,0,L|136:380,1,54.4499998338318,0|0,0:0|0:0,0:0:0:0:
384,380,128005,6,0,L|388:244,1,108.899999667664,2|0,0:0|0:0,0:0:0:0:
236,264,128473,2,0,L|240:128,1,108.899999667664,0|0,0:0|0:0,0:0:0:0:
88,148,128942,2,0,L|92:12,1,108.899999667664,4|0,0:0|0:0,0:0:0:0:
288,40,129411,2,0,L|400:40,1,108.899999667664,0|0,0:0|0:0,0:0:0:0:
91,39,129880,6,0,L|87:175,1,108.899999667664,2|0,0:0|0:0,0:0:0:0:
296,152,130348,2,0,L|300:288,1,108.899999667664,0|0,0:0|0:0,0:0:0:0:
508,260,130817,1,4,0:0:0:0:
356,260,131051,1,0,0:0:0:0:
56,260,131286,2,0,B|24:260|24:260|24:212|24:212|56:212,1,108.899999667664,0|0,0:0|0:0,0:0:0:0:
424,192,131755,6,0,L|316:192,1,108.899999667664,2|0,0:0|0:0,0:0:0:0:
100,112,132223,2,0,L|212:112,1,108.899999667664,0|0,0:0|0:0,0:0:0:0:
428,36,132692,1,4,0:0:0:0:
296,36,132926,1,0,0:0:0:0:
496,36,133161,1,0,0:0:0:0:
320,36,133395,1,0,0:0:0:0:
20,36,133630,6,0,L|4:148,1,108.899999667664,2|0,0:0|0:0,0:0:0:0:
224,192,134098,2,0,L|332:192,1,108.899999667664,0|0,0:0|0:0,0:0:0:0:
236,280,134450,1,0,0:0:0:0:
440,280,134567,6,0,L|328:280,1,108.899999667664,4|0,0:0|0:0,0:0:0:0:
28,280,135036,1,2,0:0:0:0:
328,192,135270,1,0,0:0:0:0:
28,192,135505,6,0,L|28:84,1,108.899999667664,2|0,0:0|0:0,0:0:0:0:
92,84,135856,1,0,0:0:0:0:
296,88,135973,2,0,L|416:88,1,108.899999667664,2|0,0:0|0:0,0:0:0:0:
340,88,136325,1,0,0:0:0:0:
136,168,136442,2,0,L|256:168,1,108.899999667664,8|0,0:0|0:0,0:0:0:0:
464,244,136911,2,0,L|379:159,1,108.899999667664,2|0,0:0|0:0,0:0:0:0:
20,168,137380,6,0,L|128:168,1,108.899999667664,2|0,0:0|0:0,0:0:0:0:
64,168,137731,1,0,0:0:0:0:
256,56,137848,2,0,L|136:56,1,108.899999667664,2|0,0:0|0:0,0:0:0:0:
212,56,138200,1,0,0:0:0:0:
404,56,138317,1,8,0:0:0:0:
252,56,138551,1,0,0:0:0:0:
384,56,138786,1,2,0:0:0:0:
80,56,139020,2,0,L|40:56,2,27.2249999169159,2|2|2,0:0|0:0|0:0,0:0:0:0:
284,192,139255,6,0,L|317:68,1,108.899999667664,2|0,0:0|0:0,0:0:0:0:
96,192,139723,2,0,L|65:79,1,108.899999667664,2|0,0:0|0:0,0:0:0:0:
372,88,140192,1,8,0:0:0:0:
67,86,140426,1,0,0:0:0:0:
264,88,140661,1,2,0:0:0:0:
156,88,140895,1,0,0:0:0:0:
456,192,141130,6,0,L|347:192,1,108.899999667664,2|0,0:0|0:0,0:0:0:0:
48,188,141598,2,0,L|160:188,1,108.899999667664,2|0,0:0|0:0,0:0:0:0:
224,184,141950,1,0,0:0:0:0:
92,88,142067,6,0,L|14:10,1,108.899999667664,8|0,0:0|0:0,0:0:0:0:
80,8,142419,1,0,0:0:0:0:
212,8,142536,2,0,L|139:88,1,108.899999667664,2|0,0:0|0:0,0:0:0:0:
204,88,142887,1,0,0:0:0:0:
424,192,143005,6,0,L|436:76,1,108.899999667664,2|0,0:0|0:0,0:0:0:0:
56,192,143473,2,0,L|44:76,1,108.899999667664,2|0,0:0|0:0,0:0:0:0:
372,284,143942,2,0,L|256:284,1,108.899999667664,8|0,0:0|0:0,0:0:0:0:
416,196,144411,1,2,0:0:0:0:
116,192,144645,1,0,0:0:0:0:
444,196,144880,6,0,L|456:80,1,108.899999667664,2|0,0:0|0:0,0:0:0:0:
148,88,145348,2,0,L|12:88,1,108.899999667664,2|0,0:0|0:0,0:0:0:0:
340,172,145817,1,8,0:0:0:0:
124,172,146051,2,0,L|16:172,1,108.899999667664,0|2,0:0|0:0,0:0:0:0:
364,256,146520,2,0,L|400:256,2,27.2249999169159,2|2|2,0:0|0:0|0:0,0:0:0:0:
144,256,146755,6,0,L|32:256,1,108.899999667664,2|0,0:0|0:0,0:0:0:0:
100,256,147106,1,0,0:0:0:0:
296,192,147223,2,0,L|420:192,1,108.899999667664,2|0,0:0|0:0,0:0:0:0:
476,192,147574,1,0,0:0:0:0:
276,192,147692,6,0,L|360:107,1,108.899999667664,8|0,0:0|0:0,0:0:0:0:
156,116,148161,1,2,0:0:0:0:
456,116,148395,1,0,0:0:0:0:
128,116,148630,6,0,L|76:212,1,108.899999667664,2|0,0:0|0:0,0:0:0:0:
332,224,149098,2,0,L|280:320,1,108.899999667664,2|0,0:0|0:0,0:0:0:0:
160,320,149450,1,0,0:0:0:0:
492,320,149567,6,0,L|380:320,1,108.899999667664,2|0,0:0|0:0,0:0:0:0:
316,320,149919,1,0,0:0:0:0:
72,320,150036,2,0,L|116:280,1,54.4499998338318,2|0,0:0|0:0,0:0:0:0:
220,224,150270,2,0,L|140:224,1,54.4499998338318,0|0,0:0|0:0,0:0:0:0:
412,224,150505,5,4,0:0:0:0:
192,96,150973,1,0,0:0:0:0:
408,96,151442,1,2,0:0:0:0:
236,96,151676,1,0,0:0:0:0:
60,96,151911,1,0,0:0:0:0:
232,192,152380,5,2,0:0:0:0:
232,192,152497,1,0,0:0:0:0:
232,192,152614,1,0,0:0:0:0:
472,192,152848,1,2,0:0:0:0:
472,192,152965,1,0,0:0:0:0:
472,192,153082,1,0,0:0:0:0:
276,192,153317,1,4,0:0:0:0:
440,192,153551,1,0,0:0:0:0:
308,192,153786,1,2,0:0:0:0:
504,192,154020,1,0,0:0:0:0:
144,192,154255,5,8,0:0:0:0:
448,288,154723,1,8,0:0:0:0:
232,292,155192,2,0,L|162:209,1,108.899999667664,8|0,0:0|0:0,0:0:0:0:
400,160,155661,2,0,L|330:77,1,108.899999667664,8|0,0:0|0:0,0:0:0:0:
24,76,156130,5,8,0:0:0:0:
324,75,156364,1,0,0:0:0:0:
192,76,156598,1,8,0:0:0:0:
492,160,156833,1,0,0:0:0:0:
340,161,157067,1,8,0:0:0:0:
40,256,157301,1,0,0:0:0:0:
240,256,157535,1,8,0:0:0:0:
20,344,157770,1,0,0:0:0:0:
328,344,158005,6,0,L|388:344,1,54.4499998338318,8|0,0:0|0:0,0:0:0:0:
252,256,158239,2,0,L|188:256,1,54.4499998338318,2|0,0:0|0:0,0:0:0:0:
332,193,158473,2,0,L|392:137,1,54.4499998338318,2|0,0:0|0:0,0:0:0:0:
236,192,158708,2,0,L|296:136,1,54.4499998338318,2|0,0:0|0:0,0:0:0:0:
496,40,158942,6,0,L|436:40,1,54.4499998338318,8|0,0:0|0:0,0:0:0:0:
236,192,159176,2,0,L|300:192,1,54.4499998338318,2|0,0:0|0:0,0:0:0:0:
68,192,159411,2,0,L|13:192,1,54.4499998338318,8|0,0:0|0:0,0:0:0:0:
288,328,159645,2,0,L|342:328,1,54.4499998338318,2|0,0:0|0:0,0:0:0:0:
148,192,160817,6,0,L|136:120,1,54.4499998338318,4|4,0:0|0:0,0:0:0:0:
8,140,161051,2,0,L|52:100,1,54.4499998338318,8|8,0:0|0:0,0:0:0:0:
268,104,161286,1,8,0:0:0:0:
116,104,161520,1,0,0:0:0:0:
480,104,161755,6,0,L|496:244,1,123.750004720688,2|0,0:0|0:0,0:0:0:0:
196,228,162223,2,0,L|316:192,1,123.750004720688,8|0,0:0|0:0,0:0:0:0:
16,132,162692,1,4,0:0:0:0:
314,132,162926,1,0,0:0:0:0:
116,132,163161,2,0,L|196:32,1,123.750004720688,8|0,0:0|0:0,0:0:0:0:
492,192,163630,5,2,0:0:0:0:
304,192,163747,1,0,0:0:0:0:
116,192,163864,1,0,0:0:0:0:
424,192,164098,1,8,0:0:0:0:
236,192,164215,1,0,0:0:0:0:
48,192,164332,1,0,0:0:0:0:
356,192,164567,5,2,0:0:0:0:
152,192,164801,1,0,0:0:0:0:
300,192,165036,2,0,L|340:144,1,61.875002360344,8|0,0:0|0:0,0:0:0:0:
192,144,165270,2,0,L|152:96,1,61.875002360344,0|0,0:0|0:0,0:0:0:0:
384,76,165505,6,0,L|508:76,1,123.750004720688,2|0,0:0|0:0,0:0:0:0:
204,192,165973,2,0,L|328:192,1,123.750004720688,8|0,0:0|0:0,0:0:0:0:
24,192,166442,1,4,0:0:0:0:
360,108,166676,1,0,0:0:0:0:
48,108,166911,2,0,P|60:168|108:204,1,123.750004720688,8|2,0:0|0:0,0:0:0:0:
140,148,167204,1,2,0:0:0:0:
100,108,167262,1,2,0:0:0:0:
48,108,167321,1,2,0:0:0:0:
264,148,167380,6,0,L|172:148,2,92.812503540516,2|0|0,0:0|0:0|0:0,0:0:0:0:
408,216,167848,2,0,L|308:216,2,92.812503540516,2|0|0,0:0|0:0|0:0,0:0:0:0:
268,236,168317,1,2,0:0:0:0:
112,236,168473,1,2,0:0:0:0:
344,236,168630,1,2,0:0:0:0:
36,236,168786,2,0,B|36:308|36:308|84:356,1,140.250002675056,8|0,0:0|0:0,0:0:0:0:
428,348,169255,6,0,P|412:288|360:260,1,123.750004720688,2|0,0:0|0:0,0:0:0:0:
52,260,169723,2,0,B|84:208|84:208|148:208,1,123.750004720688,8|0,0:0|0:0,0:0:0:0:
448,192,170192,1,4,0:0:0:0:
220,192,170426,1,0,0:0:0:0:
400,192,170661,2,0,L|508:124,1,123.750004720688,8|0,0:0|0:0,0:0:0:0:
76,120,171130,6,0,L|180:120,2,103.125,2|0|0,0:0|0:0|0:0,0:0:0:0:
404,32,171598,2,0,L|301:32,2,103.125,8|0|0,0:0|0:0|0:0,0:0:0:0:
56,32,172067,5,2,0:0:0:0:
244,32,172301,1,0,0:0:0:0:
88,32,172536,1,8,0:0:0:0:
312,32,172770,2,0,L|372:76,1,61.875002360344,0|0,0:0|0:0,0:0:0:0:
144,192,173005,6,0,L|12:192,1,123.750004720688,2|0,0:0|0:0,0:0:0:0:
368,192,173473,2,0,L|492:192,1,123.750004720688,8|0,0:0|0:0,0:0:0:0:
140,316,173942,1,4,0:0:0:0:
448,316,174176,1,0,0:0:0:0:
224,316,174411,2,0,L|101:316,1,123.750004720688,8|2,0:0|0:0,0:0:0:0:
52,276,174704,1,2,0:0:0:0:
52,220,174762,1,2,0:0:0:0:
100,184,174821,1,2,0:0:0:0:
264,100,174880,6,0,L|396:100,1,108.899999667664,2|0,0:0|0:0,0:0:0:0:
156,184,175348,2,0,L|47:184,1,108.899999667664,2|0,0:0|0:0,0:0:0:0:
364,176,175817,2,0,L|284:96,1,108.899999667664,4|0,0:0|0:0,0:0:0:0:
36,104,176286,2,0,L|115:24,1,108.899999667664,0|0,0:0|0:0,0:0:0:0:
460,324,176755,6,0,P|504:252|448:180,1,185.625007081032,2|2,0:0|0:0,0:0:0:0:
208,80,177223,2,0,L|80:80,1,123.750004720688,8|0,0:0|0:0,0:0:0:0:
388,80,177692,1,4,0:0:0:0:
88,180,177926,2,0,L|168:180,1,61.875002360344,0|2,0:0|0:0,0:0:0:0:
276,276,178161,1,8,0:0:0:0:
424,272,178395,1,0,0:0:0:0:
112,272,178630,5,2,0:0:0:0:
300,272,178747,1,0,0:0:0:0:
488,272,178864,1,0,0:0:0:0:
392,176,178981,1,0,0:0:0:0:
144,176,179098,5,8,0:0:0:0:
244,176,179215,1,0,0:0:0:0:
144,176,179333,1,0,0:0:0:0:
491,80,179567,1,2,0:0:0:0:
336,80,179801,2,0,L|268:80,1,61.875002360344,0|0,0:0|0:0,0:0:0:0:
424,80,180036,1,8,0:0:0:0:
200,136,180270,1,2,0:0:0:0:
168,188,180328,1,2,0:0:0:0:
169,249,180387,1,2,0:0:0:0:
201,301,180445,1,2,0:0:0:0:
360,304,180505,6,0,B|456:304|456:304|504:228,1,185.625007081032,2|2,0:0|0:0,0:0:0:0:
284,228,180973,1,8,0:0:0:0:
432,228,181208,1,0,0:0:0:0:
124,228,181442,1,4,0:0:0:0:
284,228,181676,2,0,L|240:176,1,61.875002360344,0|2,0:0|0:0,0:0:0:0:
108,180,181911,1,8,0:0:0:0:
332,180,182145,1,2,0:0:0:0:
384,144,182203,1,2,0:0:0:0:
396,76,182262,1,2,0:0:0:0:
344,32,182320,1,2,0:0:0:0:
132,32,182380,6,0,L|21:96,2,123.750004720688,2|0|0,0:0|0:0|0:0,0:0:0:0:
236,180,182731,1,0,0:0:0:0:
452,180,182848,1,2,0:0:0:0:
264,180,182965,1,0,0:0:0:0:
76,180,183083,2,0,L|76:256,1,61.875002360344,0|0,0:0|0:0,0:0:0:0:
300,292,183317,6,0,L|440:292,1,123.750004720688,2|0,0:0|0:0,0:0:0:0:
348,192,183669,1,0,0:0:0:0:
132,192,183786,2,0,L|196:192,1,61.875002360344,8|2,0:0|0:0,0:0:0:0:
412,104,184020,2,0,L|328:104,1,61.875002360344,2|0,0:0|0:0,0:0:0:0:
38,100,184255,6,0,B|38:192|38:192|142:192,1,185.625007081032,2|2,0:0|0:0,0:0:0:0:
336,196,184723,1,8,0:0:0:0:
188,196,184958,1,0,0:0:0:0:
500,196,185192,1,4,0:0:0:0:
308,196,185426,2,0,L|244:196,1,61.875002360344,0|2,0:0|0:0,0:0:0:0:
168,148,185661,1,8,0:0:0:0:
372,152,185895,1,2,0:0:0:0:
388,210,185953,1,2,0:0:0:0:
357,261,186012,1,2,0:0:0:0:
298,275,186070,1,2,0:0:0:0:
116,336,186130,5,2,0:0:0:0:
304,336,186247,1,0,0:0:0:0:
492,336,186365,1,0,0:0:0:0:
400,336,186481,1,0,0:0:0:0:
141,198,186598,2,0,L|241:270,2,123.750004720688,8|0|0,0:0|0:0|0:0,0:0:0:0:
372,68,187067,1,2,0:0:0:0:
247,68,187301,2,0,L|336:68,1,61.875002360344,0|0,0:0|0:0,0:0:0:0:
153,68,187536,2,0,L|77:68,1,61.875002360344,8|0,0:0|0:0,0:0:0:0:
16,152,187770,2,0,L|92:152,1,61.875002360344,0|0,0:0|0:0,0:0:0:0:
264,152,188005,5,2,0:0:0:0:
306,195,188122,1,2,0:0:0:0:
315,255,188239,1,2,0:0:0:0:
287,309,188356,1,2,0:0:0:0:
68,308,188473,1,8,0:0:0:0:
72,227,188590,1,0,0:0:0:0:
125,164,188707,1,0,0:0:0:0:
203,145,188824,1,0,0:0:0:0:
423,147,188942,6,0,L|432:216,1,61.875002360344,4|0,0:0|0:0,0:0:0:0:
204,146,189176,2,0,L|195:215,1,61.875002360344,0|0,0:0|0:0,0:0:0:0:
400,144,189411,2,0,L|409:213,1,61.875002360344,8|2,0:0|0:0,0:0:0:0:
224,280,189645,1,2,0:0:0:0:
163,279,189703,1,2,0:0:0:0:
122,235,189762,1,2,0:0:0:0:
124,175,189820,1,2,0:0:0:0:
304,144,189880,5,2,0:0:0:0:
400,144,189997,1,0,0:0:0:0:
496,144,190114,1,0,0:0:0:0:
346,267,190348,1,2,0:0:0:0:
270,267,190465,1,0,0:0:0:0:
194,267,190582,1,0,0:0:0:0:
332,144,190817,6,0,L|277:144,1,54.4499998338318,2|0,0:0|0:0,0:0:0:0:
376,68,191051,2,0,L|324:38,1,54.4499998338318
240,144,191286,6,0,L|270:92,1,54.4499998338318,2|0,0:0|0:0,0:0:0:0:
332,144,191520,1,0,0:0:0:0:
