osu file format v14

[General]
AudioFilename: audio.mp3
AudioLeadIn: 0
PreviewTime: 40934
Countdown: 0
SampleSet: None
StackLeniency: 0.7
Mode: 2
LetterboxInBreaks: 0
EpilepsyWarning: 1
WidescreenStoryboard: 1

[Editor]
Bookmarks: 505,41755,68005,98005,105505,135505,161755,191520
DistanceSpacing: 1
BeatDivisor: 4
GridSize: 4
TimelineZoom: 1

[Metadata]
Title:Arcadia
TitleUnicode:Arcadia
Artist:Hardwell & Joey Dale feat. Luciana
ArtistUnicode:Hardwell & Joey Dale feat. Luciana
Creator:JBHyperion
Version:Magic Girl's Salad
Source:
Tags:Dutch Progressive House Electronic Dance Music EDM Electro Dubstep United We Are Caporaso Daleboudt Robbert van Corput Nick Clow Magic Girl Withered Lotus Sorcerer Riari P_i_k_u Piku guineaQ
BeatmapID:1009519
BeatmapSetID:472434

[Difficulty]
HPDrainRate:4
CircleSize:2.4
OverallDifficulty:6.4
ApproachRate:6.4
SliderMultiplier:1.6
SliderTickRate:1

[Events]
//Background and Video events
0,0,"Arcadia2.jpg",0,0
//Break Periods
2,8204,10766
2,98205,104516
//Storyboard Layer 0 (Background)
//Storyboard Layer 1 (Fail)
//Storyboard Layer 2 (Pass)
//Storyboard Layer 3 (Foreground)
Sprite,Foreground,Centre,"Collab SB\ArcadiaSalad.png",320,240 M,0,270,973,20,315,100,315 F,0,270,973,0,1 S,0,270,4137,0.45 S,0,4137,4255,0.45,0.48 S,0,4255,4372,0.48,0.45 S,0,6012,6130,0.45,0.48 S,0,6130,6247,0.48,0.45 M,0,7770,8005,100,315,100,275 F,0,7770,8005,1,0 R,0,7770,8005,0,6.283637
Sprite,Foreground,Centre,"Collab SB\ArcadiaMG.png",320,240 M,0,2145,2848,360,378,180,378 F,0,2145,2848,0,1 S,0,2145,4137,0.3 S,0,4137,4255,0.3,0.325 S,0,4255,4372,0.325,0.3 S,0,6012,6130,0.3,0.325 S,0,6130,6247,0.325,0.3 M,0,7770,8005,180,378,180,445 F,0,7770,8005,1,0
//Storyboard Sound Samples

[TimingPoints]
505,468.75,4,3,1,50,1,0
6130,-100,4,3,1,55,0,0
6598,-100,4,3,1,60,0,0
7067,-100,4,3,1,65,0,0
7536,-100,4,3,1,70,0,0
8005,-100,4,3,1,75,0,0
11755,-100,4,2,1,65,0,0
24880,-100,4,2,1,75,0,0
26755,-100,4,2,1,85,0,0
41755,-100,4,2,1,95,0,0
56755,-100,4,2,1,80,0,0
57223,-100,4,2,1,60,0,0
58630,-100,4,2,1,70,0,0
60505,-100,4,3,1,40,0,0
61442,-100,4,3,1,45,0,0
62380,-100,4,3,1,50,0,0
63317,-100,4,3,1,55,0,0
64255,-100,4,3,1,60,0,0
65192,-100,4,3,1,65,0,0
65661,-100,4,3,1,70,0,0
68005,-100,4,3,2,90,0,1
73630,-100,4,3,2,85,0,1
74098,-100,4,3,2,80,0,1
74567,-100,4,3,2,75,0,1
75036,-100,4,3,2,100,0,1
75505,-100,4,3,2,90,0,1
81130,-100,4,2,1,80,0,0
81598,-100,4,2,1,70,0,0
82067,-100,4,2,1,60,0,0
82536,-100,4,2,1,50,0,0
83005,-100,4,3,2,90,0,1
89567,-100,4,3,2,85,0,1
90036,-100,4,3,2,80,0,1
90505,-100,4,3,2,90,0,1
96130,-100,4,2,1,80,0,0
96598,-100,4,2,1,70,0,0
97067,-100,4,2,1,60,0,0
97536,-100,4,2,1,50,0,0
98005,-100,4,2,1,75,0,0
105505,-100,4,2,1,50,0,0
126130,-100,4,2,1,55,0,0
127067,-100,4,2,1,60,0,0
128005,-100,4,2,1,65,0,0
129880,-100,4,2,1,70,0,0
130817,-100,4,2,1,75,0,0
131755,-100,4,2,1,80,0,0
133630,-100,4,2,1,85,0,0
134567,-100,4,2,1,90,0,0
148630,-100,4,3,1,85,0,0
149098,-100,4,3,1,80,0,0
149567,-100,4,3,1,75,0,0
150036,-100,4,3,1,70,0,0
150505,-100,4,2,1,80,0,0
152614,-100,4,2,1,60,0,0
154255,-100,4,3,1,40,0,0
155192,-100,4,3,1,45,0,0
156130,-100,4,3,1,50,0,0
157067,-100,4,3,1,55,0,0
158005,-100,4,3,1,60,0,0
158942,-100,4,3,1,65,0,0
159411,-100,4,3,1,70,0,0
161755,-100,4,3,2,90,0,1
167380,-100,4,3,2,85,0,1
167848,-100,4,3,2,80,0,1
168317,-100,4,3,2,75,0,1
168786,-100,4,3,2,100,0,1
169255,-100,4,3,2,90,0,1
174880,-100,4,2,1,80,0,0
175348,-100,4,2,1,85,0,0
175817,-100,4,2,1,90,0,0
176286,-100,4,2,1,80,0,0
176755,-100,4,3,2,90,0,1
183317,-100,4,3,2,85,0,1
183786,-100,4,3,2,80,0,1
184255,-100,4,3,2,90,0,1
189880,-100,4,2,1,80,0,0
190348,-100,4,2,1,70,0,0
190817,-100,4,2,1,60,0,0
191286,-100,4,2,1,50,0,0

[Colours]
Combo1 : 255,102,255
Combo2 : 58,95,225
Combo3 : 147,112,219
Combo4 : 50,200,255

[HitObjects]
244,288,505,6,0,P|188:248|196:176,1,120,4|0,0:0|0:0,0:0:0:0:
248,200,973,2,0,P|304:168|280:88,1,160,8|2,0:0|0:0,0:0:0:0:
72,88,1911,1,8,0:0:0:0:
283,278,2380,6,0,P|339:238|331:166,1,120,2|0,0:0|0:0,0:0:0:0:
276,192,2848,2,0,P|220:160|244:80,1,160,8|2,0:0|0:0,0:0:0:0:
464,96,3786,1,8,0:0:0:0:
244,96,4255,6,0,L|396:96,1,120,2|0,0:0|0:0,0:0:0:0:
436,128,4723,2,0,L|260:128,1,160,8|2,0:0|0:0,0:0:0:0:
68,128,5661,1,8,0:0:0:0:
276,96,6130,6,0,L|428:96,1,120
476,128,6598,2,0,L|300:128,1,160,8|2,0:0|0:0,0:0:0:0:
108,128,7536,2,0,P|92:192|148:288,1,160,8|2,0:0|0:0,0:0:0:0:
204,184,11755,6,0,L|340:280,1,160,4|0,0:0|0:0,0:0:0:0:
124,296,12692,2,0,L|68:216,1,80,2|0,0:0|0:0,0:0:0:0:
204,240,13161,2,0,L|260:168,1,80,0|0,0:0|0:0,0:0:0:0:
148,168,13630,5,4,0:0:0:0:
356,168,14098,1,0,0:0:0:0:
228,168,14567,1,2,0:0:0:0:
140,168,14801,1,0,0:0:0:0:
52,168,15035,1,0,0:0:0:0:
112,96,15270,2,0,L|176:96,1,40
192,96,15505,6,0,P|272:128|304:192,1,160,4|0,0:0|0:0,0:0:0:0:
80,232,16442,2,0,L|160:232,1,80,2|0,0:0|0:0,0:0:0:0:
32,232,16911,2,0,L|120:232,1,80
260,232,17380,5,2,0:0:0:0:
128,232,17848,1,2,0:0:0:0:
360,232,18083,2,0,L|400:208,2,40,0|0|4,0:0|0:0|0:0,0:0:0:0:
224,232,18551,2,0,L|184:208,2,40,0|0|2,0:0|0:0|0:0,0:0:0:0:
344,232,19020,2,0,L|400:232,1,40
424,240,19255,6,0,L|288:344,1,160,4|0,0:0|0:0,0:0:0:0:
96,312,20192,2,0,L|184:312,1,80,2|0,0:0|0:0,0:0:0:0:
256,312,20661,2,0,L|176:312,1,80,0|0,0:0|0:0,0:0:0:0:
328,312,21130,5,4,0:0:0:0:
176,312,21598,1,0,0:0:0:0:
368,312,22067,2,0,L|368:224,1,80,4|0,0:0|0:0,0:0:0:0:
456,296,22536,2,0,L|456:192,1,80,0|0,0:0|0:0,0:0:0:0:
412,176,22887,1,0,0:0:0:0:
368,144,23005,6,0,L|232:256,1,160,4|0,0:0|0:0,0:0:0:0:
120,144,23942,2,0,L|64:224,1,80,2|0,0:0|0:0,0:0:0:0:
152,224,24411,2,0,L|208:296,1,80,0|0,0:0|0:0,0:0:0:0:
288,288,24880,5,2,0:0:0:0:
96,284,25348,1,2,0:0:0:0:
324,232,25583,1,0,0:0:0:0:
360,200,25700,1,0,0:0:0:0:
400,164,25817,1,4,0:0:0:0:
292,172,26051,1,0,0:0:0:0:
240,148,26169,1,0,0:0:0:0:
228,92,26286,2,0,L|312:92,1,80,2|0,0:0|0:0,0:0:0:0:
96,92,26755,6,0,P|32:128|12:212,1,160,4|0,0:0|0:0,0:0:0:0:
256,160,27692,1,8,0:0:0:0:
194,219,27926,1,0,0:0:0:0:
202,303,28160,1,0,0:0:0:0:
274,348,28395,1,0,0:0:0:0:
416,304,28630,5,2,0:0:0:0:
216,304,29098,1,0,0:0:0:0:
384,240,29567,1,8,0:0:0:0:
445,181,29801,1,0,0:0:0:0:
437,97,30035,1,0,0:0:0:0:
365,52,30270,1,0,0:0:0:0:
240,56,30505,5,2,0:0:0:0:
365,52,30973,1,0,0:0:0:0:
128,248,31442,1,8,0:0:0:0:
66,189,31676,1,0,0:0:0:0:
74,105,31910,1,0,0:0:0:0:
146,60,32145,1,0,0:0:0:0:
288,60,32380,5,2,0:0:0:0:
128,60,32848,1,0,0:0:0:0:
360,56,33083,2,0,L|400:88,2,40,0|0|8,0:0|0:0|0:0,0:0:0:0:
136,60,33551,2,0,L|96:92,2,40,0|0|8,0:0|0:0|0:0,0:0:0:0:
280,56,34020,2,0,L|240:56,1,40
200,56,34255,6,0,L|24:56,2,160,4|0|8,0:0|0:0|0:0,0:0:0:0:
352,56,35661,2,0,L|440:56,1,80,0|0,0:0|0:0,0:0:0:0:
288,56,36130,5,2,0:0:0:0:
88,56,36598,1,0,0:0:0:0:
192,192,37067,1,8,0:0:0:0:
104,152,37301,1,0,0:0:0:0:
88,56,37536,1,0,0:0:0:0:
216,264,37770,2,0,L|152:264,1,40
136,264,38005,6,0,L|304:264,2,160,2|0|8,0:0|0:0|0:0,0:0:0:0:
264,264,39411,2,0,L|352:264,1,80
232,264,39880,2,0,L|64:264,1,160,2|0,0:0|0:0,0:0:0:0:
144,200,40583,1,0,0:0:0:0:
220,200,40700,1,0,0:0:0:0:
296,200,40817,1,8,0:0:0:0:
368,200,41051,2,0,L|432:152,2,80,0|8|0,0:0|0:0|0:0,0:0:0:0:
152,160,41755,6,0,P|72:208|56:268,2,160,4|0|8,0:0|0:0|0:0,0:0:0:0:
312,160,42926,1,0,0:0:0:0:
432,160,43161,1,0,0:0:0:0:
312,160,43395,1,0,0:0:0:0:
175,224,43630,6,0,P|107:190|76:112,2,160,2|0|8,0:0|0:0|0:0,0:0:0:0:
312,224,44801,2,0,L|436:224,1,80
244,224,45270,6,0,L|212:192,2,40,0|0|2,0:0|0:0|0:0,0:0:0:0:
412,224,45973,1,0,0:0:0:0:
200,224,46442,2,0,L|112:224,2,80,8|0|0,0:0|0:0|0:0,0:0:0:0:
296,224,47145,1,0,0:0:0:0:
448,224,47380,5,2,0:0:0:0:
296,224,47848,1,0,0:0:0:0:
68,224,48083,2,0,L|36:192,2,40,0|0|8,0:0|0:0|0:0,0:0:0:0:
296,224,48551,2,0,L|328:192,2,40,0|0|8,0:0|0:0|0:0,0:0:0:0:
176,224,49020,2,0,L|144:192,2,40,0|0|4,0:0|0:0|0:0,0:0:0:0:
416,224,49723,5,0,0:0:0:0:
256,232,50192,2,0,L|216:160,1,80,8|0,0:0|0:0,0:0:0:0:
336,160,50661,2,0,L|384:88,1,80,0|0,0:0|0:0,0:0:0:0:
264,80,51130,5,2,0:0:0:0:
32,80,51598,1,0,0:0:0:0:
240,80,52067,2,0,L|256:160,1,80,8|0,0:0|0:0,0:0:0:0:
128,160,52536,2,0,P|120:228|192:280,1,160,0|2,0:0|0:0,0:0:0:0:
424,80,53473,5,0,0:0:0:0:
248,80,53942,2,0,L|160:80,1,80,8|0,0:0|0:0,0:0:0:0:
40,80,54411,2,0,L|128:80,1,80,0|0,0:0|0:0,0:0:0:0:
240,80,54880,6,0,P|312:112|328:208,1,160,2|0,0:0|0:0,0:0:0:0:
124,192,55583,2,0,L|92:160,2,40,0|0|8,0:0|0:0|0:0,0:0:0:0:
352,192,56051,2,0,L|384:160,2,40,0|0|8,0:0|0:0|0:0,0:0:0:0:
232,192,56520,2,0,L|200:160,2,40,0|0|4,0:0|0:0|0:0,0:0:0:0:
296,192,57223,5,0,0:0:0:0:
144,192,57692,2,0,L|96:128,2,80,2|0|0,0:0|0:0|0:0,0:0:0:0:
360,192,58630,5,2,0:0:0:0:
168,192,59098,1,2,0:0:0:0:
368,192,59567,2,0,L|416:128,3,80,4|0|2|0,0:0|0:0|0:0|0:0,0:0:0:0:
256,104,60505,5,8,0:0:0:0:
52,104,60973,1,8,0:0:0:0:
256,104,61442,1,8,0:0:0:0:
460,104,61911,1,8,0:0:0:0:
256,104,62380,5,8,0:0:0:0:
52,104,62848,1,8,0:0:0:0:
256,104,63317,1,8,0:0:0:0:
460,104,63786,1,8,0:0:0:0:
296,104,64255,6,0,L|192:104,1,80,10|2,0:0|0:0,0:0:0:0:
136,104,64723,2,0,L|216:104,1,80,2|2,0:0|0:0,0:0:0:0:
296,104,65192,2,0,L|400:104,1,80,8|2,0:0|0:0,0:0:0:0:
456,104,65661,2,0,L|360:104,1,80,8|2,0:0|0:0,0:0:0:0:
208,80,68005,6,0,L|96:224,1,160,2|8,0:0|0:0,0:0:0:0:
328,200,68942,2,0,L|416:264,2,80,4|0|8,0:0|0:0|0:0,0:0:0:0:
228,200,69880,6,0,L|196:160,2,40,2|0|0,0:0|0:0|0:0,0:0:0:0:
340,200,70348,2,0,L|364:168,2,40,8|0|0,0:0|0:0|0:0,0:0:0:0:
108,200,70817,1,2,0:0:0:0:
60,138,71051,1,0,0:0:0:0:
71,61,71285,1,8,0:0:0:0:
135,16,71520,1,0,0:0:0:0:
352,20,71755,6,0,L|480:124,1,160,2|8,0:0|0:0,0:0:0:0:
184,200,72692,2,0,L|96:264,2,80,4|0|8,0:0|0:0|0:0,0:0:0:0:
384,200,73630,6,0,L|448:160,2,53.3333333333333,2|0|0,0:0|0:0|0:0,0:0:0:0:
304,200,74098,2,0,L|240:160,2,53.3333333333333,2|0|0,0:0|0:0|0:0,0:0:0:0:
408,200,74567,1,2,0:0:0:0:
447,260,74723,1,2,0:0:0:0:
425,329,74879,1,2,0:0:0:0:
358,356,75035,1,8,0:0:0:0:
120,320,75505,6,0,L|272:208,1,160,2|8,0:0|0:0,0:0:0:0:
88,224,76442,2,0,L|24:160,2,80,4|0|8,0:0|0:0|0:0,0:0:0:0:
344,200,77380,6,0,L|376:160,2,40,2|0|0,0:0|0:0|0:0,0:0:0:0:
220,200,77848,2,0,L|195:168,2,40,8|0|0,0:0|0:0|0:0,0:0:0:0:
440,200,78317,1,2,0:0:0:0:
487,138,78551,1,0,0:0:0:0:
476,61,78785,1,8,0:0:0:0:
412,16,79020,1,0,0:0:0:0:
180,32,79255,6,0,L|332:136,1,160,2|8,0:0|0:0,0:0:0:0:
152,176,80192,2,0,L|80:232,2,80,4|0|8,0:0|0:0|0:0,0:0:0:0:
344,184,81130,6,0,L|384:168,2,40,2|0|0,0:0|0:0|0:0,0:0:0:0:
196,184,81598,2,0,L|158:169,2,40,2|0|0,0:0|0:0|0:0,0:0:0:0:
416,184,82067,2,0,P|464:128|424:36,1,160,2|2,0:0|0:0,0:0:0:0:
128,120,83005,6,0,L|284:204,1,160,2|8,0:0|0:0,0:0:0:0:
100,200,83942,2,0,L|12:264,2,80,4|0|8,0:0|0:0|0:0,0:0:0:0:
308,196,84880,6,0,L|340:156,2,40,2|0|0,0:0|0:0|0:0,0:0:0:0:
180,196,85348,2,0,L|156:164,2,40,8|0|0,0:0|0:0|0:0,0:0:0:0:
388,196,85817,1,2,0:0:0:0:
436,134,86051,1,0,0:0:0:0:
425,57,86285,1,8,0:0:0:0:
361,12,86520,1,0,0:0:0:0:
136,24,86755,6,0,L|12:136,1,160,2|8,0:0|0:0,0:0:0:0:
264,200,87692,2,0,L|352:264,2,80,4|0|8,0:0|0:0|0:0,0:0:0:0:
104,200,88630,6,0,L|72:160,2,40,2|0|0,0:0|0:0|0:0,0:0:0:0:
232,208,89098,2,0,L|257:176,2,40,8|0|0,0:0|0:0|0:0,0:0:0:0:
72,200,89567,1,2,0:0:0:0:
160,152,89801,1,0,0:0:0:0:
120,152,89918,1,0,0:0:0:0:
80,152,90035,1,8,0:0:0:0:
199,225,90270,1,2,0:0:0:0:
408,292,90505,6,0,L|228:208,1,160,2|8,0:0|0:0,0:0:0:0:
432,224,91442,2,0,L|496:160,2,80,4|0|8,0:0|0:0|0:0,0:0:0:0:
160,200,92380,6,0,L|128:160,2,40,2|0|0,0:0|0:0|0:0,0:0:0:0:
288,200,92848,2,0,L|313:168,2,40,8|0|0,0:0|0:0|0:0,0:0:0:0:
64,200,93317,1,2,0:0:0:0:
17,138,93551,1,0,0:0:0:0:
28,61,93785,1,8,0:0:0:0:
92,16,94020,1,0,0:0:0:0:
316,32,94255,6,0,L|164:136,1,160,2|8,0:0|0:0,0:0:0:0:
344,176,95192,2,0,L|416:232,2,80,4|0|8,0:0|0:0|0:0,0:0:0:0:
200,184,96130,6,0,L|160:168,2,40,2|0|0,0:0|0:0|0:0,0:0:0:0:
304,184,96598,2,0,L|341:169,2,40,2|0|0,0:0|0:0|0:0,0:0:0:0:
144,184,97067,2,0,P|112:144|152:48,1,160,2|2,0:0|0:0,0:0:0:0:
256,48,98005,1,4,0:0:0:0:
252,328,105505,6,0,P|44:240|140:32,1,480,2|0,0:0|0:0,0:0:0:0:
252,328,107380,6,0,P|460:240|364:32,1,480,2|0,0:0|0:0,0:0:0:0:
192,48,109255,6,0,P|34:210|56:304,1,320,2|2,0:0|0:0,0:0:0:0:
304,296,110895,2,0,L|432:192,1,160,4|0,0:0|0:0,0:0:0:0:
288,192,111833,2,0,P|240:128|328:8,1,240,2|0,0:0|0:0,0:0:0:0:
448,32,113005,6,0,L|208:112,2,240,2|4|0,0:0|0:0|0:0,0:0:0:0:
336,32,114645,6,0,P|248:64|232:216,1,240,2|0,0:0|0:0,0:0:0:0:
320,184,115583,2,0,P|308:298|205:348,1,240,4|0,0:0|0:0,0:0:0:0:
88,336,116755,6,0,P|168:264|92:188,2,240,2|2|0,0:0|0:0|0:0,0:0:0:0:
168,336,118395,2,0,P|364:340|408:32,1,560,4|0,0:0|0:0,0:0:0:0:
168,336,120505,6,0,P|88:296|256:88,1,480,2|0,0:0|0:0,0:0:0:0:
342,336,122380,2,0,P|422:296|254:88,1,480,2|0,0:0|0:0,0:0:0:0:
496,152,124255,6,0,L|16:168,1,480,2|0,0:0|0:0,0:0:0:0:
16,232,126130,2,0,L|496:216,1,480,2|2,0:0|0:0,0:0:0:0:
360,168,128005,6,0,P|292:144|260:48,2,160,2|0|4,0:0|0:0|0:0,0:0:0:0:
224,56,129411,2,0,L|136:56,1,80,0|0,0:0|0:0,0:0:0:0:
64,64,129880,6,0,L|168:200,2,160,2|0|4,0:0|0:0|0:0,0:0:0:0:
296,192,131286,1,0,0:0:0:0:
104,176,131755,6,0,P|180:136|200:56,2,160,2|0|4,0:0|0:0|0:0,0:0:0:0:
240,176,133161,1,0,0:0:0:0:
432,72,133630,2,0,L|344:72,2,80,2|0|0,0:0|0:0|0:0,0:0:0:0:
328,72,134333,1,0,0:0:0:0:
152,68,134801,1,0,0:0:0:0:
64,72,135036,2,0,L|120:152,1,80,2|0,0:0|0:0,0:0:0:0:
336,160,135505,6,0,P|416:232|392:288,2,160,2|2|8,0:0|0:0|0:0,0:0:0:0:
200,160,136676,1,0,0:0:0:0:
88,160,136911,1,2,0:0:0:0:
200,160,137145,1,0,0:0:0:0:
332,224,137380,6,0,P|400:190|402:114,2,160,2|2|8,0:0|0:0|0:0,0:0:0:0:
200,224,138551,1,0,0:0:0:0:
88,224,138786,1,2,0:0:0:0:
296,224,139020,6,0,L|324:192,2,40,4|0|2,0:0|0:0|0:0,0:0:0:0:
120,224,139723,1,2,0:0:0:0:
312,224,140192,2,0,L|400:224,2,80,8|0|2,0:0|0:0|0:0,0:0:0:0:
216,224,140895,1,0,0:0:0:0:
56,224,141130,5,2,0:0:0:0:
216,224,141598,1,2,0:0:0:0:
436,224,141833,2,0,L|468:192,2,40,0|0|8,0:0|0:0|0:0,0:0:0:0:
216,224,142301,2,0,L|184:192,2,40,0|0|2,0:0|0:0|0:0,0:0:0:0:
336,224,142770,2,0,L|368:192,2,40,0|0|2,0:0|0:0|0:0,0:0:0:0:
96,224,143473,5,2,0:0:0:0:
256,232,143942,2,0,L|296:160,1,80,8|0,0:0|0:0,0:0:0:0:
176,160,144411,2,0,L|128:88,1,80,2|0,0:0|0:0,0:0:0:0:
248,80,144880,5,2,0:0:0:0:
480,80,145348,1,2,0:0:0:0:
272,80,145817,2,0,L|168:80,1,80,8|0,0:0|0:0,0:0:0:0:
156,140,146286,1,2,0:0:0:0:
200,196,146520,1,0,0:0:0:0:
276,196,146755,1,2,0:0:0:0:
88,80,147223,5,2,0:0:0:0:
264,80,147692,2,0,L|352:80,1,80,8|0,0:0|0:0,0:0:0:0:
472,80,148161,2,0,L|384:80,1,80,2|0,0:0|0:0,0:0:0:0:
272,80,148630,6,0,P|200:112|184:208,1,160,2|2,0:0|0:0,0:0:0:0:
392,192,149333,2,0,L|424:160,2,40,0|0|2,0:0|0:0|0:0,0:0:0:0:
184,192,149801,2,0,L|152:160,2,40,0|0|2,0:0|0:0|0:0,0:0:0:0:
304,192,150270,2,0,L|336:160,2,40,0|0|4,0:0|0:0|0:0,0:0:0:0:
216,192,150973,5,0,0:0:0:0:
368,192,151442,2,0,L|416:128,2,80,0|0|0,0:0|0:0|0:0,0:0:0:0:
152,192,152380,5,0,0:0:0:0:
344,192,152848,1,0,0:0:0:0:
144,192,153317,2,0,L|96:128,3,80,0|0|0|0,0:0|0:0|0:0|0:0,0:0:0:0:
256,104,154255,5,8,0:0:0:0:
460,104,154723,1,8,0:0:0:0:
256,104,155192,1,8,0:0:0:0:
52,104,155661,1,8,0:0:0:0:
256,104,156130,5,8,0:0:0:0:
460,104,156598,1,8,0:0:0:0:
256,104,157067,1,8,0:0:0:0:
52,104,157536,1,8,0:0:0:0:
216,104,158005,6,0,L|320:104,1,80,8|2,0:0|0:0,0:0:0:0:
376,104,158473,2,0,L|296:104,1,80,2|2,0:0|0:0,0:0:0:0:
216,104,158942,2,0,L|112:104,1,80,8|2,0:0|0:0,0:0:0:0:
56,104,159411,2,0,L|152:104,1,80,8|2,0:0|0:0,0:0:0:0:
344,80,161755,6,0,L|484:212,1,160,2|8,0:0|0:0,0:0:0:0:
108,200,162692,2,0,L|20:264,2,80,4|0|8,0:0|0:0|0:0,0:0:0:0:
344,200,163630,6,0,L|376:160,2,40,2|0|0,0:0|0:0|0:0,0:0:0:0:
200,200,164098,2,0,L|176:168,2,40,8|0|0,0:0|0:0|0:0,0:0:0:0:
340,144,164567,1,2,0:0:0:0:
412,108,164801,1,0,0:0:0:0:
340,64,165035,1,8,0:0:0:0:
412,28,165270,1,0,0:0:0:0:
200,24,165505,6,0,P|124:86|108:148,1,160,2|8,0:0|0:0,0:0:0:0:
328,200,166442,2,0,L|416:264,2,80,4|0|8,0:0|0:0|0:0,0:0:0:0:
160,200,167380,6,0,L|96:160,2,53.3333333333333,2|0|0,0:0|0:0|0:0,0:0:0:0:
240,200,167848,2,0,L|304:160,2,53.3333333333333,2|0|0,0:0|0:0|0:0,0:0:0:0:
136,200,168317,1,2,0:0:0:0:
97,260,168473,1,2,0:0:0:0:
119,329,168629,1,2,0:0:0:0:
296,332,168785,1,8,0:0:0:0:
432,320,169255,6,0,L|280:208,1,160,2|8,0:0|0:0,0:0:0:0:
424,224,170192,2,0,L|488:160,2,80,4|0|8,0:0|0:0|0:0,0:0:0:0:
168,200,171130,6,0,L|136:160,2,40,2|0|0,0:0|0:0|0:0,0:0:0:0:
312,200,171598,2,0,L|337:168,2,40,8|0|0,0:0|0:0|0:0,0:0:0:0:
172,144,172067,1,2,0:0:0:0:
100,108,172301,1,0,0:0:0:0:
172,64,172535,1,8,0:0:0:0:
100,28,172770,1,0,0:0:0:0:
320,32,173005,6,0,P|295:101|220:132,1,160,2|8,0:0|0:0,0:0:0:0:
376,176,173942,2,0,L|448:232,2,80,4|0|8,0:0|0:0|0:0,0:0:0:0:
168,184,174880,5,2,0:0:0:0:
344,184,175348,1,2,0:0:0:0:
88,184,175817,2,0,L|4:136,2,80,4|0|0,0:0|0:0|0:0,0:0:0:0:
168,184,176520,1,0,0:0:0:0:
376,144,176755,6,0,L|176:240,1,160,2|8,0:0|0:0,0:0:0:0:
412,220,177692,2,0,L|500:284,2,80,4|0|8,0:0|0:0|0:0,0:0:0:0:
232,200,178630,6,0,L|200:160,2,40,2|0|0,0:0|0:0|0:0,0:0:0:0:
376,200,179098,2,0,L|400:168,2,40,8|0|0,0:0|0:0|0:0,0:0:0:0:
160,176,179567,1,2,0:0:0:0:
88,140,179801,1,0,0:0:0:0:
160,96,180035,1,8,0:0:0:0:
88,60,180270,1,0,0:0:0:0:
316,24,180505,6,0,L|444:128,1,160,2|8,0:0|0:0,0:0:0:0:
216,200,181442,2,0,L|128:264,2,80,4|0|8,0:0|0:0|0:0,0:0:0:0:
408,200,182380,6,0,L|440:160,2,40,2|0|0,0:0|0:0|0:0,0:0:0:0:
256,200,182848,2,0,L|231:168,2,40,2|0|0,0:0|0:0|0:0,0:0:0:0:
440,200,183317,1,2,0:0:0:0:
352,152,183551,1,0,0:0:0:0:
392,152,183668,1,0,0:0:0:0:
432,152,183785,1,8,0:0:0:0:
352,224,184020,1,2,0:0:0:0:
136,320,184255,6,0,L|288:208,1,160,2|8,0:0|0:0,0:0:0:0:
104,224,185192,2,0,L|40:160,2,80,4|0|8,0:0|0:0|0:0,0:0:0:0:
360,200,186130,6,0,L|392:160,2,40,2|0|0,0:0|0:0|0:0,0:0:0:0:
208,200,186598,2,0,L|183:168,2,40,8|0|0,0:0|0:0|0:0,0:0:0:0:
352,200,187067,1,2,0:0:0:0:
412,164,187301,1,0,0:0:0:0:
352,120,187535,1,8,0:0:0:0:
412,84,187770,1,0,0:0:0:0:
204,28,188005,6,0,P|248:104|316:120,1,160,2|8,0:0|0:0,0:0:0:0:
152,176,188942,2,0,L|80:232,2,80,4|0|8,0:0|0:0|0:0,0:0:0:0:
264,188,189880,6,0,L|304:172,2,40,2|0|0,0:0|0:0|0:0,0:0:0:0:
116,184,190348,2,0,L|78:169,2,40,2|0|0,0:0|0:0|0:0,0:0:0:0:
224,184,190817,2,0,P|256:144|216:48,1,160,2|2,0:0|0:0,0:0:0:0:
168,48,191520,1,0,0:0:0:0:
