osu file format v14

[General]
AudioFilename: audio.mp3
AudioLeadIn: 0
PreviewTime: 40934
Countdown: 0
SampleSet: Soft
StackLeniency: 0.7
Mode: 2
LetterboxInBreaks: 0
EpilepsyWarning: 1
WidescreenStoryboard: 1

[Editor]
Bookmarks: 505,41755,68005,98005,105505,135505,161755,191520
DistanceSpacing: 1
BeatDivisor: 4
GridSize: 4
TimelineZoom: 1

[Metadata]
Title:Arcadia
TitleUnicode:Arcadia
Artist:Hardwell & Joey Dale feat. Luciana
ArtistUnicode:Hardwell & Joey Dale feat. Luciana
Creator:JBHyperion
Version:Platter
Source:
Tags:Dutch Progressive House Electronic Dance Music EDM Electro Dubstep United We Are Caporaso Daleboudt Robbert van Corput Nick Clow Magic Girl Withered Lotus Sorcerer Riari P_i_k_u Piku guineaQ
BeatmapID:1009515
BeatmapSetID:472434

[Difficulty]
HPDrainRate:5
CircleSize:2.7
OverallDifficulty:7.8
ApproachRate:7.8
SliderMultiplier:1.8
SliderTickRate:1

[Events]
//Background and Video events
0,0,"Arcadia2.jpg",0,0
//Break Periods
2,8204,10976
2,98204,104726
//Storyboard Layer 0 (Background)
//Storyboard Layer 1 (Fail)
//Storyboard Layer 2 (Pass)
//Storyboard Layer 3 (Foreground)
//Storyboard Sound Samples

[TimingPoints]
505,468.75,4,3,1,50,1,0
6130,-100,4,3,1,55,0,0
6598,-100,4,3,1,60,0,0
7067,-100,4,3,1,65,0,0
7536,-100,4,3,1,70,0,0
8005,-100,4,3,1,75,0,0
11755,-100,4,2,1,65,0,0
24880,-100,4,2,1,75,0,0
26755,-100,4,2,1,85,0,0
41755,-100,4,2,1,95,0,0
56755,-100,4,2,1,80,0,0
57223,-100,4,2,1,60,0,0
58630,-100,4,2,1,70,0,0
60505,-100,4,3,1,40,0,0
61442,-100,4,3,1,45,0,0
62380,-100,4,3,1,50,0,0
63317,-100,4,3,1,55,0,0
64255,-100,4,3,1,60,0,0
65192,-100,4,3,1,65,0,0
65661,-100,4,3,1,70,0,0
67067,-100,4,3,1,60,0,0
68005,-100,4,3,2,90,0,1
73630,-100,4,3,2,85,0,1
74098,-100,4,3,2,80,0,1
74567,-100,4,3,2,75,0,1
75036,-100,4,3,2,100,0,1
75505,-100,4,3,2,90,0,1
81130,-100,4,2,1,80,0,0
81598,-100,4,2,1,70,0,0
82067,-100,4,2,1,60,0,0
82536,-100,4,2,1,50,0,0
83005,-100,4,3,2,90,0,1
89567,-100,4,3,2,85,0,1
90036,-100,4,3,2,80,0,1
90505,-100,4,3,2,90,0,1
96130,-100,4,2,1,80,0,0
96598,-100,4,2,1,70,0,0
97067,-100,4,2,1,60,0,0
97536,-100,4,2,1,50,0,0
98005,-100,4,2,1,75,0,0
105505,-100,4,2,1,50,0,0
126130,-100,4,2,1,55,0,0
127067,-100,4,2,1,60,0,0
128005,-100,4,2,1,65,0,0
129880,-100,4,2,1,70,0,0
130817,-100,4,2,1,75,0,0
131755,-100,4,2,1,80,0,0
133630,-100,4,2,1,85,0,0
134567,-100,4,2,1,90,0,0
148630,-100,4,3,1,85,0,0
149098,-100,4,3,1,80,0,0
149567,-100,4,3,1,75,0,0
150036,-100,4,3,1,70,0,0
150505,-100,4,2,1,80,0,0
152614,-100,4,2,1,60,0,0
154255,-100,4,3,1,40,0,0
155192,-100,4,3,1,45,0,0
156130,-100,4,3,1,50,0,0
157067,-100,4,3,1,55,0,0
158005,-100,4,3,1,60,0,0
158942,-100,4,3,1,65,0,0
159411,-100,4,3,1,70,0,0
160817,-100,4,3,1,60,0,0
161755,-100,4,3,2,90,0,1
167380,-100,4,3,2,85,0,1
167848,-100,4,3,2,80,0,1
168317,-100,4,3,2,75,0,1
168786,-100,4,3,2,100,0,1
169255,-100,4,3,2,90,0,1
174880,-100,4,2,1,80,0,0
175348,-100,4,2,1,85,0,0
175817,-100,4,2,1,90,0,0
176286,-100,4,2,1,80,0,0
176755,-100,4,3,2,90,0,1
183317,-100,4,3,2,85,0,1
183786,-100,4,3,2,80,0,1
184255,-100,4,3,2,90,0,1
189880,-100,4,2,1,80,0,0
190348,-100,4,2,1,70,0,0
190817,-100,4,2,1,60,0,0
191286,-100,4,2,1,50,0,0

[Colours]
Combo1 : 255,102,255
Combo2 : 58,95,225
Combo3 : 147,112,219
Combo4 : 50,200,255

[HitObjects]
164,192,505,6,0,L|332:124,1,180,4|8,0:0|0:0,0:0:0:0:
240,124,1208,1,0,0:0:0:0:
104,124,1442,2,0,L|8:124,1,90,2|0,0:0|0:0,0:0:0:0:
240,124,1911,1,8,0:0:0:0:
132,124,2145,1,0,0:0:0:0:
336,124,2380,5,2,0:0:0:0:
383,152,2497,1,2,0:0:0:0:
403,204,2614,1,2,0:0:0:0:
388,257,2731,1,2,0:0:0:0:
344,290,2848,2,0,L|252:292,1,90,8|0,0:0|0:0,0:0:0:0:
128,192,3317,2,0,L|228:192,1,90,2|0,0:0|0:0,0:0:0:0:
436,192,3786,1,8,0:0:0:0:
312,192,4020,1,0,0:0:0:0:
265,192,4137,1,0,0:0:0:0:
218,192,4255,5,2,0:0:0:0:
166,172,4372,1,2,0:0:0:0:
142,122,4489,1,2,0:0:0:0:
157,69,4606,1,2,0:0:0:0:
203,40,4723,1,8,0:0:0:0:
312,40,4958,1,0,0:0:0:0:
132,40,5192,2,0,L|80:40,2,45,2|0|0,0:0|0:0|0:0,0:0:0:0:
332,40,5661,2,0,L|332:136,1,90,8|0,0:0|0:0,0:0:0:0:
114,148,6130,6,0,L|14:148,1,90,0|0,0:0|0:0,0:0:0:0:
80,232,6481,1,0,0:0:0:0:
136,232,6598,2,0,L|252:232,1,90,8|0,0:0|0:0,0:0:0:0:
88,328,7067,1,2,0:0:0:0:
224,328,7301,1,2,0:0:0:0:
436,328,7536,5,8,0:0:0:0:
456,309,7594,1,0,0:0:0:0:
473,286,7653,1,0,0:0:0:0:
482,260,7711,1,0,0:0:0:0:
486,232,7770,1,0,0:0:0:0:
483,204,7828,1,0,0:0:0:0:
473,178,7887,1,0,0:0:0:0:
457,155,7946,1,0,0:0:0:0:
436,136,8004,1,2,0:0:0:0:
136,192,11755,6,0,L|256:56,1,180,4|0,0:0|0:0,0:0:0:0:
76,344,12692,2,0,L|64:236,1,90,2|0,0:0|0:0,0:0:0:0:
188,256,13161,2,0,L|216:156,1,90,0|0,0:0|0:0,0:0:0:0:
424,172,13630,6,0,L|280:56,1,180,4|0,0:0|0:0,0:0:0:0:
60,192,14567,2,0,L|144:160,2,90,2|0|0,0:0|0:0|0:0,0:0:0:0:
272,192,15270,1,0,0:0:0:0:
324,192,15387,1,0,0:0:0:0:
380,192,15505,6,0,L|476:192,1,90,4|0,0:0|0:0,0:0:0:0:
324,92,15973,2,0,L|224:92,1,90,0|0,0:0|0:0,0:0:0:0:
440,92,16442,1,2,0:0:0:0:
316,92,16676,1,0,0:0:0:0:
424,92,16911,1,0,0:0:0:0:
280,92,17145,1,0,0:0:0:0:
480,92,17380,6,0,L|480:184,1,90,2|0,0:0|0:0,0:0:0:0:
276,180,17848,1,2,0:0:0:0:
412,276,18083,1,0,0:0:0:0:
360,276,18200,1,0,0:0:0:0:
308,276,18317,1,4,0:0:0:0:
108,192,18551,1,0,0:0:0:0:
160,192,18669,1,0,0:0:0:0:
212,192,18786,1,2,0:0:0:0:
416,88,19020,2,0,L|472:88,1,45,0|0,0:0|0:0,0:0:0:0:
416,88,19255,6,0,L|324:88,1,90,4|0,0:0|0:0,0:0:0:0:
124,132,19723,2,0,L|32:132,1,90,0|0,0:0|0:0,0:0:0:0:
248,192,20192,2,0,L|232:284,1,90,2|0,0:0|0:0,0:0:0:0:
108,284,20661,2,0,L|124:376,1,90,0|0,0:0|0:0,0:0:0:0:
344,372,21130,6,0,P|396:304|340:240,1,180,4|0,0:0|0:0,0:0:0:0:
76,192,22067,1,4,0:0:0:0:
200,192,22301,1,0,0:0:0:0:
328,192,22536,1,0,0:0:0:0:
124,96,22770,2,0,L|64:96,2,45,0|0|4,0:0|0:0|0:0,0:0:0:0:
376,100,23473,5,0,0:0:0:0:
160,96,23942,2,0,L|176:188,1,90,2|0,0:0|0:0,0:0:0:0:
300,192,24411,2,0,L|284:284,1,90,0|0,0:0|0:0,0:0:0:0:
160,280,24880,5,2,0:0:0:0:
484,280,25348,1,2,0:0:0:0:
276,280,25583,1,0,0:0:0:0:
218,280,25700,1,0,0:0:0:0:
160,280,25817,1,4,0:0:0:0:
288,192,26051,1,0,0:0:0:0:
216,192,26169,1,0,0:0:0:0:
144,192,26286,2,0,L|52:192,1,90,2|0,0:0|0:0,0:0:0:0:
380,192,26755,6,0,B|468:192|468:192|468:96,1,180,4|0,0:0|0:0,0:0:0:0:
216,100,27692,2,0,L|308:100,1,90,8|0,0:0|0:0,0:0:0:0:
160,192,28161,2,0,L|252:192,1,90,0|0,0:0|0:0,0:0:0:0:
456,192,28630,5,2,0:0:0:0:
240,192,29098,1,0,0:0:0:0:
492,192,29567,2,0,L|400:192,2,90,8|0|0,0:0|0:0|0:0,0:0:0:0:
280,192,30270,1,0,0:0:0:0:
228,192,30387,1,0,0:0:0:0:
172,192,30505,6,0,L|80:192,1,90,2|0,0:0|0:0,0:0:0:0:
264,296,30973,2,0,L|356:296,1,90,0|0,0:0|0:0,0:0:0:0:
152,296,31442,1,8,0:0:0:0:
288,296,31676,1,0,0:0:0:0:
176,296,31911,1,0,0:0:0:0:
264,296,32145,1,0,0:0:0:0:
64,296,32380,6,0,L|52:200,1,90,2|0,0:0|0:0,0:0:0:0:
180,204,32848,2,0,L|268:188,1,90,0|0,0:0|0:0,0:0:0:0:
312,188,33200,1,0,0:0:0:0:
184,184,33317,2,0,L|168:96,1,90,8|0,0:0|0:0,0:0:0:0:
212,96,33669,1,0,0:0:0:0:
340,96,33786,2,0,L|432:96,1,90,8|0,0:0|0:0,0:0:0:0:
228,192,34255,6,0,L|132:192,1,90,4|0,0:0|0:0,0:0:0:0:
344,296,34723,2,0,L|440:296,1,90,0|0,0:0|0:0,0:0:0:0:
252,296,35192,2,0,L|240:200,1,90,8|0,0:0|0:0,0:0:0:0:
116,204,35661,2,0,L|128:104,1,90,0|0,0:0|0:0,0:0:0:0:
328,116,36130,6,0,L|424:116,2,90,2|0|0,0:0|0:0|0:0,0:0:0:0:
124,116,36833,2,0,P|68:176|124:236,1,180,4|0,0:0|0:0,0:0:0:0:
268,236,37536,2,0,L|172:236,1,90
380,236,38005,6,0,L|476:236,1,90,2|0,0:0|0:0,0:0:0:0:
264,132,38473,2,0,L|168:132,1,90,0|0,0:0|0:0,0:0:0:0:
356,132,38942,2,0,L|368:228,1,90,8|0,0:0|0:0,0:0:0:0:
492,224,39411,2,0,L|480:324,1,90,0|0,0:0|0:0,0:0:0:0:
276,316,39880,6,0,L|180:316,1,90,2|0,0:0|0:0,0:0:0:0:
348,192,40348,1,0,0:0:0:0:
144,192,40583,2,0,P|88:132|144:72,1,180,4|0,0:0|0:0,0:0:0:0:
348,72,41286,2,0,L|444:72,1,90,8|0,0:0|0:0,0:0:0:0:
120,72,41755,6,0,L|28:72,1,90,4|0,0:0|0:0,0:0:0:0:
232,168,42223,2,0,L|340:168,1,90,0|0,0:0|0:0,0:0:0:0:
140,260,42692,1,8,0:0:0:0:
284,260,42926,1,0,0:0:0:0:
176,260,43161,2,0,L|72:260,1,90,0|0,0:0|0:0,0:0:0:0:
312,260,43630,6,0,L|404:260,1,90,2|0,0:0|0:0,0:0:0:0:
220,168,44098,2,0,L|316:168,1,90,0|0,0:0|0:0,0:0:0:0:
148,64,44567,1,8,0:0:0:0:
40,64,44801,1,0,0:0:0:0:
244,64,45036,2,0,L|348:64,1,90,0|0,0:0|0:0,0:0:0:0:
112,64,45505,6,0,L|20:64,1,90,2|0,0:0|0:0,0:0:0:0:
204,160,45973,2,0,L|120:192,1,90,0|0,0:0|0:0,0:0:0:0:
300,192,46442,1,8,0:0:0:0:
408,192,46676,1,0,0:0:0:0:
244,192,46911,2,0,L|348:192,1,90,0|0,0:0|0:0,0:0:0:0:
132,288,47380,6,0,L|128:192,1,90,2|0,0:0|0:0,0:0:0:0:
364,292,47848,2,0,L|460:292,1,90,0|0,0:0|0:0,0:0:0:0:
496,292,48200,1,0,0:0:0:0:
454,292,48317,2,0,L|364:292,1,90,8|0,0:0|0:0,0:0:0:0:
192,192,48786,1,8,0:0:0:0:
384,192,49020,1,0,0:0:0:0:
72,192,49255,6,0,L|48:103,1,90,4|0,0:0|0:0,0:0:0:0:
264,192,49723,2,0,L|372:192,1,90,0|0,0:0|0:0,0:0:0:0:
154,105,50192,2,0,L|50:105,2,90,8|0|0,0:0|0:0|0:0,0:0:0:0:
316,108,50895,1,0,0:0:0:0:
83,152,51130,6,0,P|74:237|144:287,1,180,2|0,0:0|0:0,0:0:0:0:
433,287,52067,2,0,L|357:235,1,90,8|0,0:0|0:0,0:0:0:0:
157,235,52536,2,0,L|233:183,1,90,0|0,0:0|0:0,0:0:0:0:
460,144,53005,6,0,P|492:204|432:288,1,180,2|0,0:0|0:0,0:0:0:0:
200,288,53942,2,0,L|104:288,1,90,8|0,0:0|0:0,0:0:0:0:
240,192,54411,1,0,0:0:0:0:
112,192,54645,1,0,0:0:0:0:
320,192,54880,6,0,L|420:192,1,90,2|0,0:0|0:0,0:0:0:0:
188,84,55348,2,0,L|88:84,1,90,0|0,0:0|0:0,0:0:0:0:
144,84,55700,1,0,0:0:0:0:
188,84,55817,2,0,L|284:84,1,90,8|0,0:0|0:0,0:0:0:0:
232,136,56169,1,0,0:0:0:0:
184,192,56286,2,0,L|88:192,1,90,8|0,0:0|0:0,0:0:0:0:
404,192,56755,5,4,0:0:0:0:
316,192,57223,1,0,0:0:0:0:
136,192,57692,1,2,0:0:0:0:
224,192,57926,1,0,0:0:0:0:
316,192,58161,1,0,0:0:0:0:
100,192,58630,6,0,L|16:144,2,90,2|0|0,0:0|0:0|0:0,0:0:0:0:
304,192,59333,2,0,L|396:192,1,90,2|4,0:0|0:0,0:0:0:0:
192,92,59801,2,0,L|88:92,1,90,2|0,0:0|0:0,0:0:0:0:
236,92,60270,1,0,0:0:0:0:
32,92,60505,5,8,0:0:0:0:
212,92,60973,1,8,0:0:0:0:
392,92,61442,1,8,0:0:0:0:
212,92,61911,1,8,0:0:0:0:
392,92,62380,6,0,L|400:184,1,90,8|0,0:0|0:0,0:0:0:0:
292,180,62848,2,0,L|268:269,1,90,8|0,0:0|0:0,0:0:0:0:
160,272,63317,2,0,L|198:355,1,90,8|0,0:0|0:0,0:0:0:0:
308,268,63786,2,0,L|255:343,1,90,8|0,0:0|0:0,0:0:0:0:
76,340,64255,6,0,L|56:240,1,90,10|2,0:0|0:0,0:0:0:0:
280,192,64723,2,0,L|348:132,1,90,2|2,0:0|0:0,0:0:0:0:
108,160,65192,5,8,0:0:0:0:
67,118,65309,1,2,0:0:0:0:
74,61,65426,1,2,0:0:0:0:
124,32,65543,1,2,0:0:0:0:
247,151,65661,1,8,0:0:0:0:
287,192,65778,1,2,0:0:0:0:
280,249,65895,1,2,0:0:0:0:
230,278,66012,1,2,0:0:0:0:
188,276,67067,6,0,L|174:178,1,90,4|4,0:0|0:0,0:0:0:0:
376,192,67536,2,0,L|468:192,1,90,8|0,0:0|0:0,0:0:0:0:
156,188,68005,6,0,L|48:188,1,90,2|0,0:0|0:0,0:0:0:0:
280,188,68473,1,8,0:0:0:0:
100,288,68942,1,4,0:0:0:0:
236,292,69176,1,0,0:0:0:0:
372,292,69411,2,0,L|472:292,1,90,8|0,0:0|0:0,0:0:0:0:
244,192,69880,5,2,0:0:0:0:
184,192,69997,1,0,0:0:0:0:
124,192,70114,1,0,0:0:0:0:
304,108,70348,1,8,0:0:0:0:
364,108,70465,1,0,0:0:0:0:
424,108,70582,1,0,0:0:0:0:
208,108,70817,1,2,0:0:0:0:
332,192,71051,1,0,0:0:0:0:
224,192,71286,2,0,L|128:192,1,90,8|0,0:0|0:0,0:0:0:0:
444,192,71755,6,0,P|468:152|444:124,1,90,2|0,0:0|0:0,0:0:0:0:
228,124,72223,2,0,L|112:124,1,90,8|0,0:0|0:0,0:0:0:0:
352,192,72692,1,4,0:0:0:0:
216,192,72926,1,0,0:0:0:0:
352,192,73161,2,0,L|288:260,1,90,8|0,0:0|0:0,0:0:0:0:
92,256,73630,6,0,L|16:256,2,60,2|0|0,0:0|0:0|0:0,0:0:0:0:
164,340,74098,2,0,L|88:340,2,60,2|0|0,0:0|0:0|0:0,0:0:0:0:
260,340,74567,2,0,L|336:340,2,60,2|2|2,0:0|0:0|0:0,0:0:0:0:
112,340,75036,2,0,L|8:340,1,90,8|0,0:0|0:0,0:0:0:0:
332,192,75505,6,0,L|440:192,1,90,2|0,0:0|0:0,0:0:0:0:
208,192,75973,1,8,0:0:0:0:
388,292,76442,1,4,0:0:0:0:
252,292,76676,1,0,0:0:0:0:
388,292,76911,2,0,L|288:292,1,90,8|0,0:0|0:0,0:0:0:0:
100,192,77380,5,2,0:0:0:0:
160,192,77497,1,0,0:0:0:0:
220,192,77614,1,0,0:0:0:0:
420,88,77848,1,8,0:0:0:0:
360,88,77965,1,0,0:0:0:0:
300,88,78082,1,0,0:0:0:0:
508,192,78317,1,2,0:0:0:0:
380,192,78551,1,0,0:0:0:0:
488,192,78786,2,0,L|392:192,1,90,8|0,0:0|0:0,0:0:0:0:
88,192,79255,6,0,L|4:160,1,90,2|0,0:0|0:0,0:0:0:0:
220,120,79723,2,0,L|336:120,1,90,8|0,0:0|0:0,0:0:0:0:
104,192,80192,1,4,0:0:0:0:
240,192,80426,1,0,0:0:0:0:
376,192,80661,2,0,L|472:192,1,90,8|0,0:0|0:0,0:0:0:0:
268,88,81130,5,2,0:0:0:0:
332,88,81247,1,0,0:0:0:0:
396,88,81364,1,0,0:0:0:0:
240,192,81598,1,2,0:0:0:0:
292,192,81715,1,0,0:0:0:0:
344,192,81832,1,0,0:0:0:0:
200,288,82067,6,0,L|184:340,1,45,2|0,0:0|0:0,0:0:0:0:
268,288,82301,2,0,L|254:244,1,45
336,244,82536,2,0,L|349:200,1,45,2|0,0:0|0:0,0:0:0:0:
432,200,82770,1,0,0:0:0:0:
128,200,83005,6,0,P|64:176|40:116,1,135,2|2,0:0|0:0,0:0:0:0:
124,116,83473,2,0,L|220:116,1,90,8|0,0:0|0:0,0:0:0:0:
420,40,83942,2,0,L|328:40,1,90,4|0,0:0|0:0,0:0:0:0:
276,40,84294,1,2,0:0:0:0:
330,40,84411,1,8,0:0:0:0:
224,124,84645,1,0,0:0:0:0:
440,124,84880,6,0,L|496:124,2,45,2|0|0,0:0|0:0|0:0,0:0:0:0:
388,124,85231,1,0,0:0:0:0:
336,124,85348,1,8,0:0:0:0:
388,124,85465,1,0,0:0:0:0:
440,124,85583,1,0,0:0:0:0:
224,124,85817,2,0,L|132:124,1,90,2|0,0:0|0:0,0:0:0:0:
188,124,86169,1,0,0:0:0:0:
240,124,86286,1,8,0:0:0:0:
44,212,86520,1,0,0:0:0:0:
352,212,86755,6,0,L|488:212,1,135,2|2,0:0|0:0,0:0:0:0:
404,124,87223,2,0,L|308:124,1,90,8|0,0:0|0:0,0:0:0:0:
96,208,87692,2,0,L|200:208,1,90,4|0,0:0|0:0,0:0:0:0:
240,208,88044,1,2,0:0:0:0:
186,208,88161,2,0,L|84:208,1,90,8|0,0:0|0:0,0:0:0:0:
324,208,88630,6,0,L|372:208,2,45,2|0|0,0:0|0:0|0:0,0:0:0:0:
264,208,88981,1,0,0:0:0:0:
204,208,89098,1,8,0:0:0:0:
160,172,89215,1,0,0:0:0:0:
144,108,89333,1,0,0:0:0:0:
357,208,89567,6,0,L|377:112,1,90,2|0,0:0|0:0,0:0:0:0:
313,120,89919,1,0,0:0:0:0:
249,120,90036,1,8,0:0:0:0:
197,156,90153,1,2,0:0:0:0:
189,220,90270,1,2,0:0:0:0:
496,220,90505,6,0,P|472:284|412:308,1,135,2|2,0:0|0:0,0:0:0:0:
329,192,90973,2,0,L|414:224,1,90,8|0,0:0|0:0,0:0:0:0:
200,312,91442,2,0,L|108:312,1,90,4|0,0:0|0:0,0:0:0:0:
56,312,91794,1,2,0:0:0:0:
110,312,91911,1,8,0:0:0:0:
220,224,92145,1,0,0:0:0:0:
424,224,92380,5,2,0:0:0:0:
372,224,92497,1,0,0:0:0:0:
312,224,92614,1,0,0:0:0:0:
372,224,92731,1,0,0:0:0:0:
448,224,92848,2,0,L|504:224,2,45,8|0|0,0:0|0:0|0:0,0:0:0:0:
220,224,93317,2,0,L|304:192,1,90,2|0,0:0|0:0,0:0:0:0:
256,164,93669,1,0,0:0:0:0:
210,138,93786,1,8,0:0:0:0:
408,136,94020,1,0,0:0:0:0:
100,136,94255,6,0,P|56:180|100:220,1,135,2|2,0:0|0:0,0:0:0:0:
172,220,94723,2,0,L|268:220,1,90,8|0,0:0|0:0,0:0:0:0:
48,316,95192,2,0,L|152:316,1,90,4|0,0:0|0:0,0:0:0:0:
192,316,95544,1,2,0:0:0:0:
248,220,95661,2,0,L|146:220,1,90,8|0,0:0|0:0,0:0:0:0:
360,56,96130,5,2,0:0:0:0:
296,56,96247,1,0,0:0:0:0:
232,56,96364,1,0,0:0:0:0:
96,136,96598,1,2,0:0:0:0:
148,136,96715,1,0,0:0:0:0:
200,136,96832,1,0,0:0:0:0:
344,192,97067,6,0,L|292:192,1,45,2|0,0:0|0:0,0:0:0:0:
216,264,97301,2,0,L|264:264,1,45,0|0,0:0|0:0,0:0:0:0:
344,276,97536,2,0,L|377:307,1,45,2|0,0:0|0:0,0:0:0:0:
292,344,97770,2,0,L|258:375,2,45,0|0|4,0:0|0:0|0:0,0:0:0:0:
140,328,105505,6,0,P|332:256|132:160,1,540,2|0,0:0|0:0,0:0:0:0:
332,8,107380,6,0,P|443:209|216:240,1,540,2|0,0:0|0:0,0:0:0:0:
20,192,109255,6,0,L|200:236,2,180,2|0|2,0:0|0:0|0:0,0:0:0:0:
288,232,110895,2,0,P|332:180|252:156,1,180,4|0,0:0|0:0,0:0:0:0:
160,156,111598,1,0,0:0:0:0:
317,49,111833,2,0,P|383:153|287:231,1,270,2|0,0:0|0:0,0:0:0:0:
80,232,113005,6,0,L|256:192,1,180,2|0,0:0|0:0,0:0:0:0:
128,136,113708,2,0,P|40:88|144:32,1,270,4|0,0:0|0:0,0:0:0:0:
255,192,114645,6,0,P|228:288|76:356,1,270,2|0,0:0|0:0,0:0:0:0:
196,356,115583,2,0,L|380:356,1,180,4|0,0:0|0:0,0:0:0:0:
284,356,116286,1,0,0:0:0:0:
500,356,116755,6,0,P|460:260|388:240,1,180,2|0,0:0|0:0,0:0:0:0:
284,240,117458,2,0,P|368:220|460:72,1,270,2|0,0:0|0:0,0:0:0:0:
324,72,118395,6,0,P|212:140|360:344,1,450,4|0,0:0|0:0,0:0:0:0:
444,344,119801,1,0,0:0:0:0:
496,272,120036,1,0,0:0:0:0:
424,216,120270,1,0,0:0:0:0:
216,212,120505,6,0,L|36:192,1,180,2|0,0:0|0:0,0:0:0:0:
252,124,121442,2,0,L|152:112,1,90,2|0,0:0|0:0,0:0:0:0:
272,40,121911,2,0,L|372:28,1,90,0|0,0:0|0:0,0:0:0:0:
164,36,122380,6,0,P|180:100|280:148,1,180,2|0,0:0|0:0,0:0:0:0:
484,192,123317,2,0,L|384:180,1,90,2|0,0:0|0:0,0:0:0:0:
268,284,123786,2,0,L|368:272,1,90
172,180,124255,6,0,L|64:180,1,90,2|0,0:0|0:0,0:0:0:0:
208,180,124723,1,0,0:0:0:0:
408,184,125192,2,0,L|320:160,1,90,2|0,0:0|0:0,0:0:0:0:
200,160,125661,1,0,0:0:0:0:
308,160,125895,1,0,0:0:0:0:
496,80,126130,6,0,L|384:80,1,90,2|0,0:0|0:0,0:0:0:0:
260,80,126598,2,0,L|164:80,1,90,0|0,0:0|0:0,0:0:0:0:
116,80,126950,1,0,0:0:0:0:
184,80,127067,6,0,L|274:80,1,90,2|0,0:0|0:0,0:0:0:0:
206,120,127419,1,0,0:0:0:0:
138,164,127536,2,0,L|228:164,1,90,2|0,0:0|0:0,0:0:0:0:
292,164,127887,1,0,0:0:0:0:
208,252,128005,5,2,0:0:0:0:
424,340,128473,1,0,0:0:0:0:
118,252,128942,2,0,L|222:252,1,90,4|0,0:0|0:0,0:0:0:0:
316,252,129411,1,0,0:0:0:0:
208,252,129645,1,0,0:0:0:0:
408,156,129880,5,2,0:0:0:0:
192,68,130348,1,0,0:0:0:0:
498,156,130817,2,0,L|394:156,1,90,4|0,0:0|0:0,0:0:0:0:
208,68,131286,2,0,L|316:68,1,90,0|0,0:0|0:0,0:0:0:0:
80,192,131755,5,2,0:0:0:0:
288,192,132223,1,0,0:0:0:0:
496,192,132692,2,0,L|392:192,1,90,4|0,0:0|0:0,0:0:0:0:
280,288,133161,1,0,0:0:0:0:
388,288,133395,1,0,0:0:0:0:
188,288,133630,6,0,L|92:288,1,90,2|0,0:0|0:0,0:0:0:0:
296,192,134098,2,0,L|396:192,1,90,0|0,0:0|0:0,0:0:0:0:
260,104,134567,1,4,0:0:0:0:
460,104,134801,2,0,L|352:104,2,90,0|2|0,0:0|0:0|0:0,0:0:0:0:
152,104,135505,6,0,L|44:104,1,90,2|0,0:0|0:0,0:0:0:0:
280,192,135973,2,0,L|372:192,1,90,2|0,0:0|0:0,0:0:0:0:
172,192,136442,2,0,L|160:304,1,90,8|0,0:0|0:0,0:0:0:0:
292,192,136911,2,0,L|304:92,1,90,2|0,0:0|0:0,0:0:0:0:
88,100,137380,6,0,L|184:100,1,90,2|0,0:0|0:0,0:0:0:0:
382,192,137848,2,0,L|286:192,1,90,2|0,0:0|0:0,0:0:0:0:
92,192,138317,1,8,0:0:0:0:
200,192,138551,1,0,0:0:0:0:
56,192,138786,1,2,0:0:0:0:
144,192,139020,1,4,0:0:0:0:
348,192,139255,6,0,L|456:192,1,90,2|0,0:0|0:0,0:0:0:0:
312,148,139723,2,0,L|226:98,1,90,2|0,0:0|0:0,0:0:0:0:
447,281,140192,2,0,L|435:169,1,90,8|0,0:0|0:0,0:0:0:0:
270,146,140661,2,0,L|349:192,1,90,2|0,0:0|0:0,0:0:0:0:
148,192,141130,6,0,L|52:192,1,90,2|0,0:0|0:0,0:0:0:0:
272,276,141598,2,0,L|376:276,1,90,2|0,0:0|0:0,0:0:0:0:
316,276,141950,1,0,0:0:0:0:
272,276,142067,1,8,0:0:0:0:
416,192,142301,1,0,0:0:0:0:
461,192,142419,1,0,0:0:0:0:
506,192,142536,2,0,L|398:192,1,90,2|0,0:0|0:0,0:0:0:0:
108,192,143005,6,0,L|16:192,1,90,2|0,0:0|0:0,0:0:0:0:
232,104,143473,2,0,L|324:104,1,90,2|0,0:0|0:0,0:0:0:0:
108,192,143942,2,0,L|228:192,1,90,8|0,0:0|0:0,0:0:0:0:
324,192,144411,2,0,L|247:268,1,90,2|0,0:0|0:0,0:0:0:0:
476,312,144880,6,0,L|380:312,1,90,2|0,0:0|0:0,0:0:0:0:
170,255,145348,2,0,L|266:255,1,90,2|0,0:0|0:0,0:0:0:0:
460,192,145817,1,8,0:0:0:0:
316,192,146051,1,0,0:0:0:0:
244,192,146286,1,2,0:0:0:0:
356,192,146520,1,0,0:0:0:0:
148,192,146755,6,0,L|40:192,1,90,2|0,0:0|0:0,0:0:0:0:
204,104,147223,2,0,L|118:54,1,90,2|0,0:0|0:0,0:0:0:0:
324,192,147692,2,0,L|336:304,1,90,8|0,0:0|0:0,0:0:0:0:
188,284,148161,2,0,L|267:330,1,90,2|0,0:0|0:0,0:0:0:0:
60,328,148630,5,2,0:0:0:0:
276,192,149098,2,0,L|172:192,1,90,2|0,0:0|0:0,0:0:0:0:
232,192,149450,1,0,0:0:0:0:
276,192,149567,1,2,0:0:0:0:
384,104,149801,1,0,0:0:0:0:
339,104,149919,1,0,0:0:0:0:
294,104,150036,2,0,L|402:104,1,90,2|0,0:0|0:0,0:0:0:0:
76,192,150505,5,4,0:0:0:0:
164,192,150973,1,0,0:0:0:0:
344,192,151442,1,2,0:0:0:0:
256,192,151676,1,0,0:0:0:0:
164,192,151911,1,0,0:0:0:0:
380,192,152380,6,0,L|296:144,2,90,0|2|0,0:0|0:0|0:0,0:0:0:0:
176,192,153083,2,0,L|280:192,1,90,4|0,0:0|0:0,0:0:0:0:
468,92,153551,2,0,L|378:92,1,90,2|0,0:0|0:0,0:0:0:0:
268,92,154020,1,0,0:0:0:0:
472,92,154255,5,8,0:0:0:0:
292,92,154723,1,8,0:0:0:0:
472,92,155192,1,8,0:0:0:0:
292,92,155661,1,8,0:0:0:0:
88,92,156130,6,0,L|80:184,1,90,8|0,0:0|0:0,0:0:0:0:
188,180,156598,2,0,L|212:269,1,90,8|0,0:0|0:0,0:0:0:0:
104,272,157067,2,0,L|66:355,1,90,8|0,0:0|0:0,0:0:0:0:
176,352,157536,2,0,L|229:277,1,90,8|0,0:0|0:0,0:0:0:0:
444,336,158005,6,0,L|464:236,1,90,8|2,0:0|0:0,0:0:0:0:
300,248,158473,2,0,L|232:188,1,90,2|2,0:0|0:0,0:0:0:0:
412,156,158942,5,8,0:0:0:0:
404,96,159059,1,0,0:0:0:0:
360,56,159176,1,2,0:0:0:0:
300,56,159293,1,0,0:0:0:0:
204,256,159411,1,8,0:0:0:0:
212,192,159528,1,0,0:0:0:0:
260,160,159645,1,2,0:0:0:0:
328,160,159762,1,0,0:0:0:0:
312,276,160817,6,0,L|326:178,1,90,4|4,0:0|0:0,0:0:0:0:
124,192,161286,2,0,L|32:192,1,90,8|0,0:0|0:0,0:0:0:0:
348,192,161755,6,0,L|456:192,1,90,2|0,0:0|0:0,0:0:0:0:
224,192,162223,1,8,0:0:0:0:
404,88,162692,1,4,0:0:0:0:
260,88,162926,1,0,0:0:0:0:
116,88,163161,2,0,L|16:88,1,90,8|0,0:0|0:0,0:0:0:0:
252,192,163630,5,2,0:0:0:0:
192,192,163747,1,0,0:0:0:0:
132,192,163864,1,0,0:0:0:0:
348,308,164098,1,8,0:0:0:0:
288,308,164215,1,0,0:0:0:0:
228,308,164332,1,0,0:0:0:0:
28,308,164567,1,2,0:0:0:0:
152,224,164801,1,0,0:0:0:0:
260,224,165036,2,0,L|344:192,1,90,8|0,0:0|0:0,0:0:0:0:
36,192,165505,6,0,P|16:160|36:116,1,90,2|0,0:0|0:0,0:0:0:0:
260,116,165973,2,0,L|376:116,1,90,8|0,0:0|0:0,0:0:0:0:
136,184,166442,1,4,0:0:0:0:
316,184,166676,1,0,0:0:0:0:
136,184,166911,2,0,L|28:184,1,90,8|0,0:0|0:0,0:0:0:0:
264,184,167380,6,0,L|340:184,2,60,2|0|0,0:0|0:0|0:0,0:0:0:0:
192,100,167848,2,0,L|116:100,2,60,2|0|0,0:0|0:0|0:0,0:0:0:0:
276,20,168317,1,2,0:0:0:0:
216,20,168473,1,2,0:0:0:0:
156,20,168630,1,2,0:0:0:0:
304,20,168786,2,0,L|408:20,1,90,8|0,0:0|0:0,0:0:0:0:
88,192,169255,6,0,L|80:296,1,90,2|0,0:0|0:0,0:0:0:0:
316,188,169723,1,8,0:0:0:0:
116,88,170192,1,4,0:0:0:0:
296,88,170426,1,0,0:0:0:0:
116,88,170661,2,0,L|216:88,1,90,8|0,0:0|0:0,0:0:0:0:
424,192,171130,5,2,0:0:0:0:
364,192,171247,1,0,0:0:0:0:
304,192,171364,1,0,0:0:0:0:
88,292,171598,1,8,0:0:0:0:
148,292,171715,1,0,0:0:0:0:
208,292,171832,1,0,0:0:0:0:
416,364,172067,1,2,0:0:0:0:
288,364,172301,1,0,0:0:0:0:
88,292,172536,2,0,L|148:220,1,90,8|0,0:0|0:0,0:0:0:0:
452,192,173005,6,0,L|496:104,1,90,2|0,0:0|0:0,0:0:0:0:
276,112,173473,2,0,L|160:112,1,90,8|0,0:0|0:0,0:0:0:0:
392,184,173942,1,4,0:0:0:0:
212,184,174176,1,0,0:0:0:0:
392,184,174411,2,0,L|488:184,1,90,8|0,0:0|0:0,0:0:0:0:
264,184,174880,6,0,L|256:68,1,90,2|0,0:0|0:0,0:0:0:0:
384,24,175348,2,0,L|390:113,1,90,2|0,0:0|0:0,0:0:0:0:
192,192,175817,1,4,0:0:0:0:
316,192,176051,1,0,0:0:0:0:
116,192,176286,2,0,L|20:192,1,90,0|0,0:0|0:0,0:0:0:0:
352,192,176755,6,0,P|416:216|440:276,1,135,2|2,0:0|0:0,0:0:0:0:
356,276,177223,2,0,L|260:276,1,90,8|0,0:0|0:0,0:0:0:0:
52,352,177692,2,0,L|144:352,1,90,4|0,0:0|0:0,0:0:0:0:
196,352,178044,1,2,0:0:0:0:
260,352,178161,1,8,0:0:0:0:
114,268,178395,1,0,0:0:0:0:
332,268,178630,6,0,L|388:268,1,45,2|0,0:0|0:0,0:0:0:0:
452,188,178864,2,0,L|396:188,1,45,0|0,0:0|0:0,0:0:0:0:
332,188,179098,1,8,0:0:0:0:
392,188,179215,1,0,0:0:0:0:
452,188,179333,1,0,0:0:0:0:
228,188,179567,2,0,L|136:188,1,90,2|0,0:0|0:0,0:0:0:0:
192,188,179919,1,0,0:0:0:0:
244,188,180036,1,8,0:0:0:0:
444,100,180270,1,0,0:0:0:0:
137,100,180505,6,0,L|8:140,1,135,2|2,0:0|0:0,0:0:0:0:
85,188,180973,2,0,L|181:188,1,90,8|0,0:0|0:0,0:0:0:0:
393,104,181442,2,0,L|500:104,1,90,4|0,0:0|0:0,0:0:0:0:
420,104,181794,1,2,0:0:0:0:
360,192,181911,2,0,L|462:192,1,90,8|0,0:0|0:0,0:0:0:0:
240,192,182380,6,0,L|273:225,1,45,2|0,0:0|0:0,0:0:0:0:
348,276,182614,2,0,L|314:309,1,45,0|0,0:0|0:0,0:0:0:0:
228,304,182848,1,2,0:0:0:0:
180,264,182965,1,0,0:0:0:0:
176,200,183083,1,0,0:0:0:0:
396,200,183317,6,0,L|508:200,1,90,2|0,0:0|0:0,0:0:0:0:
424,200,183669,1,0,0:0:0:0:
378,163,183786,1,8,0:0:0:0:
377,105,183903,1,2,0:0:0:0:
420,66,184020,1,2,0:0:0:0:
104,64,184255,6,0,P|43:90|21:152,1,135,2|2,0:0|0:0,0:0:0:0:
106,183,184723,2,0,L|21:151,1,90,8|0,0:0|0:0,0:0:0:0:
248,184,185192,2,0,L|340:184,1,90,4|0,0:0|0:0,0:0:0:0:
392,184,185544,1,2,0:0:0:0:
338,184,185661,1,8,0:0:0:0:
228,264,185895,1,0,0:0:0:0:
444,264,186130,5,2,0:0:0:0:
487,205,186247,1,0,0:0:0:0:
475,133,186364,1,0,0:0:0:0:
416,90,186481,1,0,0:0:0:0:
332,92,186598,2,0,L|280:92,2,45,8|0|0,0:0|0:0|0:0,0:0:0:0:
124,92,187067,2,0,L|40:124,1,90,2|0,0:0|0:0,0:0:0:0:
96,152,187419,1,0,0:0:0:0:
150,178,187536,1,8,0:0:0:0:
352,180,187770,1,0,0:0:0:0:
44,176,188005,5,2,0:0:0:0:
12,241,188122,1,2,0:0:0:0:
41,307,188239,1,2,0:0:0:0:
111,328,188356,1,2,0:0:0:0:
192,328,188473,2,0,L|288:328,1,90,8|0,0:0|0:0,0:0:0:0:
64,76,188942,2,0,L|168:76,1,90,4|0,0:0|0:0,0:0:0:0:
216,76,189294,1,0,0:0:0:0:
154,76,189411,1,8,0:0:0:0:
115,137,189528,1,2,0:0:0:0:
141,204,189645,1,2,0:0:0:0:
211,224,189762,1,2,0:0:0:0:
284,308,189880,5,2,0:0:0:0:
220,308,189997,1,0,0:0:0:0:
156,308,190114,1,0,0:0:0:0:
20,136,190348,1,2,0:0:0:0:
72,136,190465,1,0,0:0:0:0:
124,136,190582,1,0,0:0:0:0:
269,31,190817,6,0,L|217:31,1,45,2|0,0:0|0:0,0:0:0:0:
157,135,191051,2,0,L|198:159,1,45,0|0,0:0|0:0,0:0:0:0:
273,155,191286,2,0,L|234:132,1,45,2|0,0:0|0:0,0:0:0:0:
181,103,191520,1,0,0:0:0:0:
