osu file format v14

[General]
AudioFilename: audio.mp3
AudioLeadIn: 0
PreviewTime: 40934
Countdown: 0
SampleSet: Soft
StackLeniency: 0.7
Mode: 2
LetterboxInBreaks: 0
EpilepsyWarning: 1
WidescreenStoryboard: 1

[Editor]
Bookmarks: 505,26755,68005,98005,135505,161755,191520
DistanceSpacing: 0.8
BeatDivisor: 4
GridSize: 8
TimelineZoom: 1.9

[Metadata]
Title:Arcadia
TitleUnicode:Arcadia
Artist:Hardwell & Joey Dale feat. Luciana
ArtistUnicode:Hardwell & Joey Dale feat. Luciana
Creator:JBHyperion
Version:Lotus' Rain
Source:
Tags:Dutch Progressive House Electronic Dance Music EDM Electro Dubstep United We Are Caporaso Daleboudt Robbert van Corput Nick Clow Magic Girl Withered Lotus Sorcerer Riari P_i_k_u Piku guineaQ
BeatmapID:1009518
BeatmapSetID:472434

[Difficulty]
HPDrainRate:6
CircleSize:3.5
OverallDifficulty:8.5
ApproachRate:8.5
SliderMultiplier:1.4
SliderTickRate:1

[Events]
//Background and Video events
0,0,"Arcadia2.jpg",0,0
//Break Periods
//Storyboard Layer 0 (Background)
//Storyboard Layer 1 (Fail)
//Storyboard Layer 2 (Pass)
//Storyboard Layer 3 (Foreground)
Sprite,Foreground,Centre,"Collab SB\ArcadiaRain.png",320,240 M,0,270,973,20,315,100,315 F,0,270,973,0,1 S,0,270,4137,0.45 S,0,4137,4255,0.45,0.48 S,0,4255,4372,0.48,0.45 S,0,6012,6130,0.45,0.48 S,0,6130,6247,0.48,0.45 M,0,7770,8005,100,315,100,275 F,0,7770,8005,1,0 R,0,7770,8005,0,6.283637
Sprite,Foreground,Centre,"Collab SB\ArcadiaLotus.png",320,240 M,0,2145,2848,360,378,180,378 F,0,2145,2848,0,1 S,0,2145,4137,0.3 S,0,4137,4255,0.3,0.325 S,0,4255,4372,0.325,0.3 S,0,6012,6130,0.3,0.325 S,0,6130,6247,0.325,0.3 M,0,7770,8005,180,378,180,445 F,0,7770,8005,1,0
//Storyboard Sound Samples

[TimingPoints]
505,468.75,4,3,1,50,1,0
6130,-100,4,3,1,55,0,0
6598,-100,4,3,1,60,0,0
7067,-100,4,3,1,65,0,0
7536,-100,4,3,1,70,0,0
8005,-100,4,3,1,75,0,0
8239,-100,4,2,1,50,0,0
11755,-100,4,2,1,65,0,0
24880,-100,4,2,1,75,0,0
26755,-100,4,2,1,85,0,0
41755,-100,4,2,1,95,0,0
56755,-100,4,2,1,80,0,0
60505,-100,4,3,1,40,0,0
61442,-100,4,3,1,45,0,0
62380,-100,4,3,1,50,0,0
63317,-100,4,3,1,55,0,0
64255,-100,4,3,1,60,0,0
65192,-100,4,3,1,65,0,0
65661,-100,4,3,1,70,0,0
67067,-100,4,3,1,60,0,0
68005,-100,4,3,2,90,0,1
73630,-100,4,3,2,85,0,1
74098,-100,4,3,2,80,0,1
74567,-100,4,3,2,75,0,1
75036,-100,4,3,2,100,0,1
75094,-100,4,2,2,50,0,1
75505,-100,4,3,2,90,0,1
81130,-100,4,2,1,80,0,0
81598,-100,4,2,1,70,0,0
82067,-100,4,2,1,60,0,0
82536,-100,4,2,1,50,0,0
83005,-100,4,3,2,90,0,1
89567,-100,4,3,2,85,0,1
90036,-100,4,3,2,80,0,1
90505,-100,4,3,2,90,0,1
96130,-100,4,2,1,80,0,0
96598,-100,4,2,1,70,0,0
97067,-100,4,2,1,60,0,0
97536,-100,4,2,1,50,0,0
98005,-100,4,2,1,75,0,0
98239,-100,4,2,1,50,0,0
98942,-100,4,2,1,40,0,0
99880,-100,4,2,1,30,0,0
100817,-100,4,2,1,20,0,0
105505,-100,4,2,1,50,0,0
120505,-100,4,2,1,50,0,0
124255,-100,4,2,1,50,0,0
126130,-100,4,2,1,55,0,0
127067,-100,4,2,1,60,0,0
128005,-100,4,2,1,65,0,0
129880,-100,4,2,1,70,0,0
130817,-100,4,2,1,75,0,0
131755,-100,4,2,1,80,0,0
133630,-100,4,2,1,85,0,0
134567,-100,4,2,1,90,0,0
135505,-100,4,2,1,90,0,0
148630,-100,4,3,1,85,0,0
149098,-100,4,3,1,80,0,0
149567,-100,4,3,1,75,0,0
150036,-100,4,3,1,70,0,0
150505,-100,4,2,1,80,0,0
152614,-100,4,2,1,60,0,0
154255,-100,4,3,1,40,0,0
155192,-100,4,3,1,45,0,0
156130,-100,4,3,1,50,0,0
157067,-100,4,3,1,55,0,0
158005,-100,4,3,1,60,0,0
158942,-100,4,3,1,65,0,0
159411,-100,4,3,1,70,0,0
160817,-100,4,3,1,60,0,0
161755,-100,4,3,2,90,0,1
167380,-100,4,3,2,85,0,1
167848,-100,4,3,2,80,0,1
168317,-100,4,3,2,75,0,1
168786,-100,4,3,2,100,0,1
168844,-100,4,2,1,50,0,1
169255,-100,4,3,2,90,0,1
174880,-100,4,2,1,80,0,0
175348,-100,4,2,1,85,0,0
175817,-100,4,2,1,90,0,0
176286,-100,4,2,1,80,0,0
176755,-100,4,3,2,90,0,1
183317,-100,4,3,2,85,0,1
183786,-100,4,3,2,80,0,1
184255,-100,4,3,2,90,0,1
186130,-100,4,3,2,90,0,1
189880,-100,4,2,1,80,0,0
190348,-100,4,2,1,70,0,0
190817,-100,4,2,1,60,0,0
191286,-100,4,2,1,50,0,0

[Colours]
Combo1 : 255,102,255
Combo2 : 58,95,225
Combo3 : 147,112,219
Combo4 : 50,200,255

[HitObjects]
296,296,505,5,4,0:0:0:0:
136,272,739,1,0,0:0:0:0:
176,240,856,1,2,0:0:0:0:
232,240,973,1,8,0:0:0:0:
376,248,1208,1,0,0:0:0:0:
48,216,1442,2,0,L|96:160,1,70,2|0,0:0|0:0,0:0:0:0:
256,104,1911,2,0,L|210:157,1,70,2|2,0:0|0:0,0:0:0:0:
48,216,2380,5,8,0:0:0:0:
216,184,2614,1,2,0:0:0:0:
256,168,2731,1,2,0:0:0:0:
296,184,2848,1,8,0:0:0:0:
464,216,3083,1,0,0:0:0:0:
328,224,3317,5,2,0:0:0:0:
280,256,3434,1,2,0:0:0:0:
232,256,3551,1,2,0:0:0:0:
184,224,3668,1,2,0:0:0:0:
280,184,3785,5,8,0:0:0:0:
328,152,3902,1,0,0:0:0:0:
376,152,4019,1,0,0:0:0:0:
424,184,4136,1,0,0:0:0:0:
208,168,4255,5,2,0:0:0:0:
40,144,4489,1,2,0:0:0:0:
88,148,4606,1,2,0:0:0:0:
128,176,4723,1,2,0:0:0:0:
296,200,4958,1,0,0:0:0:0:
128,256,5192,5,2,0:0:0:0:
184,220,5309,1,2,0:0:0:0:
240,184,5426,1,2,0:0:0:0:
292,148,5543,1,2,0:0:0:0:
404,220,5661,5,8,0:0:0:0:
348,184,5778,1,0,0:0:0:0:
292,148,5895,1,0,0:0:0:0:
240,112,6012,1,0,0:0:0:0:
56,112,6130,6,0,L|28:112,5,23.3333333333333,2|0|0|0|0|0,0:0|0:0|0:0|0:0|0:0|0:0,0:0:0:0:
120,112,6598,6,0,L|152:112,5,23.3333333333333,8|0|0|0|0|0,0:0|0:0|0:0|0:0|0:0|0:0,0:0:0:0:
80,72,7067,5,2,0:0:0:0:
56,74,7145,1,0,0:0:0:0:
36,84,7223,1,0,0:0:0:0:
20,101,7301,1,2,0:0:0:0:
10,122,7379,1,0,0:0:0:0:
9,145,7457,1,0,0:0:0:0:
24,176,7535,1,8,0:0:0:0:
56,192,7613,1,2,0:0:0:0:
104,200,7692,1,2,0:0:0:0:
160,192,7770,1,0,0:0:0:0:
368,344,8005,6,0,B|388:288|448:228|412:44|276:24|276:24|220:120|136:324|136:324|244:144|480:160,1,1120,2|4,0:0|0:0,0:0:0:0:
120,192,12223,5,0,0:0:0:0:
328,160,12692,2,0,L|248:128,1,70,2|0,0:0|0:0,0:0:0:0:
96,96,13161,2,0,L|184:64,1,70
464,224,13630,2,0,P|408:216|316:180,1,140,4|0,0:0|0:0,0:0:0:0:
160,152,14567,5,2,0:0:0:0:
352,152,14801,1,0,0:0:0:0:
256,128,15035,1,0,0:0:0:0:
216,232,15269,1,4,0:0:0:0:
296,232,15387,1,0,0:0:0:0:
216,232,15504,5,0,0:0:0:0:
80,176,15739,1,0,0:0:0:0:
256,136,15973,1,0,0:0:0:0:
432,176,16208,1,0,0:0:0:0:
136,120,16442,2,0,L|208:176,1,70,2|0,0:0|0:0,0:0:0:0:
384,192,16911,2,0,L|329:234,1,70
24,320,17380,6,0,P|93:306|159:282,1,140,2|2,0:0|0:0,0:0:0:0:
360,208,18083,1,0,0:0:0:0:
264,208,18200,1,0,0:0:0:0:
168,208,18317,1,4,0:0:0:0:
32,112,18551,1,0,0:0:0:0:
128,112,18668,1,0,0:0:0:0:
224,112,18785,1,2,0:0:0:0:
360,212,19020,1,0,0:0:0:0:
264,212,19137,1,0,0:0:0:0:
168,212,19255,6,0,L|104:144,1,70,4|0,0:0|0:0,0:0:0:0:
336,208,19723,2,0,L|408:136,1,70
72,232,20192,1,0,0:0:0:0:
144,300,20426,1,2,0:0:0:0:
440,232,20661,1,0,0:0:0:0:
368,300,20895,1,0,0:0:0:0:
184,232,21130,5,4,0:0:0:0:
328,232,21598,1,0,0:0:0:0:
152,112,22067,1,4,0:0:0:0:
48,176,22301,1,0,0:0:0:0:
360,112,22536,1,2,0:0:0:0:
464,176,22770,1,0,0:0:0:0:
400,176,22887,1,0,0:0:0:0:
464,176,23005,5,4,0:0:0:0:
360,232,23239,1,0,0:0:0:0:
256,232,23473,1,0,0:0:0:0:
152,232,23708,1,0,0:0:0:0:
464,72,23942,2,0,L|392:136,1,70,2|0,0:0|0:0,0:0:0:0:
224,104,24411,2,0,L|304:144,1,70
476,260,24880,6,0,P|396:288|320:300,1,140,2|2,0:0|0:0,0:0:0:0:
128,200,25583,1,0,0:0:0:0:
48,200,25700,1,0,0:0:0:0:
128,200,25817,1,4,0:0:0:0:
288,172,26051,1,0,0:0:0:0:
368,172,26168,1,0,0:0:0:0:
288,172,26285,1,2,0:0:0:0:
128,140,26520,1,0,0:0:0:0:
48,140,26637,1,0,0:0:0:0:
276,144,26755,6,0,B|356:140|416:220,1,140,4|0,0:0|0:0,0:0:0:0:
192,236,27692,2,0,B|124:248|65:190,1,140,8|0,0:0|0:0,0:0:0:0:
324,148,28630,2,0,P|255:140|195:174,1,140,2|0,0:0|0:0,0:0:0:0:
488,252,29567,2,0,P|392:272|340:232,1,140,8|0,0:0|0:0,0:0:0:0:
144,164,30270,1,0,0:0:0:0:
196,180,30387,1,0,0:0:0:0:
244,184,30505,1,2,0:0:0:0:
400,172,30739,1,0,0:0:0:0:
100,80,30973,6,0,P|152:60|244:64,1,140,0|8,0:0|0:0,0:0:0:0:
72,160,31676,1,0,0:0:0:0:
232,200,31911,1,0,0:0:0:0:
72,248,32145,1,0,0:0:0:0:
400,196,32380,6,0,P|352:192|264:140,1,140,2|0,0:0|0:0,0:0:0:0:
52,212,33083,1,0,0:0:0:0:
148,212,33200,1,0,0:0:0:0:
244,212,33317,1,8,0:0:0:0:
398,112,33551,1,0,0:0:0:0:
292,112,33668,1,0,0:0:0:0:
188,112,33785,1,8,0:0:0:0:
52,216,34020,1,0,0:0:0:0:
148,216,34137,1,0,0:0:0:0:
244,216,34255,6,0,L|304:136,1,70,4|0,0:0|0:0,0:0:0:0:
460,160,34723,2,0,L|400:104,1,70,0|0,0:0|0:0,0:0:0:0:
176,64,35192,2,0,L|276:44,1,70,8|0,0:0|0:0,0:0:0:0:
476,52,35661,1,0,0:0:0:0:
388,112,35895,1,0,0:0:0:0:
84,140,36130,6,0,P|176:144|236:168,1,140,2|0,0:0|0:0,0:0:0:0:
396,232,37067,1,0,0:0:0:0:
256,284,37301,1,0,0:0:0:0:
116,232,37535,1,0,0:0:0:0:
320,212,37770,1,0,0:0:0:0:
256,168,37887,1,0,0:0:0:0:
192,212,38005,1,2,0:0:0:0:
464,88,38473,6,0,L|312:88,1,140,0|8,0:0|0:0,0:0:0:0:
192,128,39176,1,0,0:0:0:0:
344,184,39411,1,0,0:0:0:0:
152,224,39645,1,0,0:0:0:0:
460,276,39880,6,0,L|304:276,1,140,2|0,0:0|0:0,0:0:0:0:
180,168,40583,1,4,0:0:0:0:
224,156,40700,1,0,0:0:0:0:
264,144,40817,1,0,0:0:0:0:
112,56,41051,1,0,0:0:0:0:
156,60,41169,1,0,0:0:0:0:
204,64,41286,1,8,0:0:0:0:
48,224,41520,1,0,0:0:0:0:
92,212,41637,1,0,0:0:0:0:
320,192,41755,6,0,L|460:192,1,140,4|0,0:0|0:0,0:0:0:0:
208,216,42692,2,0,L|276:144,1,70,8|0,0:0|0:0,0:0:0:0:
440,128,43161,2,0,L|372:56,1,70
88,160,43630,5,2,0:0:0:0:
424,160,44098,1,0,0:0:0:0:
88,136,44567,1,8,0:0:0:0:
256,96,44801,1,0,0:0:0:0:
424,136,45036,1,0,0:0:0:0:
256,188,45270,1,0,0:0:0:0:
88,128,45505,5,2,0:0:0:0:
408,200,45973,2,0,L|312:200,1,70
200,256,46442,1,8,0:0:0:0:
344,232,46676,1,0,0:0:0:0:
176,200,46911,1,0,0:0:0:0:
368,136,47145,1,0,0:0:0:0:
64,256,47380,6,0,L|160:276,1,70,2|0,0:0|0:0,0:0:0:0:
432,264,47848,2,0,L|348:276,1,70
284,272,48200,1,0,0:0:0:0:
362,273,48317,1,8,0:0:0:0:
284,152,48551,1,0,0:0:0:0:
364,152,48669,1,0,0:0:0:0:
284,152,48786,1,8,0:0:0:0:
368,44,49020,1,0,0:0:0:0:
284,44,49138,1,0,0:0:0:0:
368,44,49255,6,0,L|480:132,1,140,4|0,0:0|0:0,0:0:0:0:
360,192,49958,1,0,0:0:0:0:
56,152,50192,2,0,L|106:209,1,70,8|0,0:0|0:0,0:0:0:0:
288,144,50661,2,0,L|232:216,1,70
64,104,51130,5,2,0:0:0:0:
380,144,51598,1,0,0:0:0:0:
64,192,52067,2,0,L|148:168,1,70,8|0,0:0|0:0,0:0:0:0:
336,120,52536,2,0,L|248:84,1,70,0|0,0:0|0:0,0:0:0:0:
165,93,52887,1,0,0:0:0:0:
61,93,53005,5,2,0:0:0:0:
416,216,53473,1,0,0:0:0:0:
116,272,53942,2,0,L|200:232,1,70,8|0,0:0|0:0,0:0:0:0:
368,196,54411,2,0,L|296:164,1,70,0|0,0:0|0:0,0:0:0:0:
108,144,54880,5,2,0:0:0:0:
460,140,55348,2,0,L|372:100,1,70,0|0,0:0|0:0,0:0:0:0:
292,108,55700,1,0,0:0:0:0:
188,108,55818,1,8,0:0:0:0:
404,180,56051,1,0,0:0:0:0:
298,180,56168,1,0,0:0:0:0:
194,180,56285,1,8,0:0:0:0:
404,256,56520,1,0,0:0:0:0:
298,256,56637,1,0,0:0:0:0:
194,256,56754,1,4,0:0:0:0:
232,228,60505,5,8,0:0:0:0:
280,176,60973,1,8,0:0:0:0:
212,152,61442,1,8,0:0:0:0:
320,128,61911,1,8,0:0:0:0:
164,108,62380,1,8,0:0:0:0:
368,92,62848,1,8,0:0:0:0:
112,60,63317,1,8,0:0:0:0:
424,52,63786,1,8,0:0:0:0:
56,64,64255,6,0,L|112:64,3,35,10|0|2|0,0:0|0:0|0:0|0:0,0:0:0:0:
176,60,64723,6,0,L|224:60,3,35,2|0|2|0,0:0|0:0|0:0|0:0,0:0:0:0:
300,60,65192,6,0,L|348:60,3,35,8|2|2|2,0:0|0:0|0:0|0:0,0:0:0:0:
424,60,65661,5,8,0:0:0:0:
316,60,65778,1,2,0:0:0:0:
208,60,65895,1,2,0:0:0:0:
100,60,66012,1,2,0:0:0:0:
284,240,67067,6,0,L|340:240,2,35,4|0|4,0:0|0:0|0:0,0:0:0:0:
464,168,67536,2,0,L|412:168,2,35,8|0|0,0:0|0:0|0:0,0:0:0:0:
96,168,68005,5,2,0:0:0:0:
408,104,68473,1,8,0:0:0:0:
96,56,68942,1,4,0:0:0:0:
416,80,69176,1,0,0:0:0:0:
96,116,69411,1,8,0:0:0:0:
256,248,69880,5,2,0:0:0:0:
362,248,69997,1,0,0:0:0:0:
466,248,70114,1,0,0:0:0:0:
256,168,70348,1,8,0:0:0:0:
150,168,70465,1,0,0:0:0:0:
46,168,70582,1,0,0:0:0:0:
252,88,70817,5,2,0:0:0:0:
468,68,71051,1,2,0:0:0:0:
252,48,71286,1,8,0:0:0:0:
48,64,71520,1,2,0:0:0:0:
464,152,71755,6,0,L|320:152,1,140,2|8,0:0|0:0,0:0:0:0:
96,56,72692,1,4,0:0:0:0:
416,80,72926,1,0,0:0:0:0:
96,116,73161,1,8,0:0:0:0:
416,216,73630,5,2,0:0:0:0:
356,216,73786,1,0,0:0:0:0:
292,216,73942,1,0,0:0:0:0:
136,164,74098,1,2,0:0:0:0:
200,164,74255,1,0,0:0:0:0:
264,164,74411,1,0,0:0:0:0:
416,112,74567,1,2,0:0:0:0:
356,112,74723,1,2,0:0:0:0:
292,112,74879,1,2,0:0:0:0:
72,112,75036,6,0,L|54:112,4,17.5,8|2|2|2|2,0:0|0:0|0:0|0:0|0:0,0:0:0:0:
416,256,75505,5,2,0:0:0:0:
96,152,75973,1,8,0:0:0:0:
416,56,76442,1,4,0:0:0:0:
96,80,76676,1,0,0:0:0:0:
416,116,76911,1,8,0:0:0:0:
216,48,77380,5,2,0:0:0:0:
296,80,77497,1,0,0:0:0:0:
216,112,77614,1,0,0:0:0:0:
296,160,77848,1,8,0:0:0:0:
216,192,77965,1,0,0:0:0:0:
296,224,78082,1,0,0:0:0:0:
88,188,78317,1,2,0:0:0:0:
256,304,78551,1,0,0:0:0:0:
420,192,78786,1,8,0:0:0:0:
256,88,79020,2,0,P|192:76|160:76,1,70,0|2,0:0|0:0,0:0:0:0:
440,136,79723,5,8,0:0:0:0:
72,156,80192,1,4,0:0:0:0:
256,156,80426,1,0,0:0:0:0:
440,160,80661,1,8,0:0:0:0:
152,176,81130,5,2,0:0:0:0:
152,120,81247,1,0,0:0:0:0:
152,56,81364,1,0,0:0:0:0:
360,176,81598,1,2,0:0:0:0:
360,120,81715,1,0,0:0:0:0:
360,56,81832,1,0,0:0:0:0:
152,56,82067,5,2,0:0:0:0:
208,56,82184,1,0,0:0:0:0:
264,56,82301,1,0,0:0:0:0:
320,56,82419,1,0,0:0:0:0:
456,136,82536,5,2,0:0:0:0:
400,136,82653,1,0,0:0:0:0:
344,136,82770,1,0,0:0:0:0:
48,216,83005,6,0,L|172:136,1,140,2|8,0:0|0:0,0:0:0:0:
292,76,83708,1,0,0:0:0:0:
416,56,83942,1,4,0:0:0:0:
96,80,84176,1,0,0:0:0:0:
416,116,84411,1,8,0:0:0:0:
320,172,84645,1,0,0:0:0:0:
196,216,84880,5,2,0:0:0:0:
300,216,84997,1,0,0:0:0:0:
404,216,85114,1,0,0:0:0:0:
464,136,85348,1,8,0:0:0:0:
360,136,85465,1,0,0:0:0:0:
256,136,85582,1,0,0:0:0:0:
444,68,85817,1,2,0:0:0:0:
64,192,86051,1,0,0:0:0:0:
444,320,86286,1,8,0:0:0:0:
272,240,86520,2,0,P|316:212|352:212,1,70,0|2,0:0|0:0,0:0:0:0:
472,208,86989,5,0,0:0:0:0:
144,128,87223,1,8,0:0:0:0:
288,84,87458,1,0,0:0:0:0:
440,76,87692,5,4,0:0:0:0:
68,192,87926,1,0,0:0:0:0:
432,304,88161,2,0,P|416:272|376:240,1,70,8|0,0:0|0:0,0:0:0:0:
192,216,88630,5,2,0:0:0:0:
108,184,88747,1,0,0:0:0:0:
192,152,88864,1,0,0:0:0:0:
320,216,89098,1,8,0:0:0:0:
404,184,89215,1,0,0:0:0:0:
320,152,89332,1,0,0:0:0:0:
192,100,89567,6,0,L|144:80,1,35,2|0,0:0|0:0,0:0:0:0:
44,40,89801,2,0,L|88:60,1,35,0|0,0:0|0:0,0:0:0:0:
184,88,90036,2,0,L|215:73,1,35,8|2,0:0|0:0,0:0:0:0:
320,64,90270,2,0,L|364:84,1,35,2|0,0:0|0:0,0:0:0:0:
136,304,90505,5,2,0:0:0:0:
40,192,90739,1,0,0:0:0:0:
136,80,90973,1,8,0:0:0:0:
256,192,91208,1,0,0:0:0:0:
56,192,91442,5,4,0:0:0:0:
256,56,91676,1,0,0:0:0:0:
456,184,91911,1,8,0:0:0:0:
360,96,92145,2,0,P|332:76|284:64,1,70,0|2,0:0|0:0,0:0:0:0:
216,92,92497,5,0,0:0:0:0:
296,120,92614,1,0,0:0:0:0:
216,184,92848,1,8,0:0:0:0:
296,212,92965,1,0,0:0:0:0:
216,252,93083,1,0,0:0:0:0:
68,64,93317,5,2,0:0:0:0:
440,188,93551,1,0,0:0:0:0:
68,296,93786,1,8,0:0:0:0:
224,264,94020,2,0,P|276:260|324:260,1,70,0|2,0:0|0:0,0:0:0:0:
56,188,94723,1,8,0:0:0:0:
456,192,95192,5,4,0:0:0:0:
256,104,95426,1,0,0:0:0:0:
56,188,95661,1,8,0:0:0:0:
256,324,96130,5,2,0:0:0:0:
256,248,96247,1,0,0:0:0:0:
256,176,96364,1,0,0:0:0:0:
388,260,96598,1,2,0:0:0:0:
360,200,96715,1,0,0:0:0:0:
328,140,96833,1,0,0:0:0:0:
124,260,97067,5,2,0:0:0:0:
152,200,97184,1,0,0:0:0:0:
184,140,97302,1,0,0:0:0:0:
64,188,97419,1,0,0:0:0:0:
140,144,97536,1,2,0:0:0:0:
216,124,97653,1,0,0:0:0:0:
296,124,97770,1,0,0:0:0:0:
448,192,98005,6,0,P|392:232|292:248,1,140,2|0,0:0|0:0,0:0:0:0:
112,208,98942,2,0,P|164:176|256:160,1,140,2|0,0:0|0:0,0:0:0:0:
384,88,99880,2,0,P|416:144|376:224,1,140,2|0,0:0|0:0,0:0:0:0:
128,88,100817,2,0,P|96:144|136:224,1,140,2|0,0:0|0:0,0:0:0:0:
380,120,101755,6,0,P|432:168|240:220,1,420
72,164,103630,2,0,B|152:88|320:108|320:108|168:40,1,420
316,104,105505,6,0,L|408:236,1,140
197,274,106208,2,0,P|150:221|334:125,1,350
180,168,107848,1,0,0:0:0:0:
360,224,108083,2,0,B|272:280|184:252|184:252|320:208|344:156,1,350
288,140,109489,1,0,0:0:0:0:
252,96,109723,1,0,0:0:0:0:
268,44,109958,1,0,0:0:0:0:
408,44,110192,6,0,L|256:44,1,140
76,124,110895,2,0,L|160:108,1,70
344,152,111364,2,0,L|256:136,1,70
92,176,111833,2,0,B|180:160|264:184|264:184|264:92|376:52,1,350
148,128,113473,5,0,0:0:0:0:
287,45,113708,2,0,P|263:121|127:105,1,210
336,224,114645,2,0,L|169:194,1,140
384,192,115348,1,0,0:0:0:0:
200,144,115583,2,0,L|352:172,1,140
176,224,116286,2,0,L|80:216,1,70
280,144,116755,6,0,L|376:132,1,70
488,168,117223,1,0,0:0:0:0:
344,192,117458,2,0,L|196:164,1,140
64,152,118161,1,0,0:0:0:0:
256,128,118395,2,0,P|272:140|168:216,1,210
256,288,120505,5,2,0:0:0:0:
260,176,120973,1,0,0:0:0:0:
368,88,121442,1,2,0:0:0:0:
368,180,121676,1,0,0:0:0:0:
144,88,121911,1,0,0:0:0:0:
144,180,122145,1,0,0:0:0:0:
256,308,122380,5,2,0:0:0:0:
256,196,122848,1,0,0:0:0:0:
416,188,123317,1,2,0:0:0:0:
328,88,123551,1,0,0:0:0:0:
96,188,123786,1,0,0:0:0:0:
184,88,124020,1,0,0:0:0:0:
256,308,124255,5,2,0:0:0:0:
256,192,124723,1,0,0:0:0:0:
336,80,125192,1,2,0:0:0:0:
168,140,125426,1,0,0:0:0:0:
336,188,125661,1,0,0:0:0:0:
168,248,125895,1,0,0:0:0:0:
256,312,126130,5,2,0:0:0:0:
256,204,126598,1,0,0:0:0:0:
412,112,126833,1,0,0:0:0:0:
352,112,126950,1,0,0:0:0:0:
292,112,127067,1,2,0:0:0:0:
100,192,127301,1,0,0:0:0:0:
160,192,127418,1,0,0:0:0:0:
220,192,127535,1,2,0:0:0:0:
412,272,127770,1,0,0:0:0:0:
352,272,127887,1,0,0:0:0:0:
292,272,128005,5,2,0:0:0:0:
60,192,128473,1,0,0:0:0:0:
448,192,128942,1,4,0:0:0:0:
256,192,129176,1,0,0:0:0:0:
64,192,129411,1,0,0:0:0:0:
256,264,129645,1,0,0:0:0:0:
448,192,129880,5,2,0:0:0:0:
56,192,130348,1,0,0:0:0:0:
456,192,130817,1,4,0:0:0:0:
256,192,131051,1,0,0:0:0:0:
56,192,131286,2,0,P|72:172|116:144,1,70,0|0,0:0|0:0,0:0:0:0:
456,192,131755,5,2,0:0:0:0:
256,76,132223,1,0,0:0:0:0:
56,192,132692,2,0,L|140:192,1,70,4|0,0:0|0:0,0:0:0:0:
316,260,133161,2,0,L|228:260,1,70,0|0,0:0|0:0,0:0:0:0:
60,256,133630,5,2,0:0:0:0:
452,256,134098,2,0,L|372:256,1,70,0|0,0:0|0:0,0:0:0:0:
276,256,134450,1,0,0:0:0:0:
168,256,134567,1,4,0:0:0:0:
332,192,134801,1,0,0:0:0:0:
416,164,134919,1,0,0:0:0:0:
332,120,135036,1,2,0:0:0:0:
416,96,135270,1,0,0:0:0:0:
332,68,135388,1,0,0:0:0:0:
72,64,135505,5,2,0:0:0:0:
416,208,135973,1,2,0:0:0:0:
164,332,136442,1,8,0:0:0:0:
348,244,136676,1,0,0:0:0:0:
168,148,136911,1,2,0:0:0:0:
352,72,137145,1,0,0:0:0:0:
56,40,137380,5,2,0:0:0:0:
448,192,137848,1,2,0:0:0:0:
60,192,138317,1,8,0:0:0:0:
256,52,138551,1,0,0:0:0:0:
452,192,138786,1,2,0:0:0:0:
256,336,139020,1,4,0:0:0:0:
60,192,139255,5,2,0:0:0:0:
256,56,139723,1,2,0:0:0:0:
204,124,140192,1,8,0:0:0:0:
316,164,140426,1,0,0:0:0:0:
156,200,140661,1,2,0:0:0:0:
364,236,140895,1,0,0:0:0:0:
56,288,141130,6,0,L|152:288,1,70,2|0,0:0|0:0,0:0:0:0:
312,216,141598,2,0,L|224:216,1,70,2|0,0:0|0:0,0:0:0:0:
160,188,141950,1,0,0:0:0:0:
240,148,142067,1,8,0:0:0:0:
112,56,142301,1,0,0:0:0:0:
220,56,142419,1,0,0:0:0:0:
328,56,142536,1,2,0:0:0:0:
452,188,142770,1,0,0:0:0:0:
344,188,142888,1,0,0:0:0:0:
236,188,143005,6,0,L|188:124,1,70,2|0,0:0|0:0,0:0:0:0:
384,44,143473,2,0,L|336:108,1,70,2|0,0:0|0:0,0:0:0:0:
136,128,143942,1,8,0:0:0:0:
224,244,144176,1,0,0:0:0:0:
336,304,144411,1,2,0:0:0:0:
468,312,144645,1,0,0:0:0:0:
68,192,144880,5,2,0:0:0:0:
448,192,145348,1,2,0:0:0:0:
108,96,145817,2,0,L|184:96,1,70,8|0,0:0|0:0,0:0:0:0:
384,148,146286,2,0,L|308:148,1,70,2|0,0:0|0:0,0:0:0:0:
108,192,146755,5,2,0:0:0:0:
452,248,147223,1,2,0:0:0:0:
168,240,147692,2,0,L|124:148,1,70,8|0,0:0|0:0,0:0:0:0:
344,168,148161,2,0,L|388:76,1,70,2|0,0:0|0:0,0:0:0:0:
56,68,148630,5,2,0:0:0:0:
456,192,149098,2,0,L|364:192,1,70,2|0,0:0|0:0,0:0:0:0:
280,188,149450,1,0,0:0:0:0:
172,188,149567,1,2,0:0:0:0:
64,80,149801,1,0,0:0:0:0:
172,80,149919,1,0,0:0:0:0:
280,84,150036,1,2,0:0:0:0:
388,160,150270,1,0,0:0:0:0:
280,160,150388,1,0,0:0:0:0:
172,164,150505,6,0,B|104:168|96:256|188:248,1,140,4|0,0:0|0:0,0:0:0:0:
440,96,151442,1,2,0:0:0:0:
344,164,151676,1,0,0:0:0:0:
240,240,151911,1,0,0:0:0:0:
436,272,152380,5,2,0:0:0:0:
436,192,152497,1,0,0:0:0:0:
436,112,152614,1,0,0:0:0:0:
256,272,152848,1,2,0:0:0:0:
256,192,152965,1,0,0:0:0:0:
256,112,153083,1,0,0:0:0:0:
68,192,153317,1,0,0:0:0:0:
176,248,153551,1,2,0:0:0:0:
48,176,153786,1,0,0:0:0:0:
192,264,154020,1,0,0:0:0:0:
360,248,154255,5,8,0:0:0:0:
152,248,154723,1,8,0:0:0:0:
376,248,155192,1,8,0:0:0:0:
136,248,155661,1,8,0:0:0:0:
392,248,156130,1,8,0:0:0:0:
120,248,156599,1,8,0:0:0:0:
408,248,157067,1,8,0:0:0:0:
104,248,157536,1,8,0:0:0:0:
288,208,158005,6,0,L|323:208,1,35,8|0,0:0|0:0,0:0:0:0:
224,208,158239,2,0,L|189:208,1,35,2|0,0:0|0:0,0:0:0:0:
292,172,158473,2,0,L|327:172,1,35,2|0,0:0|0:0,0:0:0:0:
220,172,158707,2,0,L|185:172,1,35,2|0,0:0|0:0,0:0:0:0:
368,128,158942,6,0,L|403:128,1,35,8|0,0:0|0:0,0:0:0:0:
144,128,159176,2,0,L|109:128,1,35,2|0,0:0|0:0,0:0:0:0:
392,88,159411,2,0,L|427:88,1,35,8|0,0:0|0:0,0:0:0:0:
120,88,159645,2,0,L|85:88,1,35,2|0,0:0|0:0,0:0:0:0:
248,192,160817,6,0,L|213:192,2,35,4|0|4,0:0|0:0|0:0,0:0:0:0:
352,176,161169,1,0,0:0:0:0:
448,160,161286,2,0,L|352:160,1,70,8|0,0:0|0:0,0:0:0:0:
60,132,161755,5,2,0:0:0:0:
256,316,162223,1,8,0:0:0:0:
448,192,162692,1,4,0:0:0:0:
256,72,162926,1,0,0:0:0:0:
64,192,163161,1,8,0:0:0:0:
352,192,163630,5,2,0:0:0:0:
432,192,163747,1,0,0:0:0:0:
352,192,163864,1,0,0:0:0:0:
160,192,164098,1,8,0:0:0:0:
80,192,164215,1,0,0:0:0:0:
160,192,164332,1,0,0:0:0:0:
296,88,164567,2,0,L|212:88,2,70,2|0|8,0:0|0:0|0:0,0:0:0:0:
440,192,165270,1,0,0:0:0:0:
72,136,165505,5,2,0:0:0:0:
256,80,165973,1,8,0:0:0:0:
440,136,166442,1,4,0:0:0:0:
64,192,166676,1,0,0:0:0:0:
440,248,166911,1,8,0:0:0:0:
236,224,167380,5,2,0:0:0:0:
176,224,167536,1,0,0:0:0:0:
112,224,167692,1,0,0:0:0:0:
276,168,167848,1,2,0:0:0:0:
336,168,168004,1,0,0:0:0:0:
400,168,168160,1,0,0:0:0:0:
240,112,168317,1,2,0:0:0:0:
180,112,168473,1,2,0:0:0:0:
116,112,168629,1,2,0:0:0:0:
424,216,168786,6,0,L|441:216,4,17.5,8|2|2|2|2,0:0|0:0|0:0|0:0|0:0,0:0:0:0:
96,192,169255,5,2,0:0:0:0:
424,176,169723,1,8,0:0:0:0:
96,160,170192,1,4,0:0:0:0:
256,76,170426,1,0,0:0:0:0:
416,160,170661,1,8,0:0:0:0:
148,192,171130,5,2,0:0:0:0:
256,192,171247,1,0,0:0:0:0:
364,192,171364,1,0,0:0:0:0:
188,120,171598,1,8,0:0:0:0:
108,92,171715,1,0,0:0:0:0:
188,64,171832,1,0,0:0:0:0:
376,96,172067,5,2,0:0:0:0:
136,160,172301,1,0,0:0:0:0:
376,208,172536,1,8,0:0:0:0:
136,264,172770,1,0,0:0:0:0:
464,320,173005,5,2,0:0:0:0:
256,192,173473,1,8,0:0:0:0:
48,60,173942,1,4,0:0:0:0:
256,192,174176,1,0,0:0:0:0:
464,320,174411,1,8,0:0:0:0:
140,232,174880,6,0,L|52:232,1,70,2|0,0:0|0:0,0:0:0:0:
380,232,175348,2,0,L|456:232,1,70,2|0,0:0|0:0,0:0:0:0:
64,120,175817,1,4,0:0:0:0:
144,176,176051,1,0,0:0:0:0:
448,120,176286,1,4,0:0:0:0:
368,176,176520,1,0,0:0:0:0:
64,232,176755,5,2,0:0:0:0:
168,176,176989,2,0,L|224:176,1,35,0|2,0:0|0:0,0:0:0:0:
424,224,177223,2,0,P|392:264|360:280,1,70,8|0,0:0|0:0,0:0:0:0:
72,192,177692,1,4,0:0:0:0:
256,52,177926,1,0,0:0:0:0:
440,192,178161,1,8,0:0:0:0:
256,320,178395,1,0,0:0:0:0:
56,192,178630,5,2,0:0:0:0:
164,192,178747,1,0,0:0:0:0:
272,192,178864,1,0,0:0:0:0:
436,112,179098,1,8,0:0:0:0:
328,112,179215,1,0,0:0:0:0:
220,112,179332,1,0,0:0:0:0:
72,40,179567,1,2,0:0:0:0:
440,200,179801,1,0,0:0:0:0:
72,344,180036,2,0,P|104:304|144:288,1,70,8|0,0:0|0:0,0:0:0:0:
440,192,180505,5,2,0:0:0:0:
344,184,180739,2,0,L|304:184,1,35,0|2,0:0|0:0,0:0:0:0:
72,144,180973,1,0,0:0:0:0:
72,216,181208,1,8,0:0:0:0:
440,40,181442,1,4,0:0:0:0:
256,188,181676,1,0,0:0:0:0:
64,328,181911,1,8,0:0:0:0:
256,188,182145,1,0,0:0:0:0:
296,64,182380,5,2,0:0:0:0:
212,96,182497,1,0,0:0:0:0:
296,128,182614,1,0,0:0:0:0:
216,180,182848,1,2,0:0:0:0:
300,212,182965,1,0,0:0:0:0:
216,244,183082,1,0,0:0:0:0:
396,316,183317,6,0,L|328:316,1,35,2|0,0:0|0:0,0:0:0:0:
248,316,183551,2,0,L|200:316,1,35,0|0,0:0|0:0,0:0:0:0:
104,256,183786,2,0,L|172:256,1,35,8|2,0:0|0:0,0:0:0:0:
236,256,184020,2,0,L|284:256,1,35,2|0,0:0|0:0,0:0:0:0:
460,256,184255,5,2,0:0:0:0:
352,256,184489,2,0,L|300:256,1,35,0|2,0:0|0:0,0:0:0:0:
96,256,184723,1,8,0:0:0:0:
256,184,184958,1,0,0:0:0:0:
440,64,185192,1,4,0:0:0:0:
72,192,185426,1,0,0:0:0:0:
440,344,185661,1,8,0:0:0:0:
156,208,186130,5,2,0:0:0:0:
156,148,186247,1,0,0:0:0:0:
156,92,186364,1,0,0:0:0:0:
356,208,186598,1,8,0:0:0:0:
356,148,186715,1,0,0:0:0:0:
356,92,186832,1,0,0:0:0:0:
156,92,187067,5,2,0:0:0:0:
356,148,187301,1,0,0:0:0:0:
156,208,187536,1,8,0:0:0:0:
356,272,187770,2,0,P|308:292|268:292,1,70,0|2,0:0|0:0,0:0:0:0:
72,192,188473,5,8,0:0:0:0:
440,192,188942,1,4,0:0:0:0:
252,64,189176,1,0,0:0:0:0:
72,192,189411,1,8,0:0:0:0:
328,192,189880,5,2,0:0:0:0:
372,164,189997,1,0,0:0:0:0:
416,136,190114,1,0,0:0:0:0:
184,192,190348,1,2,0:0:0:0:
140,220,190465,1,0,0:0:0:0:
96,248,190582,1,0,0:0:0:0:
296,164,190817,6,0,L|340:164,1,35,2|0,0:0|0:0,0:0:0:0:
216,164,191051,2,0,L|160:164,1,35,0|0,0:0|0:0,0:0:0:0:
296,96,191286,2,0,L|344:96,1,35,2|0,0:0|0:0,0:0:0:0:
216,96,191520,1,0,0:0:0:0:
