osu file format v14

[General]
AudioFilename: audio.mp3
AudioLeadIn: 0
PreviewTime: 40934
Countdown: 0
SampleSet: Soft
StackLeniency: 0.7
Mode: 2
LetterboxInBreaks: 0
EpilepsyWarning: 1
WidescreenStoryboard: 1

[Editor]
Bookmarks: 505,11755,26755,41755,56755,68005,83005,98005,120505,135505,150505,161755,176755,191520
DistanceSpacing: 1
BeatDivisor: 4
GridSize: 4
TimelineZoom: 1.7

[Metadata]
Title:Arcadia
TitleUnicode:Arcadia
Artist:Hardwell & Joey Dale feat. Luciana
ArtistUnicode:Hardwell & Joey Dale feat. Luciana
Creator:JBHyperion
Version:Collab Rain
Source:
Tags:Dutch Progressive House Electronic Dance Music EDM Electro Dubstep United We Are Caporaso Daleboudt Robbert van Corput Nick Clow Magic Girl Withered Lotus Sorcerer Riari P_i_k_u Piku guineaQ
BeatmapID:1009516
BeatmapSetID:472434

[Difficulty]
HPDrainRate:6
CircleSize:3
OverallDifficulty:8.7
ApproachRate:8.7
SliderMultiplier:2
SliderTickRate:1

[Events]
//Background and Video events
0,0,"Arcadia2.jpg",0,0
//Break Periods
//Storyboard Layer 0 (Background)
//Storyboard Layer 1 (Fail)
//Storyboard Layer 2 (Pass)
//Storyboard Layer 3 (Foreground)
Sprite,Foreground,Centre,"Collab SB\ArcadiaSorcerer.png",320,240 M,0,11520,11755,100,440,140,440 F,0,11520,11755,0,1 S,0,11520,74919,0.3 M,0,26051,26520,140,435,140,480 F,0,26051,26520,1,0 F,0,26520,67770,0 M,0,67770,68005,140,55,140,100 F,0,67770,68005,0,1 F,0,73161,73512,1,0.8 F,0,73512,73630,0.8,1 F,0,73630,73747,1,0.9 F,0,73747,73864,0.9,0.6 F,0,73981,74098,0.6,0.85 F,0,74098,74215,0.85,0.75 F,0,74215,74333,0.75,0.5 F,0,74450,74567,0.5,0.7 F,0,74567,74684,0.7,0.6 F,0,74684,74801,0.6,0.35 F,0,74919,75036,0.35,1 S,0,74919,75036,0.3,0.325 S,0,75036,75153,0.325,0.3 F,0,81130,81247,1,0.9 F,0,81247,81364,0.9,0.6 F,0,81364,81598,0.6,0.8 F,0,81598,81715,0.8,0.7 F,0,81715,81833,0.7,0.4 F,0,81833,82067,0.4,0.6 M,0,82067,82536,140,100,85,100 F,0,82067,82536,0.6,0 M,0,120036,120739,460,55,460,100 F,0,120036,120739,0,0.5 F,0,120973,121911,0.5,0.25 F,0,121911,122145,0.25,0.5 F,0,122145,123786,0.5,0.35 F,0,123786,124020,0.35,0.6 F,0,124020,126130,0.6,0.45 F,0,126130,127887,0.45,0.6 F,0,127887,128005,0.6,0.75 F,0,128005,128122,0.75,0.5 F,0,128356,128473,0.5,0.8 F,0,128473,128590,0.8,0.6 F,0,128825,128942,0.6,0.8 F,0,128942,129059,0.8,0.65 F,0,129059,129176,0.65,0.9 F,0,129176,129274,0.9,0.75 F,0,129880,131755,0.75,1 M,0,135036,135270,460,100,505,100 F,0,135036,135270,1,0
Sprite,Foreground,Centre,"Collab SB\ArcadiaJBH.png",320,240 M,0,36,505,450,480,450,440 F,0,36,505,0,1 S,0,7887,8005,0.3,0.325 S,0,8005,8122,0.325,0.3 M,0,10817,11286,450,440,450,400 F,0,10817,11286,1,0 F,0,98005,99762,0,0.25 M,0,98005,99880,140,500,140,440 F,0,99762,99997,0.25,0.15 F,0,99997,101755,0.15,0.4 F,0,101755,103395,0.4,0.7 F,0,103395,103747,0.7,0.5 F,0,103395,104567,0.5,1 F,0,104567,104684,1,0.6 F,0,104684,104801,0.6,0.8 F,0,104801,105036,0.8,1 F,0,105036,105153,1,0.5 F,0,105153,105270,0.5,0.85 F,0,105270,105387,0.85,0.75 F,0,105387,105505,0.75,1 M,0,119801,120270,140,440,180,440 F,0,119801,120270,1,0 M,0,176520,176755,450,140,450,100 F,0,176520,176755,0,1 F,0,182145,182262,1,0.85 F,0,182262,182380,0.85,1 F,0,182380,182497,1,0.85 F,0,182497,182614,0.85,0.65 F,0,182731,182848,0.65,1 F,0,182848,182965,1,0.85 F,0,182965,183083,0.85,0.65 F,0,183200,183317,0.65,1 F,0,183317,183669,1,0.6 F,0,183669,183786,0.6,0.75 F,0,183786,183903,0.75,0.5 F,0,183903,184137,0.5,0.2 F,0,184137,184255,0.2,1 S,0,184137,184255,0.3,0.325 S,0,184255,184372,0.325,0.3 F,0,189880,189997,1,0.9 F,0,189997,190114,0.9,0.6 F,0,190114,190348,0.6,0.8 F,0,190348,190465,0.8,0.7 F,0,190465,190583,0.7,0.4 F,0,190583,190817,0.4,0.6 F,0,190817,191286,0.6,0.45 F,0,191286,191520,0.45,0
Sprite,Foreground,Centre,"Collab SB\ArcadiaRiari.png",320,240 M,0,41520,41755,45,100,90,100 F,0,41520,41755,0,1 S,0,41755,49137,0.3 F,0,48786,49137,1,0.6 F,0,49137,49255,0.6,1 S,0,49137,49255,0.3,0.325 S,0,49255,49372,0.325,0.3 F,0,56520,56755,1,0.5 F,0,56755,60270,0.5,0.8 F,0,60270,60387,0.8,0.5 F,0,60387,60505,0.5,0.65 F,0,60505,64255,0.65,1 F,0,67536,68005,1,0 R,0,67536,68005,0,6.283637 M,0,68005,150270,40,100,460,100 F,0,150270,150387,0,0.75 F,0,150387,150505,0.75,0.5 F,0,150505,154020,0.5,0.8 F,0,154020,154137,0.8,0.5 F,0,154137,154255,0.5,0.65 F,0,154255,158005,0.65,1 F,0,161286,161755,1,0 R,0,161286,161755,6.283637,0
Sprite,Foreground,Centre,"Collab SB\ArcadiaPiku.png",320,240 S,0,26520,,0.3 M,0,26520,26755,460,140,460,100 F,0,26520,26755,0,0.5 F,0,26755,34137,0.5,0.6 F,0,34137,34255,0.6,0.75 F,0,34255,34372,0.75,0.5 F,0,34606,34723,0.5,0.8 F,0,34723,34840,0.8,0.6 F,0,35075,35192,0.6,0.8 F,0,35192,35309,0.8,0.65 F,0,35309,35426,0.65,0.9 F,0,35426,35544,0.9,0.75 F,0,36130,38005,0.75,1 S,0,40700,40817,0.3,0.325 S,0,40817,40934,0.325,0.3 S,0,40934,142887,0.3 M,0,41286,41520,460,100,505,100 F,0,41286,41520,1,0 M,0,135270,135505,505,440,460,440 F,0,135270,135505,0,1 F,0,142536,142887,1,0.6 F,0,142887,143005,0.6,1 S,0,142887,143005,0.3,0.325 S,0,143005,143122,0.325,0.3 F,0,150036,150153,1,0.5 F,0,150153,150270,0.5,0.75 F,0,150270,150505,0.75,0
Sprite,Foreground,Centre,"Collab SB\ArcadiaguineaQ.png",320,240 M,0,82770,83005,100,145,100,100 F,0,82770,83005,0,1 S,0,82770,90387,0.3 F,0,88395,88512,1,0.85 F,0,88512,88630,0.85,1 F,0,88630,88747,1,0.85 F,0,88747,88864,0.85,0.65 F,0,88981,89098,0.65,1 F,0,89098,89215,1,0.85 F,0,89215,89333,0.85,0.65 F,0,89450,89567,0.65,1 F,0,89567,89919,1,0.6 F,0,89919,90036,0.6,0.75 F,0,90036,90153,0.75,0.5 F,0,90153,90387,0.5,0.2 F,0,90387,90505,0.2,1 S,0,90387,90505,0.3,0.325 S,0,90505,90622,0.325,0.3 F,0,96130,96247,1,0.9 F,0,96247,96364,0.9,0.6 F,0,96364,96598,0.6,0.8 F,0,96598,96715,0.8,0.7 F,0,96715,96833,0.7,0.4 F,0,96833,97067,0.4,0.6 F,0,97067,97536,0.6,0.45 F,0,97536,98005,0.45,0 R,0,97536,98005,0,-6.283636 M,0,161520,161755,460,55,460,100 F,0,161520,161755,0,1 F,0,166911,167262,1,0.8 F,0,167262,167380,0.8,1 F,0,167380,167497,1,0.9 F,0,167497,167614,0.9,0.6 F,0,167731,167848,0.6,0.85 F,0,167848,167965,0.85,0.75 F,0,167965,168083,0.75,0.5 F,0,168200,168317,0.5,0.7 F,0,168317,168434,0.7,0.6 F,0,168434,168551,0.6,0.35 F,0,168669,168786,0.35,1 S,0,168669,168786,0.3,0.325 S,0,168786,168903,0.325,0.3 S,0,174762,174880,0.3,0.325 F,0,175817,175934,1,0.65 S,0,175817,176286,0.325,0.3 M,0,176286,176520,460,100,505,100 F,0,176286,176520,0.65,0
//Storyboard Sound Samples

[TimingPoints]
505,468.75,4,3,1,50,1,0
6130,-100,4,3,1,55,0,0
6598,-100,4,3,1,60,0,0
7067,-100,4,3,1,65,0,0
7536,-100,4,3,1,70,0,0
8005,-166.666666666667,4,3,1,75,0,0
8239,-166.666666666667,4,2,1,40,0,0
9880,-133.333333333333,4,2,1,45,0,0
10817,-100,4,2,1,50,0,0
11755,-100,4,2,1,65,0,0
24880,-100,4,2,1,75,0,0
26755,-89.2857142857143,4,2,1,85,0,0
41755,-100,4,2,1,95,0,0
56755,-100,4,2,1,80,0,0
57223,-100,4,2,1,60,0,0
58630,-100,4,2,1,70,0,0
60505,-100,4,3,1,40,0,0
61442,-100,4,3,1,45,0,0
62380,-100,4,3,1,50,0,0
63317,-100,4,3,1,55,0,0
64255,-100,4,3,1,60,0,0
65192,-100,4,3,1,65,0,0
65661,-100,4,3,1,70,0,0
68005,-100,4,3,2,90,0,1
73630,-100,4,3,2,85,0,1
74098,-100,4,3,2,80,0,1
74567,-100,4,3,2,75,0,1
75036,-100,4,3,2,100,0,1
75505,-100,4,3,2,90,0,1
81130,-100,4,2,1,80,0,0
81598,-100,4,2,1,70,0,0
82067,-100,4,2,1,60,0,0
82536,-100,4,2,1,50,0,0
83005,-100,4,3,2,90,0,1
89567,-100,4,3,2,85,0,1
90036,-100,4,3,2,80,0,1
90505,-100,4,3,2,90,0,1
94255,-66.6666666666667,4,3,2,90,0,1
94606,-100,4,3,2,90,0,1
96130,-100,4,2,1,80,0,0
96598,-100,4,2,1,70,0,0
97067,-100,4,2,1,60,0,0
97536,-100,4,2,1,50,0,0
98005,-200,4,2,1,75,0,0
98239,-200,4,2,1,50,0,0
103630,-133.333333333333,4,2,1,55,0,0
104567,-133.333333333333,4,2,1,60,0,0
105505,-133.333333333333,4,2,1,50,0,0
118395,-100,4,2,1,50,0,0
126130,-100,4,2,1,55,0,0
127067,-100,4,2,1,60,0,0
128005,-100,4,2,1,65,0,0
129880,-100,4,2,1,70,0,0
130817,-100,4,2,1,75,0,0
131755,-100,4,2,1,80,0,0
133630,-100,4,2,1,85,0,0
134567,-100,4,2,1,90,0,0
135505,-89.2857142857143,4,2,1,90,0,0
148630,-89.2857142857143,4,3,1,85,0,0
149098,-89.2857142857143,4,3,1,80,0,0
149567,-89.2857142857143,4,3,1,75,0,0
150036,-89.2857142857143,4,3,1,70,0,0
150505,-89.2857142857143,4,2,1,80,0,0
152614,-89.2857142857143,4,2,1,60,0,0
154255,-89.2857142857143,4,3,1,40,0,0
155192,-89.2857142857143,4,3,1,45,0,0
156130,-89.2857142857143,4,3,1,50,0,0
157067,-89.2857142857143,4,3,1,55,0,0
158005,-89.2857142857143,4,3,1,60,0,0
158942,-89.2857142857143,4,3,1,65,0,0
159411,-89.2857142857143,4,3,1,70,0,0
161755,-100,4,3,2,90,0,1
167380,-100,4,3,2,85,0,1
167848,-100,4,3,2,80,0,1
168317,-100,4,3,2,75,0,1
168786,-100,4,3,2,100,0,1
169255,-100,4,3,2,90,0,1
174880,-100,4,2,1,80,0,0
175348,-100,4,2,1,85,0,0
175817,-100,4,2,1,90,0,0
176286,-100,4,2,1,80,0,0
176755,-100,4,3,2,90,0,1
183317,-100,4,3,2,85,0,1
183786,-100,4,3,2,80,0,1
184255,-100,4,3,2,90,0,1
188005,-100,4,3,2,70,0,1
189880,-100,4,2,1,80,0,0
190348,-100,4,2,1,70,0,0
190817,-100,4,2,1,60,0,0
191286,-100,4,2,1,50,0,0

[Colours]
Combo1 : 255,102,255
Combo2 : 58,95,225
Combo3 : 147,112,219
Combo4 : 50,200,255

[HitObjects]
213,325,505,6,0,L|133:197,1,150,4|2,0:0|0:0,0:0:0:0:
333,193,973,2,0,L|433:193,1,100,8|0,0:0|0:0,0:0:0:0:
293,97,1442,1,2,0:0:0:0:
413,97,1676,1,0,0:0:0:0:
213,97,1911,1,8,0:0:0:0:
353,181,2145,2,0,L|417:181,1,50,0|0,0:0|0:0,0:0:0:0:
201,185,2380,5,2,0:0:0:0:
144,152,2497,1,2,0:0:0:0:
125,90,2614,1,2,0:0:0:0:
154,31,2731,1,2,0:0:0:0:
357,33,2848,2,0,L|465:33,1,100,8|0,0:0|0:0,0:0:0:0:
317,133,3317,2,0,L|277:177,1,50,2|0,0:0|0:0,0:0:0:0:
385,197,3551,2,0,L|425:241,1,50,0|0,0:0|0:0,0:0:0:0:
217,233,3786,1,8,0:0:0:0:
77,197,4020,2,0,L|145:197,1,50,0|0,0:0|0:0,0:0:0:0:
331,197,4255,5,2,0:0:0:0:
394,180,4372,1,2,0:0:0:0:
440,133,4489,1,2,0:0:0:0:
455,68,4606,1,2,0:0:0:0:
317,133,4723,1,8,0:0:0:0:
331,197,4840,1,0,0:0:0:0:
377,244,4957,1,0,0:0:0:0:
441,261,5074,1,0,0:0:0:0:
317,133,5192,5,2,0:0:0:0:
266,172,5309,1,0,0:0:0:0:
269,236,5426,1,0,0:0:0:0:
322,272,5543,1,0,0:0:0:0:
456,197,5661,1,8,0:0:0:0:
506,236,5778,1,0,0:0:0:0:
503,300,5895,1,0,0:0:0:0:
450,336,6012,1,0,0:0:0:0:
225,337,6130,5,0,0:0:0:0:
182,339,6188,1,0,0:0:0:0:
145,319,6247,1,0,0:0:0:0:
124,283,6305,1,0,0:0:0:0:
125,241,6364,1,0,0:0:0:0:
149,205,6422,1,0,0:0:0:0:
188,188,6481,1,0,0:0:0:0:
376,192,6598,5,8,0:0:0:0:
417,180,6656,1,0,0:0:0:0:
445,148,6715,1,0,0:0:0:0:
452,106,6773,1,0,0:0:0:0:
437,67,6832,1,0,0:0:0:0:
402,42,6890,1,0,0:0:0:0:
360,39,6949,1,0,0:0:0:0:
176,204,7067,5,2,0:0:0:0:
137,218,7125,1,0,0:0:0:0:
94,216,7184,1,0,0:0:0:0:
56,198,7242,1,0,0:0:0:0:
28,165,7301,1,2,0:0:0:0:
15,125,7359,1,0,0:0:0:0:
19,83,7418,1,0,0:0:0:0:
224,48,7536,5,8,0:0:0:0:
260,96,7594,1,0,0:0:0:0:
252,156,7653,1,0,0:0:0:0:
216,192,7711,1,0,0:0:0:0:
180,204,7770,1,0,0:0:0:0:
160,256,7828,1,0,0:0:0:0:
180,312,7887,1,0,0:0:0:0:
224,328,7945,1,0,0:0:0:0:
276,328,8005,6,0,L|400:328,3,119.999996337891,2|0|0|0,0:0|0:0|0:0|0:0,0:0:0:0:
280,244,9880,2,0,L|130:244,1,150.000005722046,2|0,0:0|0:0,0:0:0:0:
328,156,10817,2,0,L|128:156,1,200,2|0,0:0|0:0,0:0:0:0:
348,108,11755,6,0,L|124:108,2,200,4|0|2,0:0|0:0|0:0,0:0:0:0:
176,192,12926,2,0,L|84:144,1,100,0|0,0:0|0:0,0:0:0:0:
176,100,13395,1,0,0:0:0:0:
476,116,13630,6,0,L|268:116,2,200,4|0|2,0:0|0:0|0:0,0:0:0:0:
352,168,14801,1,0,0:0:0:0:
216,168,15036,1,0,0:0:0:0:
352,200,15270,2,0,L|318:237,1,50
120,176,15505,5,4,0:0:0:0:
244,168,15739,1,0,0:0:0:0:
48,176,15973,2,0,L|16:72,1,100,0|0,0:0|0:0,0:0:0:0:
292,104,16442,2,0,L|192:104,2,100,2|0|0,0:0|0:0|0:0,0:0:0:0:
92,104,17145,1,0,0:0:0:0:
8,104,17380,2,0,L|108:172,1,100,2|0,0:0|0:0,0:0:0:0:
284,188,17848,1,2,0:0:0:0:
160,188,18083,6,0,L|124:132,2,50,0|0|4,0:0|0:0|0:0,0:0:0:0:
388,136,18551,2,0,L|436:88,2,50,0|0|2,0:0|0:0|0:0,0:0:0:0:
76,144,19020,2,0,L|44:96,1,50,0|0,0:0|0:0,0:0:0:0:
248,96,19255,6,0,L|452:96,2,200,4|0|2,0:0|0:0|0:0,0:0:0:0:
368,96,20426,1,0,0:0:0:0:
56,96,20661,1,0,0:0:0:0:
176,96,20895,1,0,0:0:0:0:
56,176,21130,6,0,L|264:176,2,200,4|0|4,0:0|0:0|0:0,0:0:0:0:
248,176,22301,2,0,L|392:176,1,100
256,268,22770,1,0,0:0:0:0:
56,288,23005,6,0,L|268:288,2,200,4|0|2,0:0|0:0|0:0,0:0:0:0:
168,112,24176,1,0,0:0:0:0:
48,176,24411,1,0,0:0:0:0:
168,176,24645,1,0,0:0:0:0:
480,184,24880,6,0,L|264:184,1,200,2|2,0:0|0:0,0:0:0:0:
400,128,25583,2,0,L|444:84,2,50,0|0|4,0:0|0:0|0:0,0:0:0:0:
176,128,26051,2,0,L|132:92,2,50,0|0|2,0:0|0:0|0:0,0:0:0:0:
480,176,26520,2,0,L|440:128,1,50
240,160,26755,5,4,0:0:0:0:
16,240,27223,1,0,0:0:0:0:
352,256,27692,2,0,L|344:144,1,112.000001367188,8|0,0:0|0:0,0:0:0:0:
120,168,28161,2,0,L|128:56,1,112.000001367188,0|0,0:0|0:0,0:0:0:0:
464,120,28630,6,0,L|240:120,2,224.000002734375,2|0|8,0:0|0:0|0:0,0:0:0:0:
296,272,29801,1,0,0:0:0:0:
464,296,30036,1,0,0:0:0:0:
152,232,30270,1,0,0:0:0:0:
208,240,30387,1,0,0:0:0:0:
264,248,30505,5,2,0:0:0:0:
40,136,30973,1,0,0:0:0:0:
376,168,31442,2,0,L|368:56,1,112.000001367188,8|0,0:0|0:0,0:0:0:0:
144,240,31911,2,0,L|152:128,1,112.000001367188,0|0,0:0|0:0,0:0:0:0:
488,112,32380,5,2,0:0:0:0:
152,56,32848,1,0,0:0:0:0:
376,96,33083,1,0,0:0:0:0:
320,104,33200,1,0,0:0:0:0:
264,112,33317,1,8,0:0:0:0:
40,160,33551,2,0,L|96:160,1,56.0000006835938,0|0,0:0|0:0,0:0:0:0:
296,184,33786,1,8,0:0:0:0:
440,280,34020,2,0,L|384:280,1,56.0000006835938,0|0,0:0|0:0,0:0:0:0:
176,264,34255,6,0,L|64:264,1,112.000001367188,4|0,0:0|0:0,0:0:0:0:
288,160,34723,2,0,L|400:160,1,112.000001367188,0|0,0:0|0:0,0:0:0:0:
64,96,35192,1,8,0:0:0:0:
176,120,35426,1,0,0:0:0:0:
64,64,35661,1,0,0:0:0:0:
400,264,35895,1,0,0:0:0:0:
72,160,36130,6,0,L|184:160,1,112.000001367188,2|0,0:0|0:0,0:0:0:0:
408,168,36598,2,0,L|400:56,1,112.000001367188,0|2,0:0|0:0,0:0:0:0:
64,64,37067,1,8,0:0:0:0:
176,72,37301,1,0,0:0:0:0:
288,80,37536,1,0,0:0:0:0:
64,200,37770,2,0,L|120:200,1,56.0000006835938,0|0,0:0|0:0,0:0:0:0:
344,288,38005,6,0,P|424:248|344:192,1,224.000002734375,2|0,0:0|0:0,0:0:0:0:
16,128,38942,2,0,L|24:240,1,112.000001367188,8|0,0:0|0:0,0:0:0:0:
248,328,39411,2,0,L|256:216,1,112.000001367188,0|0,0:0|0:0,0:0:0:0:
480,152,39880,6,0,L|256:152,1,224.000002734375,2|0,0:0|0:0,0:0:0:0:
32,192,40583,1,4,0:0:0:0:
88,192,40700,1,0,0:0:0:0:
144,192,40817,1,0,0:0:0:0:
312,224,41051,1,0,0:0:0:0:
368,224,41169,1,0,0:0:0:0:
424,224,41286,1,8,0:0:0:0:
200,168,41520,1,0,0:0:0:0:
256,168,41637,1,0,0:0:0:0:
448,72,41755,6,0,L|312:72,1,100,4|0,0:0|0:0,0:0:0:0:
200,168,42223,2,0,L|336:168,1,100,0|0,0:0|0:0,0:0:0:0:
448,240,42692,1,8,0:0:0:0:
328,288,42926,1,0,0:0:0:0:
448,344,43161,1,0,0:0:0:0:
328,288,43395,1,0,0:0:0:0:
24,112,43630,6,0,L|168:112,1,100,2|0,0:0|0:0,0:0:0:0:
264,192,44098,2,0,L|128:192,1,100,0|0,0:0|0:0,0:0:0:0:
32,264,44567,1,8,0:0:0:0:
152,336,44801,1,0,0:0:0:0:
32,264,45036,1,0,0:0:0:0:
160,192,45270,1,0,0:0:0:0:
464,104,45505,6,0,L|352:104,1,100,2|0,0:0|0:0,0:0:0:0:
200,264,45973,2,0,L|312:264,1,100,0|0,0:0|0:0,0:0:0:0:
416,184,46442,2,0,L|304:184,1,100,8|0,0:0|0:0,0:0:0:0:
464,104,46911,2,0,L|352:104,1,100,0|0,0:0|0:0,0:0:0:0:
64,88,47380,6,0,L|80:216,1,100,2|0,0:0|0:0,0:0:0:0:
256,280,47848,2,0,L|128:280,1,100,0|0,0:0|0:0,0:0:0:0:
232,280,48200,1,0,0:0:0:0:
306,280,48317,1,8,0:0:0:0:
156,180,48551,2,0,L|156:301,1,100,0|8,0:0|0:0,0:0:0:0:
320,184,49020,1,0,0:0:0:0:
16,72,49255,6,0,L|136:72,1,100,4|0,0:0|0:0,0:0:0:0:
216,72,49723,2,0,L|116:72,1,100,0|0,0:0|0:0,0:0:0:0:
256,152,50192,1,8,0:0:0:0:
352,152,50426,1,0,0:0:0:0:
256,240,50661,1,0,0:0:0:0:
160,240,50895,1,0,0:0:0:0:
464,320,51130,6,0,L|352:320,1,100,2|0,0:0|0:0,0:0:0:0:
512,232,51598,2,0,L|400:232,1,100,0|0,0:0|0:0,0:0:0:0:
252,152,52067,2,0,L|352:152,1,100,8|0,0:0|0:0,0:0:0:0:
504,72,52535,2,0,L|404:72,1,100,0|0,0:0|0:0,0:0:0:0:
96,336,53005,6,0,L|40:240,1,100,2|0,0:0|0:0,0:0:0:0:
194,335,53473,2,0,L|250:239,1,100,0|0,0:0|0:0,0:0:0:0:
45,249,53942,2,0,L|157:249,1,100,8|0,0:0|0:0,0:0:0:0:
245,249,54411,2,0,L|133:249,1,100,0|0,0:0|0:0,0:0:0:0:
448,152,54880,6,0,L|472:48,1,100,2|0,0:0|0:0,0:0:0:0:
328,152,55348,2,0,L|208:152,1,100,0|0,0:0|0:0,0:0:0:0:
178,152,55700,1,0,0:0:0:0:
228,152,55817,1,8,0:0:0:0:
352,240,56051,1,0,0:0:0:0:
424,240,56169,1,0,0:0:0:0:
488,248,56286,2,0,L|448:352,1,100,8|0,0:0|0:0,0:0:0:0:
120,328,56755,5,4,0:0:0:0:
232,224,57223,1,0,0:0:0:0:
120,112,57692,1,2,0:0:0:0:
192,32,57926,1,0,0:0:0:0:
120,112,58161,1,0,0:0:0:0:
312,136,58630,5,2,0:0:0:0:
328,192,58747,1,0,0:0:0:0:
284,232,58864,1,0,0:0:0:0:
168,232,59098,5,2,0:0:0:0:
152,288,59215,1,0,0:0:0:0:
195,328,59332,1,0,0:0:0:0:
328,192,59567,1,4,0:0:0:0:
195,328,59801,1,0,0:0:0:0:
400,320,60036,1,2,0:0:0:0:
448,216,60270,1,0,0:0:0:0:
80,192,60505,5,8,0:0:0:0:
136,112,60973,1,8,0:0:0:0:
192,32,61442,1,8,0:0:0:0:
288,32,61911,1,8,0:0:0:0:
424,32,62380,5,8,0:0:0:0:
272,32,62848,1,8,0:0:0:0:
440,32,63317,1,8,0:0:0:0:
248,32,63786,1,8,0:0:0:0:
416,264,64255,6,0,L|440:216,1,50,10|0,0:0|0:0,0:0:0:0:
352,200,64489,2,0,L|328:152,1,50,2|0,0:0|0:0,0:0:0:0:
416,136,64723,2,0,L|440:88,1,50,2|0,0:0|0:0,0:0:0:0:
352,72,64957,2,0,L|328:24,1,50,2|0,0:0|0:0,0:0:0:0:
128,320,65192,6,0,L|104:272,1,50,8|2,0:0|0:0,0:0:0:0:
192,256,65426,2,0,L|216:208,1,50,2|2,0:0|0:0,0:0:0:0:
128,192,65660,2,0,L|104:144,1,50,8|2,0:0|0:0,0:0:0:0:
192,128,65894,2,0,L|216:80,1,50,2|2,0:0|0:0,0:0:0:0:
360,176,67536,6,0,P|400:136|344:64,1,150,8|0,0:0|0:0,0:0:0:0:
88,80,68005,5,2,0:0:0:0:
336,80,68473,1,8,0:0:0:0:
112,80,68942,1,4,0:0:0:0:
336,160,69176,1,0,0:0:0:0:
112,160,69411,1,8,0:0:0:0:
328,112,69880,5,2,0:0:0:0:
384,112,69997,1,0,0:0:0:0:
440,112,70114,1,0,0:0:0:0:
128,176,70348,1,8,0:0:0:0:
72,176,70465,1,0,0:0:0:0:
16,176,70582,1,0,0:0:0:0:
368,176,70817,5,2,0:0:0:0:
200,120,71051,1,0,0:0:0:0:
368,112,71286,2,0,L|464:72,1,100,8|0,0:0|0:0,0:0:0:0:
80,120,71755,6,0,P|32:216|104:288,1,200,2|8,0:0|0:0,0:0:0:0:
352,192,72692,1,4,0:0:0:0:
120,192,72926,1,0,0:0:0:0:
352,128,73161,1,8,0:0:0:0:
128,128,73630,6,0,L|184:72,2,66.6666666666667,2|0|0,0:0|0:0|0:0,0:0:0:0:
288,128,74098,2,0,L|232:72,2,66.6666666666667,2|0|0,0:0|0:0|0:0,0:0:0:0:
136,144,74567,6,0,L|192:88,2,66.6666666666667,2|2|2,0:0|0:0|0:0,0:0:0:0:
304,144,75036,2,0,P|328:224|296:296,1,150,8|0,0:0|0:0,0:0:0:0:
88,280,75505,5,2,0:0:0:0:
336,280,75973,1,8,0:0:0:0:
88,224,76442,1,4,0:0:0:0:
296,224,76676,1,0,0:0:0:0:
88,160,76911,1,8,0:0:0:0:
456,144,77380,5,2,0:0:0:0:
408,144,77497,1,0,0:0:0:0:
360,144,77614,1,0,0:0:0:0:
56,144,77848,1,8,0:0:0:0:
104,144,77965,1,0,0:0:0:0:
152,144,78082,1,0,0:0:0:0:
452,168,78317,6,0,L|340:168,1,100,2|0,0:0|0:0,0:0:0:0:
92,168,78786,2,0,L|184:80,1,100,8|0,0:0|0:0,0:0:0:0:
464,160,79255,6,0,P|488:224|448:352,1,200,2|8,0:0|0:0,0:0:0:0:
120,192,80192,1,4,0:0:0:0:
344,192,80426,1,0,0:0:0:0:
120,128,80661,1,8,0:0:0:0:
312,136,81130,6,0,L|336:64,1,50,2|0,0:0|0:0,0:0:0:0:
144,88,81364,1,0,0:0:0:0:
56,104,81598,2,0,L|80:184,1,50,2|0,0:0|0:0,0:0:0:0:
256,160,81833,1,0,0:0:0:0:
344,176,82067,6,0,L|320:96,1,50,2|0,0:0|0:0,0:0:0:0:
184,88,82301,2,0,L|198:135,1,50
304,104,82536,2,0,L|280:40,1,50,2|0,0:0|0:0,0:0:0:0:
136,64,82770,1,0,0:0:0:0:
501,80,83005,6,0,P|490:147|458:224,1,150,2|2,0:0|0:0,0:0:0:0:
271,151,83473,1,8,0:0:0:0:
389,122,83708,1,0,0:0:0:0:
182,172,83942,5,4,0:0:0:0:
361,240,84176,2,0,L|299:262,1,50,0|2,0:0|0:0,0:0:0:0:
274,272,84411,1,8,0:0:0:0:
97,200,84645,1,0,0:0:0:0:
310,123,84880,5,2,0:0:0:0:
363,104,84997,1,0,0:0:0:0:
417,84,85115,1,0,0:0:0:0:
107,196,85348,1,8,0:0:0:0:
54,177,85465,1,0,0:0:0:0:
0,157,85583,1,0,0:0:0:0:
160,214,85817,5,2,0:0:0:0:
332,172,86051,2,0,L|410:168,1,50
258,108,86286,1,8,0:0:0:0:
439,38,86520,1,0,0:0:0:0:
283,173,86755,6,0,P|212:139|199:33,1,150,2|2,0:0|0:0,0:0:0:0:
402,128,87223,1,8,0:0:0:0:
265,36,87458,1,0,0:0:0:0:
473,93,87692,5,4,0:0:0:0:
245,155,87926,2,0,L|171:159,1,50,0|2,0:0|0:0,0:0:0:0:
158,159,88161,1,8,0:0:0:0:
312,225,88395,1,0,0:0:0:0:
155,71,88630,5,2,0:0:0:0:
93,79,88747,1,0,0:0:0:0:
32,88,88864,1,0,0:0:0:0:
334,188,89098,1,8,0:0:0:0:
272,180,89215,1,0,0:0:0:0:
211,171,89332,1,0,0:0:0:0:
372,292,89567,6,0,L|509:311,1,100,2|0,0:0|0:0,0:0:0:0:
420,240,89919,1,0,0:0:0:0:
220,112,90036,1,8,0:0:0:0:
160,92,90153,1,2,0:0:0:0:
100,84,90270,1,2,0:0:0:0:
401,270,90505,6,0,P|443:223|444:117,1,150,2|2,0:0|0:0,0:0:0:0:
245,193,90973,1,8,0:0:0:0:
365,68,91208,1,0,0:0:0:0:
169,41,91442,5,4,0:0:0:0:
347,87,91676,2,0,L|424:81,1,50,0|2,0:0|0:0,0:0:0:0:
438,79,91911,1,8,0:0:0:0:
287,159,92145,1,0,0:0:0:0:
63,102,92380,5,2,0:0:0:0:
121,80,92497,1,0,0:0:0:0:
181,65,92614,1,0,0:0:0:0:
492,116,92848,1,8,0:0:0:0:
434,138,92965,1,0,0:0:0:0:
374,153,93082,1,0,0:0:0:0:
196,100,93317,5,2,0:0:0:0:
369,39,93551,2,0,L|285:42,1,50
248,100,93786,1,8,0:0:0:0:
412,170,94020,1,0,0:0:0:0:
183,278,94255,6,0,P|104:204|152:104,1,225.000008583069,2|2,0:0|0:0,0:0:0:0:
332,160,94723,1,8,0:0:0:0:
224,108,94958,1,0,0:0:0:0:
456,124,95192,5,4,0:0:0:0:
328,86,95426,2,0,L|248:91,1,50,0|2,0:0|0:0,0:0:0:0:
234,93,95661,1,8,0:0:0:0:
396,161,95895,1,0,0:0:0:0:
196,241,96130,5,2,0:0:0:0:
149,224,96247,1,0,0:0:0:0:
111,191,96364,1,0,0:0:0:0:
349,242,96598,1,2,0:0:0:0:
395,225,96715,1,0,0:0:0:0:
433,192,96832,1,0,0:0:0:0:
232,85,97067,6,0,L|278:161,1,50,2|0,0:0|0:0,0:0:0:0:
375,87,97301,2,0,L|349:129,1,50
236,169,97536,2,0,L|190:245,1,50,2|0,0:0|0:0,0:0:0:0:
100,217,97770,2,0,L|126:259,1,50
384,296,98005,6,0,P|456:168|376:56,1,300,4|0,0:0|0:0,0:0:0:0:
240,56,99880,2,0,P|270:171|422:251,1,300,2|0,0:0|0:0,0:0:0:0:
272,248,101755,6,0,P|323:139|376:248,1,300,2|0,0:0|0:0,0:0:0:0:
236,248,103630,2,0,L|96:192,1,150,2|0,0:0|0:0,0:0:0:0:
276,140,104567,2,0,L|426:140,1,150.000005722046,2|0,0:0|0:0,0:0:0:0:
124,140,105505,6,0,P|88:208|112:272,1,150.000005722046,2|0,0:0|0:0,0:0:0:0:
292,272,106208,2,0,P|396:240|440:136,1,225.000008583069,4|0,0:0|0:0,0:0:0:0:
232,100,107380,6,0,P|292:64|376:68,1,150.000005722046,2|0,0:0|0:0,0:0:0:0:
188,192,108083,2,0,P|124:268|208:324,1,225.000008583069,4|0,0:0|0:0,0:0:0:0:
412,192,109255,6,0,L|336:192,1,75.0000028610231,2|0,0:0|0:0,0:0:0:0:
432,104,109723,2,0,L|352:104,1,75.0000028610231,0|0,0:0|0:0,0:0:0:0:
184,104,110192,2,0,P|112:136|92:204,1,150.000005722046,2|0,0:0|0:0,0:0:0:0:
280,200,110895,6,0,L|380:200,1,75.0000028610231,4|0,0:0|0:0,0:0:0:0:
168,300,111364,2,0,L|88:300,1,75.0000028610231,0|0,0:0|0:0,0:0:0:0:
288,300,111833,2,0,B|400:300|400:300|400:184,1,225.000008583069,2|0,0:0|0:0,0:0:0:0:
176,96,113005,6,0,P|216:172|276:192,1,150.000005722046,2|0,0:0|0:0,0:0:0:0:
104,192,113708,2,0,P|24:248|100:312,1,225.000008583069,4|0,0:0|0:0,0:0:0:0:
280,312,114645,6,0,P|376:276|428:168,1,225.000008583069,2|0,0:0|0:0,0:0:0:0:
256,168,115583,2,0,P|204:128|256:84,1,150.000005722046,4|0,0:0|0:0,0:0:0:0:
360,84,116286,2,0,L|344:160,1,75.0000028610231
96,84,116755,6,0,P|48:132|96:180,1,150.000005722046,2|0,0:0|0:0,0:0:0:0:
320,84,117458,2,0,P|408:112|452:232,1,225.000008583069,2|0,0:0|0:0,0:0:0:0:
264,228,118395,6,0,B|100:228|100:120|264:120|400:120|400:12|196:12,1,500,4|0,0:0|0:0,0:0:0:0:
56,12,119801,2,0,L|146:63,1,100,0|0,0:0|0:0,0:0:0:0:
444,12,120270,6,0,P|500:84|444:160,1,200
276,192,120973,1,0,0:0:0:0:
424,192,121442,1,2,0:0:0:0:
328,192,121676,1,0,0:0:0:0:
232,192,121911,1,0,0:0:0:0:
476,256,122145,6,0,P|504:176|440:72,1,200,2|0,0:0|0:0,0:0:0:0:
360,54,122848,1,0,0:0:0:0:
160,192,123317,1,2,0:0:0:0:
256,192,123551,1,0,0:0:0:0:
352,192,123786,1,0,0:0:0:0:
140,136,124020,6,0,P|108:256|148:316,1,200,2|0,0:0|0:0,0:0:0:0:
239,337,124723,1,0,0:0:0:0:
416,184,125192,1,2,0:0:0:0:
304,184,125426,1,0,0:0:0:0:
416,124,125661,1,0,0:0:0:0:
304,120,125895,1,0,0:0:0:0:
112,120,126130,6,0,L|160:216,1,100,2|0,0:0|0:0,0:0:0:0:
312,196,126598,1,0,0:0:0:0:
116,192,126833,5,0,0:0:0:0:
160,184,126950,1,0,0:0:0:0:
200,176,127067,1,2,0:0:0:0:
396,192,127301,1,0,0:0:0:0:
352,184,127418,1,0,0:0:0:0:
312,176,127536,1,2,0:0:0:0:
148,124,127770,1,0,0:0:0:0:
376,128,128005,5,2,0:0:0:0:
88,128,128473,1,0,0:0:0:0:
412,128,128942,1,4,0:0:0:0:
296,128,129176,1,0,0:0:0:0:
412,204,129411,1,0,0:0:0:0:
296,204,129645,1,0,0:0:0:0:
64,204,129880,5,2,0:0:0:0:
448,276,130348,1,0,0:0:0:0:
100,128,130817,1,4,0:0:0:0:
216,128,131051,1,0,0:0:0:0:
100,204,131286,1,0,0:0:0:0:
216,204,131520,1,0,0:0:0:0:
440,208,131755,5,2,0:0:0:0:
52,208,132223,1,0,0:0:0:0:
376,208,132692,2,0,L|276:208,1,100,4|0,0:0|0:0,0:0:0:0:
376,136,133161,2,0,L|476:136,1,100
140,136,133630,5,2,0:0:0:0:
440,136,134098,1,0,0:0:0:0:
288,136,134333,1,0,0:0:0:0:
316,160,134450,1,0,0:0:0:0:
344,184,134567,5,4,0:0:0:0:
440,192,134801,1,0,0:0:0:0:
280,192,135036,1,2,0:0:0:0:
440,244,135270,1,0,0:0:0:0:
104,256,135505,6,0,L|80:144,1,112.000001367188,2|0,0:0|0:0,0:0:0:0:
304,296,135973,2,0,L|328:184,1,112.000001367188,2|0,0:0|0:0,0:0:0:0:
104,136,136442,1,8,0:0:0:0:
440,216,136676,1,0,0:0:0:0:
272,248,136911,1,2,0:0:0:0:
496,152,137145,1,0,0:0:0:0:
272,296,137380,6,0,L|160:296,1,112.000001367188,2|0,0:0|0:0,0:0:0:0:
384,240,137848,2,0,L|496:240,1,112.000001367188,2|0,0:0|0:0,0:0:0:0:
160,160,138317,1,8,0:0:0:0:
328,120,138551,1,0,0:0:0:0:
104,224,138786,1,2,0:0:0:0:
440,168,139020,2,0,L|496:168,1,56.0000006835938,4|0,0:0|0:0,0:0:0:0:
272,344,139255,6,0,P|200:272|272:200,1,224.000002734375,2|2,0:0|0:0,0:0:0:0:
440,152,139958,1,0,0:0:0:0:
104,296,140192,2,0,L|128:184,1,112.000001367188,8|0,0:0|0:0,0:0:0:0:
352,288,140661,2,0,L|328:176,1,112.000001367188,2|0,0:0|0:0,0:0:0:0:
104,312,141130,6,0,P|32:240|104:168,1,224.000002734375,2|2,0:0|0:0,0:0:0:0:
328,168,141833,2,0,L|384:168,1,56.0000006835938,0|0,0:0|0:0,0:0:0:0:
184,144,142067,1,8,0:0:0:0:
40,120,142301,6,0,L|96:120,1,56.0000006835938,0|0,0:0|0:0,0:0:0:0:
304,96,142536,1,2,0:0:0:0:
448,72,142770,2,0,L|392:72,1,56.0000006835938,0|0,0:0|0:0,0:0:0:0:
184,144,143005,6,0,L|72:144,1,112.000001367188,2|0,0:0|0:0,0:0:0:0:
240,96,143473,1,2,0:0:0:0:
72,80,143708,1,0,0:0:0:0:
408,144,143942,1,8,0:0:0:0:
240,176,144176,1,0,0:0:0:0:
464,208,144411,1,2,0:0:0:0:
128,256,144645,1,0,0:0:0:0:
296,272,144880,6,0,L|272:160,1,112.000001367188,2|0,0:0|0:0,0:0:0:0:
48,232,145348,2,0,L|72:120,1,112.000001367188,2|0,0:0|0:0,0:0:0:0:
408,104,145817,1,8,0:0:0:0:
296,112,146051,1,0,0:0:0:0:
184,120,146286,1,2,0:0:0:0:
408,216,146520,2,0,L|464:216,1,56.0000006835938,0|0,0:0|0:0,0:0:0:0:
240,312,146755,6,0,L|352:312,1,112.000001367188,2|0,0:0|0:0,0:0:0:0:
136,216,147223,2,0,L|24:216,1,112.000001367188,2|0,0:0|0:0,0:0:0:0:
324,160,147692,1,8,0:0:0:0:
464,160,147926,1,0,0:0:0:0:
140,160,148161,1,2,0:0:0:0:
324,160,148395,1,0,0:0:0:0:
128,248,148630,6,0,L|136:136,1,112.000001367188,2|0,0:0|0:0,0:0:0:0:
280,336,149098,2,0,L|272:224,1,112.000001367188,2|0,0:0|0:0,0:0:0:0:
216,208,149450,1,0,0:0:0:0:
160,192,149567,1,2,0:0:0:0:
384,144,149801,2,0,L|448:144,2,56.0000006835938,0|0|2,0:0|0:0|0:0,0:0:0:0:
160,104,150270,2,0,L|96:104,1,56.0000006835938,0|0,0:0|0:0,0:0:0:0:
328,248,150505,5,4,0:0:0:0:
232,248,150973,1,0,0:0:0:0:
136,248,151442,1,2,0:0:0:0:
232,136,151676,1,0,0:0:0:0:
136,136,151911,1,0,0:0:0:0:
288,56,152380,5,2,0:0:0:0:
232,56,152497,1,0,0:0:0:0:
176,56,152614,1,0,0:0:0:0:
336,144,152848,1,2,0:0:0:0:
280,144,152965,1,0,0:0:0:0:
224,144,153082,1,0,0:0:0:0:
392,232,153317,5,4,0:0:0:0:
208,232,153551,1,2,0:0:0:0:
448,328,153786,1,2,0:0:0:0:
352,328,154020,1,0,0:0:0:0:
36,136,154255,5,8,0:0:0:0:
140,136,154723,1,8,0:0:0:0:
284,136,155192,1,8,0:0:0:0:
488,136,155661,1,8,0:0:0:0:
320,248,156130,5,8,0:0:0:0:
160,248,156598,1,8,0:0:0:0:
408,248,157067,1,8,0:0:0:0:
72,248,157536,1,8,0:0:0:0:
296,144,158005,6,0,L|336:80,1,56.0000006835938,8|0,0:0|0:0,0:0:0:0:
232,200,158239,2,0,L|192:136,1,56.0000006835938,2|0,0:0|0:0,0:0:0:0:
280,280,158473,2,0,L|320:216,1,56.0000006835938,2|0,0:0|0:0,0:0:0:0:
208,320,158708,2,0,L|168:256,1,56.0000006835938,2|0,0:0|0:0,0:0:0:0:
328,96,158942,6,0,L|408:96,1,56.0000006835938,8|0,0:0|0:0,0:0:0:0:
232,200,159176,2,0,L|168:200,1,56.0000006835938,2|0,0:0|0:0,0:0:0:0:
384,96,159411,2,0,L|464:96,1,56.0000006835938,8|0,0:0|0:0,0:0:0:0:
176,200,159645,2,0,L|112:200,1,56.0000006835938,2|0,0:0|0:0,0:0:0:0:
112,216,161286,6,0,P|56:176|136:120,1,168.000002050781,8|0,0:0|0:0,0:0:0:0:
336,112,161755,5,2,0:0:0:0:
176,160,162223,1,8,0:0:0:0:
416,160,162692,1,4,0:0:0:0:
224,104,162926,1,0,0:0:0:0:
32,160,163161,1,8,0:0:0:0:
264,200,163630,5,2,0:0:0:0:
314,200,163747,1,0,0:0:0:0:
364,200,163864,1,0,0:0:0:0:
128,128,164098,1,8,0:0:0:0:
178,128,164215,1,0,0:0:0:0:
228,128,164332,1,0,0:0:0:0:
408,224,164567,5,2,0:0:0:0:
240,280,164801,1,0,0:0:0:0:
464,256,165036,2,0,P|384:216|336:208,1,100,8|0,0:0|0:0,0:0:0:0:
32,288,165505,5,2,0:0:0:0:
288,256,165973,1,8,0:0:0:0:
72,200,166442,1,4,0:0:0:0:
256,176,166676,1,0,0:0:0:0:
48,168,166911,1,8,0:0:0:0:
320,136,167380,5,2,0:0:0:0:
424,208,167536,2,0,P|440:240|448:304,1,66.6666666666667,0|0,0:0|0:0,0:0:0:0:
192,208,167848,5,2,0:0:0:0:
88,288,168005,2,0,P|72:320|64:384,1,66.6666666666667,0|0,0:0|0:0,0:0:0:0:
320,136,168317,5,2,0:0:0:0:
424,208,168473,2,0,P|440:240|448:304,1,66.6666666666667,2|2,0:0|0:0,0:0:0:0:
112,160,168786,5,8,0:0:0:0:
288,112,169255,5,2,0:0:0:0:
80,72,169723,1,8,0:0:0:0:
288,208,170192,1,4,0:0:0:0:
480,112,170426,1,0,0:0:0:0:
256,184,170661,1,8,0:0:0:0:
80,128,171130,5,2,0:0:0:0:
130,128,171247,1,0,0:0:0:0:
180,128,171364,1,0,0:0:0:0:
360,72,171598,1,8,0:0:0:0:
310,72,171715,1,0,0:0:0:0:
260,72,171832,1,0,0:0:0:0:
464,152,172067,5,2,0:0:0:0:
272,232,172301,1,0,0:0:0:0:
64,200,172536,2,0,L|192:200,1,100,8|0,0:0|0:0,0:0:0:0:
496,136,173005,5,2,0:0:0:0:
264,80,173473,1,8,0:0:0:0:
40,192,173942,1,4,0:0:0:0:
232,240,174176,1,0,0:0:0:0:
448,304,174411,2,0,L|336:304,1,100,8|0,0:0|0:0,0:0:0:0:
144,328,174880,5,2,0:0:0:0:
368,328,175348,1,2,0:0:0:0:
212,200,175817,2,0,L|196:128,1,50,4|0,0:0|0:0,0:0:0:0:
300,200,176051,2,0,L|310:151,1,50
160,296,176286,1,0,0:0:0:0:
352,296,176520,1,0,0:0:0:0:
40,296,176755,6,0,P|8:240|64:192,1,150,2|2,0:0|0:0,0:0:0:0:
264,192,177223,2,0,L|368:192,1,100,8|0,0:0|0:0,0:0:0:0:
44,88,177692,1,4,0:0:0:0:
164,88,177926,2,0,L|228:88,1,50,0|2,0:0|0:0,0:0:0:0:
292,88,178161,1,8,0:0:0:0:
132,88,178395,1,0,0:0:0:0:
436,88,178630,6,0,L|496:88,2,50,2|0|0,0:0|0:0|0:0,0:0:0:0:
384,88,178981,1,0,0:0:0:0:
192,192,179098,2,0,L|132:192,2,50,8|0|0,0:0|0:0|0:0,0:0:0:0:
392,304,179567,6,0,L|276:304,1,100,2|0,0:0|0:0,0:0:0:0:
232,304,179919,1,0,0:0:0:0:
292,304,180036,1,8,0:0:0:0:
92,304,180270,1,0,0:0:0:0:
412,304,180505,6,0,P|476:264|480:192,1,150,2|2,0:0|0:0,0:0:0:0:
300,192,180973,2,0,L|404:192,1,100,8|0,0:0|0:0,0:0:0:0:
60,96,181442,1,4,0:0:0:0:
180,96,181676,2,0,L|128:96,1,50,0|2,0:0|0:0,0:0:0:0:
52,96,181911,1,8,0:0:0:0:
172,96,182145,1,0,0:0:0:0:
492,88,182380,5,2,0:0:0:0:
468,157,182497,1,0,0:0:0:0:
404,192,182614,1,0,0:0:0:0:
468,192,182731,1,0,0:0:0:0:
268,192,182848,1,2,0:0:0:0:
193,192,182965,1,0,0:0:0:0:
118,192,183082,1,0,0:0:0:0:
440,292,183317,6,0,L|336:292,1,100,2|0,0:0|0:0,0:0:0:0:
280,292,183669,1,0,0:0:0:0:
344,192,183786,2,0,L|408:192,1,50,8|2,0:0|0:0,0:0:0:0:
472,192,184020,1,2,0:0:0:0:
152,192,184255,6,0,B|76:192|76:192|20:244,1,150,2|2,0:0|0:0,0:0:0:0:
208,276,184723,2,0,L|100:276,1,100,8|0,0:0|0:0,0:0:0:0:
456,276,185192,1,4,0:0:0:0:
336,276,185426,2,0,L|272:276,1,50,0|2,0:0|0:0,0:0:0:0:
208,276,185661,1,8,0:0:0:0:
368,276,185895,1,0,0:0:0:0:
48,192,186130,5,2,0:0:0:0:
116,192,186247,1,0,0:0:0:0:
184,192,186364,1,0,0:0:0:0:
116,192,186481,1,0,0:0:0:0:
308,192,186598,1,8,0:0:0:0:
376,192,186715,1,0,0:0:0:0:
444,192,186833,1,0,0:0:0:0:
124,64,187067,6,0,L|24:64,1,100,2|0,0:0|0:0,0:0:0:0:
92,64,187419,1,0,0:0:0:0:
204,64,187536,2,0,L|220:116,1,50,8|0,0:0|0:0,0:0:0:0:
108,148,187770,2,0,L|80:192,1,50,0|0,0:0|0:0,0:0:0:0:
284,192,188005,5,2,0:0:0:0:
321,245,188122,1,2,0:0:0:0:
310,309,188239,1,2,0:0:0:0:
257,347,188356,1,2,0:0:0:0:
132,348,188473,1,8,0:0:0:0:
116,284,188590,1,0,0:0:0:0:
142,224,188707,1,0,0:0:0:0:
199,192,188824,1,0,0:0:0:0:
324,192,188942,5,4,0:0:0:0:
333,127,189059,1,0,0:0:0:0:
299,71,189176,1,0,0:0:0:0:
237,51,189293,1,0,0:0:0:0:
112,52,189411,1,8,0:0:0:0:
59,88,189528,1,2,0:0:0:0:
57,152,189645,1,2,0:0:0:0:
108,191,189762,1,2,0:0:0:0:
312,192,189880,5,2,0:0:0:0:
372,192,189997,1,0,0:0:0:0:
432,192,190114,1,0,0:0:0:0:
252,88,190348,1,2,0:0:0:0:
204,88,190465,1,0,0:0:0:0:
152,88,190583,1,0,0:0:0:0:
312,192,190817,6,0,L|308:260,1,50,2|0,0:0|0:0,0:0:0:0:
228,240,191051,2,0,L|236:308,1,50,0|0,0:0|0:0,0:0:0:0:
348,328,191286,2,0,L|416:328,2,50,2|0|0,0:0|0:0|0:0,0:0:0:0:
