osu file format v14

[General]
AudioFilename: audio.mp3
AudioLeadIn: 0
PreviewTime: 127884
Countdown: 1
SampleSet: Soft
StackLeniency: 0
Mode: 0
LetterboxInBreaks: 0
WidescreenStoryboard: 1

[Editor]
DistanceSpacing: 1
BeatDivisor: 4
GridSize: 4
TimelineZoom: 1

[Metadata]
Title:Bigroom Never Dies
TitleUnicode:Bigroom Never Dies
Artist:Hardwell & Blasterjaxx feat. Mitch Crown
ArtistUnicode:Hardwell & Blasterjaxx feat. Mitch Crown
Creator:PrivatHansi1
Version:New and Big
Source:
Tags:
BeatmapID:1865430
BeatmapSetID:892391

[Difficulty]
HPDrainRate:7.1
CircleSize:4
OverallDifficulty:7.4
ApproachRate:9.7
SliderMultiplier:2
SliderTickRate:2

[Events]
//Background and Video events
0,0,"thumb-1920-382904.jpg",0,0
//Break Periods
2,62343,78958
2,110112,112535
//Storyboard Layer 0 (Background)
//Storyboard Layer 1 (Fail)
//Storyboard Layer 2 (Pass)
//Storyboard Layer 3 (Foreground)
//Storyboard Layer 4 (Overlay)
//Storyboard Sound Samples

[TimingPoints]
500,461.538461538462,4,2,0,50,1,0
31884,-66.6666666666667,4,2,0,50,0,1
46653,-50,4,2,0,50,0,1
61423,-50,4,2,0,50,0,0
79884,-100,4,2,0,50,0,0
94653,-66.6666666666667,4,2,0,50,0,0
113115,-100,4,2,0,50,0,0
120500,-80,4,2,0,50,0,0
122346,-66.6666666666667,4,2,0,50,0,0
123269,-50,4,2,0,50,0,0
124192,-100,4,2,0,50,0,0
127884,-40,4,2,0,50,0,1
140807,-100,4,2,0,50,0,0
141269,-66.6666666666667,4,2,0,50,0,0
141730,-50,4,2,0,50,0,0
142192,-40,4,2,0,50,0,0
142653,-33.3333333333333,4,2,0,50,0,1
157423,-100,4,2,0,25,0,0

[Colours]
Combo1 : 0,128,192
Combo2 : 255,0,0
Combo3 : 192,192,192
Combo4 : 255,128,0
Combo5 : 89,255,255
Combo6 : 255,255,0

[HitObjects]
120,104,2346,5,0,0:0:0:0:
220,88,2576,1,0,0:0:0:0:
308,268,2807,1,0,0:0:0:0:
408,284,3038,1,0,0:0:0:0:
468,204,3269,2,0,P|420:184|396:144,1,100
352,56,3730,2,0,P|360:112|340:148,1,100
260,88,4192,1,0,0:0:0:0:
168,128,4423,5,0,0:0:0:0:
74,91,4653,2,0,P|124:80|172:100,1,100
116,180,5115,2,0,P|112:248|128:280,1,100
208,220,5576,1,0,0:0:0:0:
308,204,5807,1,0,0:0:0:0:
408,32,6269,1,0,0:0:0:0:
308,48,6500,1,0,0:0:0:0:
248,131,6730,1,0,0:0:0:0:
264,232,6961,2,0,L|368:244,1,100
408,336,7423,6,0,L|304:324,1,100
164,268,7884,1,0,0:0:0:0:
120,180,8115,1,0,0:0:0:0:
80,88,8346,2,0,B|140:72|176:100,1,100
152,368,8807,2,0,B|136:308|164:272,1,100
340,196,9269,1,0,0:0:0:0:
436,172,9500,1,0,0:0:0:0:
76,212,9730,1,0,0:0:0:0:
172,188,10192,5,0,0:0:0:0:
268,164,10423,1,0,0:0:0:0:
364,140,10653,2,0,P|380:88|368:40,1,100
280,88,11115,2,0,L|168:56,1,100
116,132,11576,2,0,P|132:192|120:232,1,100
244,356,12038,1,0,0:0:0:0:
52,300,12269,1,0,0:0:0:0:
244,356,12500,2,0,P|292:316|424:332,1,200
52,300,13192,1,0,0:0:0:0:
244,236,13423,6,0,P|268:180|260:144,1,100
196,68,13884,2,0,P|252:44|288:52,1,100
384,24,14346,2,0,P|380:124|440:200,1,200
276,324,15269,1,0,0:0:0:0:
170,141,15500,1,0,0:0:0:0:
315,179,15730,1,0,0:0:0:0:
132,286,15961,1,0,0:0:0:0:
48,232,16192,2,0,B|56:176|56:176|36:132,1,100
108,64,16653,2,0,L|200:108,1,100
276,40,17115,5,0,0:0:0:0:
220,232,17346,1,8,0:0:0:0:
180,103,17576,1,0,0:0:0:0:
315,168,17807,1,8,0:0:0:0:
315,168,18038,2,0,L|416:152,1,100
380,248,18500,2,0,P|376:308|352:340,1,100
280,268,18961,5,0,0:0:0:0:
128,140,19192,1,8,0:0:0:0:
165,267,19423,1,0,0:0:0:0:
242,140,19653,1,8,0:0:0:0:
242,140,19884,2,0,P|292:104|328:96,1,100
323,196,20346,2,0,P|373:201|416:225,1,100
236,344,20807,5,0,0:0:0:0:
292,152,21038,1,8,0:0:0:0:
331,280,21269,1,0,0:0:0:0:
196,215,21500,1,8,0:0:0:0:
196,215,21730,2,0,L|96:232,1,100,0|8,0:0|0:0,0:0:0:0:
132,136,22192,2,0,P|136:76|160:44,1,100,0|8,0:0|0:0,0:0:0:0:
232,116,22653,5,0,0:0:0:0:
384,244,22884,1,8,0:0:0:0:
346,116,23115,1,0,0:0:0:0:
269,243,23346,1,8,0:0:0:0:
269,243,23576,2,0,P|220:280|184:288,1,100,0|8,0:0|0:0,0:0:0:0:
188,187,24038,2,0,P|138:182|95:158,1,100,0|8,0:0|0:0,0:0:0:0:
172,96,24500,6,0,P|176:68|172:40,3,50,0|0|8|0,0:0|0:0|0:0|0:0,0:0:0:0:
264,64,24961,2,0,P|287:47|304:25,3,50,0|0|8|0,0:0|0:0|0:0|0:0,0:0:0:0:
312,228,25423,2,0,L|331:276,3,50,0|0|8|0,0:0|0:0|0:0|0:0,0:0:0:0:
68,208,25884,2,0,L|76:156,3,50,0|0|8|0,0:0|0:0|0:0|0:0,0:0:0:0:
199,156,26346,6,0,L|180:108,3,50,0|0|8|0,0:0|0:0|0:0|0:0,0:0:0:0:
292,184,26807,1,0,0:0:0:0:
291,135,26923,1,0,0:0:0:0:
325,99,27038,1,8,0:0:0:0:
372,83,27153,1,0,0:0:0:0:
421,91,27269,1,8,0:0:0:0:
462,119,27384,1,8,0:0:0:0:
485,162,27500,5,8,0:0:0:0:
487,212,27615,1,8,0:0:0:0:
466,257,27730,2,0,P|440:276|420:284,1,50,8|8,0:0|0:0,0:0:0:0:
396,188,27961,2,0,P|364:192|344:201,1,50,8|8,0:0|0:0,0:0:0:0:
272,268,28192,1,8,0:0:0:0:
256,192,28653,12,4,31423,0:0:0:0:
244,15,31884,6,0,P|210:81|144:111,1,150.000005722046,4|0,0:0|0:0,0:0:0:0:
267,368,32346,2,0,P|301:302|368:272,1,150.000005722046,4|0,0:0|0:0,0:0:0:0:
80,312,32807,1,0,0:0:0:0:
432,72,33038,1,4,0:0:0:0:
84,216,33269,2,0,P|169:150|168:41,1,225.000008583069
24,24,33730,1,4,0:0:0:0:
320,64,33961,1,0,0:0:0:0:
148,304,34192,1,0,0:0:0:0:
459,59,34423,5,0,0:0:0:0:
380,316,34653,2,0,P|324:260|252:248,1,150.000005722046,0|4,0:0|0:0,0:0:0:0:
164,128,35115,2,0,P|232:136|264:72,2,150.000005722046,0|0|4,0:0|0:0|0:0,0:0:0:0:
448,159,35807,2,0,B|372:116|384:36,1,150.000005722046
344,176,36269,1,0,0:0:0:0:
145,248,36500,1,0,0:0:0:0:
281,312,36730,1,0,0:0:0:0:
209,113,36961,2,0,P|224:176|140:300,1,225.000008583069
76,260,37423,1,4,0:0:0:0:
364,340,37653,1,0,0:0:0:0:
76,124,37884,5,0,0:0:0:0:
364,44,38115,1,0,0:0:0:0:
284,373,38346,1,0,0:0:0:0:
381,110,38576,1,4,0:0:0:0:
425,333,38807,1,4,0:0:0:0:
468,216,39038,1,4,0:0:0:0:
235,287,39269,2,0,P|127:264|28:312,1,225.000008583069,4|0,0:0|0:0,0:0:0:0:
304,256,39730,5,0,0:0:0:0:
376,124,39961,2,0,P|404:101|421:61,2,75.0000028610231
244,48,40423,1,4,0:0:0:0:
96,28,40653,2,0,B|120:104|120:104|108:176,1,150.000005722046
236,76,41115,1,4,0:0:0:0:
416,356,41346,2,0,B|439:247|439:247|467:216,2,150.000005722046
268,332,42038,1,0,0:0:0:0:
246,301,42153,1,0,0:0:0:0:
214,282,42269,1,4,0:0:0:0:
177,276,42384,5,0,0:0:0:0:
142,287,42500,1,0,0:0:0:0:
105,291,42615,1,0,0:0:0:0:
70,280,42730,1,0,0:0:0:0:
43,253,42846,1,0,0:0:0:0:
32,218,42961,2,0,B|16:128|16:128|36:72,1,150.000005722046,4|0,0:0|0:0,0:0:0:0:
168,148,43423,1,0,0:0:0:0:
420,76,43653,1,0,0:0:0:0:
272,52,43884,1,0,0:0:0:0:
472,276,44115,5,4,0:0:0:0:
104,344,44346,1,0,0:0:0:0:
480,96,44576,1,0,0:0:0:0:
480,96,44807,1,4,0:0:0:0:
410,123,45038,1,0,0:0:0:0:
337,114,45269,1,0,0:0:0:0:
276,71,45500,1,0,0:0:0:0:
244,4,45730,2,0,L|264:156,1,150.000005722046,4|0,0:0|0:0,0:0:0:0:
267,379,46192,2,0,P|252:304|132:232,1,225.000008583069,4|4,0:0|0:0,0:0:0:0:
56,72,46653,5,4,0:0:0:0:
504,303,46884,1,0,0:0:0:0:
400,88,47115,2,0,L|200:60,1,200
412,136,47576,1,0,0:0:0:0:
184,104,47807,2,0,P|176:224|228:280,1,200,4|0,0:0|0:0,0:0:0:0:
274,286,48153,1,0,0:0:0:0:
322,274,48269,1,0,0:0:0:0:
362,244,48384,1,0,0:0:0:0:
387,202,48500,2,0,P|384:116|288:112,1,200,4|0,0:0|0:0,0:0:0:0:
480,44,48961,5,0,0:0:0:0:
114,84,49192,1,0,0:0:0:0:
442,160,49423,1,4,0:0:0:0:
50,275,49653,1,0,0:0:0:0:
416,359,49884,1,0,0:0:0:0:
144,52,50115,2,0,P|161:115|108:240,1,200,0|4,0:0|0:0,0:0:0:0:
56,328,50576,5,0,0:0:0:0:
464,252,50807,2,0,L|264:228,1,200
295,10,51269,2,0,L|137:135,1,200,0|4,0:0|0:0,0:0:0:0:
16,32,51730,2,0,P|56:140|20:316,1,300
116,340,52192,1,4,0:0:0:0:
161,318,52307,1,0,0:0:0:0:
206,297,52423,2,0,P|257:296|305:316,1,100
393,360,52653,2,0,P|353:260|405:184,1,200
295,51,53115,6,0,P|382:95|476:67,1,200,0|4,0:0|0:0,0:0:0:0:
232,240,53576,1,0,0:0:0:0:
243,191,53692,1,0,0:0:0:0:
254,142,53807,1,0,0:0:0:0:
214,146,53923,1,0,0:0:0:0:
165,158,54038,2,0,P|100:144|36:36,1,200,4|0,0:0|0:0,0:0:0:0:
475,347,54500,2,0,P|437:258|346:225,1,200
280,304,54961,1,0,0:0:0:0:
384,132,55192,1,4,0:0:0:0:
32,320,55423,6,0,B|76:224|76:224|28:36,1,300
136,72,55884,1,4,0:0:0:0:
332,28,56115,1,0,0:0:0:0:
272,252,56346,1,0,0:0:0:0:
380,83,56576,1,0,0:0:0:0:
88,148,56807,2,0,B|128:256|128:256|108:340,1,200,0|4,0:0|0:0,0:0:0:0:
304,296,57269,2,0,B|352:191|352:191|425:146,2,200,0|0|4,0:0|0:0|0:0,0:0:0:0:
112,244,57961,5,0,0:0:0:0:
357,102,58192,1,0,0:0:0:0:
164,50,58423,1,0,0:0:0:0:
306,295,58653,1,0,0:0:0:0:
293,9,58884,1,4,0:0:0:0:
174,338,59115,1,0,0:0:0:0:
256,192,59346,12,0,61423,0:0:0:0:
425,274,79884,6,0,P|376:248|352:212,1,100,2|0,0:0|0:0,0:0:0:0:
368,112,80346,2,0,P|348:176|320:196,1,100,2|0,0:0|0:0,0:0:0:0:
272,108,80807,2,0,L|256:60,3,50,2|2|2|2,0:0|0:0|0:0|0:0,0:0:0:0:
288,20,81269,1,2,0:0:0:0:
192,52,81500,1,2,0:0:0:0:
288,364,81961,1,0,0:0:0:0:
192,332,82192,1,2,0:0:0:0:
96,300,82423,1,0,0:0:0:0:
96,300,82538,1,0,0:0:0:0:
96,300,82653,6,0,L|80:252,3,50,2|2|2|2,0:0|0:0|0:0|0:0,0:0:0:0:
112,212,83115,1,2,0:0:0:0:
52,132,83346,1,2,0:0:0:0:
244,80,83576,2,0,P|344:84|408:16,1,200,2|2,0:0|0:0,0:0:0:0:
472,92,84269,1,0,0:0:0:0:
416,176,84500,1,2,0:0:0:0:
427,198,84615,1,2,0:0:0:0:
438,220,84730,1,2,0:0:0:0:
434,244,84846,1,2,0:0:0:0:
427,268,84961,1,2,0:0:0:0:
340,312,85192,5,2,0:0:0:0:
340,112,85653,2,0,L|232:92,1,100
156,144,86115,1,2,0:0:0:0:
165,167,86230,1,2,0:0:0:0:
175,190,86346,2,0,L|160:244,1,50,2|2,0:0|0:0,0:0:0:0:
260,216,86576,2,0,P|320:200|320:200,1,50,2|2,0:0|0:0,0:0:0:0:
356,212,86807,2,0,L|372:100,1,100,2|2,0:0|0:0,0:0:0:0:
460,68,87269,1,2,0:0:0:0:
264,24,87730,1,2,0:0:0:0:
264,24,87961,6,0,L|288:68,1,50
192,92,88192,1,2,0:0:0:0:
142,90,88307,1,2,0:0:0:0:
102,118,88423,1,2,0:0:0:0:
87,164,88538,1,2,0:0:0:0:
103,211,88653,2,0,L|200:240,1,100,2|2,0:0|0:0,0:0:0:0:
400,220,89346,1,0,0:0:0:0:
199,239,89576,1,2,0:0:0:0:
272,172,89807,1,0,0:0:0:0:
279,148,89923,5,0,0:0:0:0:
286,124,90038,1,2,0:0:0:0:
274,104,90153,1,2,0:0:0:0:
257,85,90269,2,0,L|208:92,2,50,2|2|2,0:0|0:0|0:0,0:0:0:0:
348,40,90730,1,2,0:0:0:0:
148,24,90961,2,0,L|176:120,1,100
451,149,91423,2,0,L|363:197,1,100
298,387,91884,2,0,L|250:299,1,100
60,149,92346,2,0,L|148:197,1,100
214,0,92807,6,0,L|262:84,1,100
364,360,93269,2,0,P|351:308|356:260,1,100
205,16,93730,2,0,P|297:124|236:252,1,300
116,60,94653,2,0,P|192:92|304:20,1,225.000008583069,2|0,0:0|0:0,0:0:0:0:
356,76,95115,2,0,P|384:156|444:188,1,150.000005722046,2|0,0:0|0:0,0:0:0:0:
328,288,95576,1,2,0:0:0:0:
291,280,95692,5,2,0:0:0:0:
254,273,95807,1,2,0:0:0:0:
217,265,95923,1,2,0:0:0:0:
182,274,96038,2,0,L|168:352,1,75.0000028610231,2|0,0:0|0:0,0:0:0:0:
176,200,96269,2,0,L|148:130,1,75.0000028610231,2|0,0:0|0:0,0:0:0:0:
364,72,96730,2,0,L|336:220,1,150.000005722046,2|2,0:0|0:0,0:0:0:0:
424,340,97192,2,0,L|344:264,1,75.0000028610231,2|2,0:0|0:0,0:0:0:0:
300,320,97423,2,0,P|368:200|352:192,1,225.000008583069,2|2,0:0|0:0,0:0:0:0:
300,136,97884,1,2,0:0:0:0:
184,40,98115,5,2,0:0:0:0:
80,148,98346,2,0,L|304:116,1,225.000008583069,2|0,0:0|0:0,0:0:0:0:
352,60,98807,2,0,L|312:204,1,150.000005722046,2|0,0:0|0:0,0:0:0:0:
420,308,99269,1,2,0:0:0:0:
355,270,99384,1,2,0:0:0:0:
281,269,99500,1,2,0:0:0:0:
216,304,99615,1,2,0:0:0:0:
176,367,99730,2,0,B|176:292|176:292|144:220,1,150.000005722046,2|2,0:0|0:0,0:0:0:0:
388,48,100423,1,0,0:0:0:0:
240,40,100653,6,0,P|248:124|220:180,1,150.000005722046,2|2,0:0|0:0,0:0:0:0:
195,209,101000,1,0,0:0:0:0:
184,245,101115,1,2,0:0:0:0:
187,282,101230,1,2,0:0:0:0:
204,315,101346,1,2,0:0:0:0:
232,339,101461,1,2,0:0:0:0:
267,351,101576,2,0,P|344:348|408:384,2,150.000005722046,2|2|2,0:0|0:0|0:0,0:0:0:0:
104,100,102500,6,0,L|324:44,1,225.000008583069,2|0,0:0|0:0,0:0:0:0:
384,88,102961,2,0,B|364:160|364:160|396:232,1,150.000005722046,2|2,0:0|0:0,0:0:0:0:
430,240,103307,1,2,0:0:0:0:
466,251,103423,1,2,0:0:0:0:
184,352,103653,1,2,0:0:0:0:
55,195,104115,1,0,0:0:0:0:
67,123,104230,1,0,0:0:0:0:
120,72,104345,1,0,0:0:0:0:
194,66,104461,1,0,0:0:0:0:
256,106,104576,6,0,P|360:112|388:84,1,150.000005722046,0|2,0:0|0:0,0:0:0:0:
480,156,104923,1,2,0:0:0:0:
480,156,105038,1,2,0:0:0:0:
480,156,105153,1,2,0:0:0:0:
480,156,105269,2,0,L|320:136,1,150.000005722046,2|2,0:0|0:0,0:0:0:0:
192,192,105730,2,0,P|216:264|120:360,1,225.000008583069,2|0,0:0|0:0,0:0:0:0:
56,320,106192,1,2,0:0:0:0:
348,248,106423,5,2,0:0:0:0:
325,218,106538,1,2,0:0:0:0:
315,182,106653,1,2,0:0:0:0:
320,145,106769,1,2,0:0:0:0:
339,112,106884,2,0,L|484:72,1,150.000005722046,2|2,0:0|0:0,0:0:0:0:
492,228,107346,1,2,0:0:0:0:
36,24,107807,1,2,0:0:0:0:
36,24,108038,5,2,0:0:0:0:
148,124,108269,1,2,0:0:0:0:
75,143,108384,1,2,0:0:0:0:
36,288,108615,1,2,0:0:0:0:
36,288,108846,1,0,0:0:0:0:
103,319,108961,1,2,0:0:0:0:
248,272,109192,2,0,B|268:224|268:224|252:124,1,150.000005722046,0|2,0:0|0:0,0:0:0:0:
161,258,113115,5,0,0:0:0:0:
245,76,113576,1,0,0:0:0:0:
360,240,114038,1,0,0:0:0:0:
128,232,114269,1,0,0:0:0:0:
128,232,114500,6,0,B|212:308|312:264,1,200
412,260,115192,1,0,0:0:0:0:
380,164,115423,1,0,0:0:0:0:
425,73,115653,1,0,0:0:0:0:
224,88,115884,1,0,0:0:0:0:
343,344,116115,5,0,0:0:0:0:
412,156,116346,2,0,P|360:140|324:112,1,100
155,276,116807,1,0,0:0:0:0:
408,56,117038,1,0,0:0:0:0:
332,228,117269,2,0,P|332:288|316:328,2,100
236,264,117961,1,0,0:0:0:0:
192,172,118192,2,0,B|184:64|284:8,1,200
376,44,118884,5,0,0:0:0:0:
76,12,119115,1,0,0:0:0:0:
325,35,119346,1,0,0:0:0:0:
57,77,119576,1,0,0:0:0:0:
348,302,119807,1,0,0:0:0:0:
305,56,120038,1,0,0:0:0:0:
113,217,120269,1,0,0:0:0:0:
77,192,120500,6,0,L|92:320,1,125,0|8,0:0|0:0,0:0:0:0:
216,316,120961,2,0,P|256:284|328:272,1,125,0|8,0:0|0:0,0:0:0:0:
420,184,121423,1,0,0:0:0:0:
362,159,121653,1,8,0:0:0:0:
305,134,121884,1,0,0:0:0:0:
247,109,122115,1,8,0:0:0:0:
190,85,122346,6,0,P|164:40|160:16,1,75.0000028610231,8|0,0:0|0:0,0:0:0:0:
149,257,122576,2,0,P|104:284|80:288,1,75.0000028610231,8|0,0:0|0:0,0:0:0:0:
321,298,122807,2,0,P|348:344|352:368,1,75.0000028610231,8|0,0:0|0:0,0:0:0:0:
362,126,123038,2,0,P|408:100|432:96,1,75.0000028610231,8|0,0:0|0:0,0:0:0:0:
432,196,123269,5,8,0:0:0:0:
433,245,123384,1,8,0:0:0:0:
435,295,123500,1,8,0:0:0:0:
401,280,123615,1,8,0:0:0:0:
359,253,123730,2,0,L|260:272,1,100
140,221,123961,2,0,L|196:138,1,100
287,372,124192,6,0,L|192:332,1,100,14|2,0:0|0:0,0:0:0:0:
106,87,124653,2,0,L|202:47,1,100,2|2,0:0|0:0,0:0:0:0:
276,112,125115,2,0,P|336:108|372:32,1,150,2|0,0:0|0:0,0:0:0:0:
208,320,125576,1,2,0:0:0:0:
301,44,125807,2,0,P|253:28|205:52,2,100,2|2|2,0:0|0:0|0:0,0:0:0:0:
269,200,126500,2,0,L|257:101,1,100,2|2,0:0|0:0,0:0:0:0:
83,124,126961,2,0,P|130:108|159:69,1,100,2|10,0:0|0:0,0:0:0:0:
84,48,127423,1,8,0:0:0:0:
428,340,127653,1,8,0:0:0:0:
212,316,127884,6,0,P|316:220|228:32,1,375,4|0,0:0|0:0,0:0:0:0:
69,12,128346,2,0,B|172:68|336:8|336:8|288:36|267:79,1,375
387,108,128807,2,0,P|323:209|375:317,2,250,0|0|2,0:0|0:0|0:0,0:0:0:0:
341,148,129384,1,2,0:0:0:0:
281,162,129500,1,2,0:0:0:0:
221,145,129615,1,2,0:0:0:0:
177,102,129730,2,0,L|432:72,1,250,6|0,0:0|0:0,0:0:0:0:
368,316,130192,2,0,L|120:280,1,250
264,166,130653,5,2,0:0:0:0:
268,197,130768,1,2,0:0:0:0:
272,228,130883,1,2,0:0:0:0:
276,259,130999,1,2,0:0:0:0:
280,291,131115,2,4,P|148:280|104:372,2,250,6|4|0,0:0|0:0|0:0,0:0:0:0:
428,88,131807,1,2,0:0:0:0:
443,148,131923,1,2,0:0:0:0:
459,209,132038,2,0,P|408:296|272:288,1,250,2|0,0:0|0:0,0:0:0:0:
123,35,132500,2,0,P|220:104|203:222,1,250,2|2,0:0|0:0,0:0:0:0:
397,280,132961,6,0,P|241:194|248:16,1,375,2|0,0:0|0:0,0:0:0:0:
500,208,133423,1,4,0:0:0:0:
28,288,133653,2,0,P|127:354|248:326,2,250
439,106,134346,2,0,P|316:125|304:236,1,250
204,28,134807,1,6,0:0:0:0:
392,192,135038,1,4,0:0:0:0:
211,331,135269,2,0,P|70:222|104:48,1,375,6|2,0:0|0:0,0:0:0:0:
284,232,135730,2,0,P|144:256|80:176,1,250,2|2,0:0|0:0,0:0:0:0:
320,104,136192,5,2,0:0:0:0:
84,28,136423,1,0,0:0:0:0:
224,236,136653,2,0,P|244:296|336:160,1,375,6|0,0:0|0:0,0:0:0:0:
248,152,137115,2,0,P|268:104|344:68,1,125,6|0,0:0|0:0,0:0:0:0:
263,232,137346,2,0,P|236:287|182:315,1,125
115,176,137576,1,2,0:0:0:0:
125,146,137692,1,2,0:0:0:0:
127,115,137807,1,2,0:0:0:0:
121,84,137923,1,2,0:0:0:0:
108,57,138038,2,0,P|56:104|56:272,1,250,6|0,0:0|0:0,0:0:0:0:
300,328,138500,6,0,B|340:292|344:236|344:236|400:236|440:192|440:140,1,250,6|6,0:0|0:0,0:0:0:0:
265,9,139192,2,0,L|16:24,1,250,4|0,0:0|0:0,0:0:0:0:
496,104,139653,1,4,0:0:0:0:
199,206,139884,2,0,B|176:156|116:132|116:132|184:136|244:96,1,250,0|4,0:0|0:0,0:0:0:0:
436,332,140346,1,4,0:0:0:0:
72,240,140576,1,4,0:0:0:0:
92,268,140807,6,0,P|140:264|196:280,1,100,4|0,0:0|0:0,0:0:0:0:
340,256,141269,2,0,B|256:228|232:160,1,150.000005722046,4|0,0:0|0:0,0:0:0:0:
31,91,141730,2,0,P|120:96|208:32,1,200,4|0,0:0|0:0,0:0:0:0:
306,71,142192,2,0,P|445:173|368:327,1,375,4|0,0:0|0:0,0:0:0:0:
182,39,142653,6,0,P|57:167|236:175,1,450.000017166138,4|0,0:0|0:0,0:0:0:0:
366,100,143115,2,0,P|285:214|368:328,1,300.000011444092
148,132,143576,1,2,0:0:0:0:
436,220,143807,1,8,0:0:0:0:
84,356,144038,1,10,0:0:0:0:
155,337,144153,1,10,0:0:0:0:
199,278,144269,1,10,0:0:0:0:
196,205,144384,1,0,0:0:0:0:
147,150,144500,2,0,B|324:116|324:116|448:128,2,300.000011444092,4|0|0,0:0|0:0|0:0,0:0:0:0:
380,20,145192,6,0,B|220:52|220:52|84:36,1,300.000011444092
460,16,145653,1,10,0:0:0:0:
264,364,145884,2,0,P|160:263|180:120,1,300.000011444092,2|8,0:0|0:0,0:0:0:0:
36,68,146346,1,0,0:0:0:0:
476,316,146576,1,0,0:0:0:0:
416,40,146807,1,0,0:0:0:0:
196,280,147038,1,0,0:0:0:0:
116,356,147269,2,0,P|84:264|236:180,1,300.000011444092,8|8,0:0|0:0,0:0:0:0:
500,64,147730,2,0,L|200:28,2,300.000011444092,8|8|6,0:0|0:0|0:0,0:0:0:0:
472,212,148423,5,0,0:0:0:0:
128,316,148653,2,0,P|72:256|106:55,1,300.000011444092,2|0,0:0|0:0,0:0:0:0:
406,55,149115,2,0,P|458:190|384:315,1,300.000011444092,2|0,0:0|0:0,0:0:0:0:
128,248,149576,1,10,0:0:0:0:
192,209,149692,1,10,0:0:0:0:
257,171,149807,2,0,B|192:144|192:144|112:136,1,150.000005722046
171,60,150038,2,0,B|376:48|376:48|464:4,1,300.000011444092,6|0,0:0|0:0,0:0:0:0:
340,323,150500,2,0,B|156:268|156:268|48:288,1,300.000011444092,2|2,0:0|0:0,0:0:0:0:
55,112,150961,5,2,0:0:0:0:
95,52,151076,1,0,0:0:0:0:
167,50,151192,1,10,0:0:0:0:
208,109,151307,1,2,0:0:0:0:
183,177,151423,2,0,P|240:92|424:88,1,300.000011444092,2|8,0:0|0:0,0:0:0:0:
63,255,151884,2,0,B|143:55|143:55|173:86|213:105,1,300.000011444092,4|2,0:0|0:0,0:0:0:0:
329,198,152346,2,0,B|353:234|390:257|390:257|208:372,1,300.000011444092,4|2,0:0|0:0,0:0:0:0:
496,88,152807,5,2,0:0:0:0:
88,276,153038,2,0,P|144:264|224:304,1,150.000005722046,10|2,0:0|0:0,0:0:0:0:
368,344,153269,2,0,P|324:196|404:88,2,300.000011444092,10|10|4,0:0|0:0|0:0,0:0:0:0:
225,21,153961,1,10,0:0:0:0:
123,303,154192,1,0,0:0:0:0:
418,251,154423,1,10,0:0:0:0:
306,72,154653,1,0,0:0:0:0:
127,207,154884,1,8,0:0:0:0:
334,295,155115,2,0,P|384:216|232:280,1,450.000017166138,8|0,0:0|0:0,0:0:0:0:
295,215,155576,5,4,0:0:0:0:
256,192,155807,12,4,157423,0:0:0:0:
140,102,157884,5,8,0:0:0:0:
336,62,158346,2,0,L|306:159,1,100,0|8,0:0|0:0,0:0:0:0:
352,246,158807,1,8,0:0:0:0:
480,92,159269,1,0,0:0:0:0:
432,180,159500,2,0,P|376:200|336:192,1,100,0|8,0:0|0:0,0:0:0:0:
268,120,159961,2,0,P|212:100|172:108,1,100
108,184,160423,1,8,0:0:0:0:
208,200,160653,1,10,0:0:0:0:
144,276,160884,1,2,0:0:0:0:
372,148,161346,5,8,0:0:0:0:
140,236,161577,1,8,0:0:0:0:
188,148,161807,2,0,L|148:52,1,100,8|0,0:0|0:0,0:0:0:0:
52,28,162269,1,8,0:0:0:0:
372,236,162500,1,8,0:0:0:0:
372,236,162961,1,8,0:0:0:0:
244,84,163192,1,0,0:0:0:0:
324,148,163422,2,0,L|364:52,1,100,8|0,0:0|0:0,0:0:0:0:
460,28,163884,5,8,0:0:0:0:
260,20,164115,1,8,0:0:0:0:
288,216,164346,1,2,0:0:0:0:
228,296,164576,1,2,0:0:0:0:
32,252,164807,2,0,L|124:212,1,100,8|0,0:0|0:0,0:0:0:0:
244,76,165269,2,0,L|144:64,1,100,8|0,0:0|0:0,0:0:0:0:
324,20,165730,1,8,0:0:0:0:
388,96,165961,1,8,0:0:0:0:
308,280,166192,1,8,0:0:0:0:
404,248,166653,6,0,P|392:192|364:160,1,100,8|0,0:0|0:0,0:0:0:0:
111,257,167115,2,0,P|159:288|202:290,1,100,8|0,0:0|0:0,0:0:0:0:
190,47,167576,2,0,P|159:95|157:138,1,100,8|8,0:0|0:0,0:0:0:0:
256,124,168038,1,10,0:0:0:0:
80,28,168269,1,10,0:0:0:0:
80,28,168730,1,0,0:0:0:0:
48,124,168961,2,0,P|40:180|52:220,1,100,8|0,0:0|0:0,0:0:0:0:
152,236,169423,2,0,P|197:269|217:306,1,100,0|8,0:0|0:0,0:0:0:0:
116,336,169884,2,0,P|212:312|296:360,1,200,8|0,0:0|0:0,0:0:0:0:
256,192,170576,12,4,172192,0:0:0:0:
