osu file format v14

[General]
AudioFilename: audio.mp3
AudioLeadIn: 0
PreviewTime: 13917
Countdown: 1
SampleSet: Normal
StackLeniency: 0.7
Mode: 1
LetterboxInBreaks: 0
WidescreenStoryboard: 1

[Editor]
Bookmarks: 14362,28584,35695,42806,57028,77473,91695,98806,105917,127251,134362,141473
DistanceSpacing: 0.8
BeatDivisor: 8
GridSize: 32
TimelineZoom: 3.399999

[Metadata]
Title:Fuck Them All
TitleUnicode:Fuck Them All
Artist:Hardestboy
ArtistUnicode:Hardestboy
Creator:tasuke912
Version:XXXX
Source:osu!
Tags:featured artist fa rst renketsu:one rising sun traxx RST-0001 ATTACK THE MUSIC Electronic Terrorcore Breakcore Instrumental
BeatmapID:2223033
BeatmapSetID:1061580

[Difficulty]
HPDrainRate:6
CircleSize:2
OverallDifficulty:8.5
ApproachRate:5
SliderMultiplier:1.4
SliderTickRate:1

[Events]
//Background and Video events
0,0,"bg.jpg",0,0
//Break Periods
//Storyboard Layer 0 (Background)
//Storyboard Layer 1 (Fail)
//Storyboard Layer 2 (Pass)
//Storyboard Layer 3 (Foreground)
//Storyboard Layer 4 (Overlay)
//Storyboard Sound Samples

[TimingPoints]
140,222.222222222222,4,1,0,80,1,0
140,-100,4,1,0,80,0,0
14362,-100,4,1,0,80,0,0
42806,-100,4,1,0,80,0,0
42917,-111.111111111111,4,1,0,80,0,0
61473,-100,4,1,0,80,0,0
68695,-100,4,1,0,70,0,0
69417,-100,4,1,0,80,0,0
72251,-100,4,1,0,70,0,0
72973,-100,4,1,0,80,0,0
73084,-100,4,1,0,70,0,0
73862,-100,4,1,0,80,0,0
75695,-100,4,1,0,60,0,0
76973,-100,4,1,0,80,0,0
106028,-111.111111111111,4,1,0,80,0,0
120139,-100,4,1,0,80,0,1
148584,-100,4,1,0,50,0,0

[HitObjects]
256,192,140,5,4,0:0:0:0:
256,192,362,1,2,0:0:0:0:
256,192,473,1,2,0:0:0:0:
256,192,695,1,0,0:0:0:0:
256,192,751,1,0,0:0:0:0:
256,192,806,1,2,0:0:0:0:
256,192,917,1,2,0:0:0:0:
256,192,1028,1,0,0:0:0:0:
256,192,1251,1,2,0:0:0:0:
256,192,1362,1,2,0:0:0:0:
256,192,1584,1,0,0:0:0:0:
256,192,1695,1,2,0:0:0:0:
256,192,1806,1,2,0:0:0:0:
256,192,1862,1,2,0:0:0:0:
256,192,1917,1,0,0:0:0:0:
256,192,2028,1,0,0:0:0:0:
256,192,2139,1,2,0:0:0:0:
256,192,2251,1,2,0:0:0:0:
256,192,2473,1,0,0:0:0:0:
256,192,2528,1,0,0:0:0:0:
256,192,2584,1,2,0:0:0:0:
256,192,2695,1,2,0:0:0:0:
256,192,2806,1,0,0:0:0:0:
256,192,3028,1,2,0:0:0:0:
256,192,3139,1,0,0:0:0:0:
256,192,3251,1,2,0:0:0:0:
256,192,3306,1,2,0:0:0:0:
256,192,3362,1,0,0:0:0:0:
256,192,3417,1,0,0:0:0:0:
256,192,3473,1,2,0:0:0:0:
256,192,3584,1,2,0:0:0:0:
256,192,3639,1,2,0:0:0:0:
256,192,3695,5,0,0:0:0:0:
256,192,3917,1,2,0:0:0:0:
256,192,4028,1,2,0:0:0:0:
256,192,4251,1,0,0:0:0:0:
256,192,4306,1,0,0:0:0:0:
256,192,4362,1,2,0:0:0:0:
256,192,4473,1,2,0:0:0:0:
256,192,4584,1,0,0:0:0:0:
256,192,4806,1,2,0:0:0:0:
256,192,4917,1,2,0:0:0:0:
256,192,5139,1,0,0:0:0:0:
256,192,5251,1,2,0:0:0:0:
256,192,5362,1,2,0:0:0:0:
256,192,5417,1,2,0:0:0:0:
256,192,5473,1,0,0:0:0:0:
256,192,5584,1,0,0:0:0:0:
256,192,5695,1,2,0:0:0:0:
256,192,5806,1,2,0:0:0:0:
256,192,6028,1,0,0:0:0:0:
256,192,6084,1,0,0:0:0:0:
256,192,6139,1,2,0:0:0:0:
256,192,6251,1,2,0:0:0:0:
256,192,6362,1,0,0:0:0:0:
256,192,6584,1,2,0:0:0:0:
256,192,6695,1,0,0:0:0:0:
256,192,6806,1,2,0:0:0:0:
256,192,6862,1,2,0:0:0:0:
256,192,6917,1,0,0:0:0:0:
256,192,6973,1,0,0:0:0:0:
256,192,7028,1,2,0:0:0:0:
256,192,7084,1,2,0:0:0:0:
256,192,7139,1,2,0:0:0:0:
256,192,7251,1,4,0:0:0:0:
256,192,7473,1,2,0:0:0:0:
256,192,7584,1,2,0:0:0:0:
256,192,7806,1,0,0:0:0:0:
256,192,7862,1,0,0:0:0:0:
256,192,7917,1,2,0:0:0:0:
256,192,8028,1,2,0:0:0:0:
256,192,8139,1,0,0:0:0:0:
256,192,8362,1,2,0:0:0:0:
256,192,8473,1,2,0:0:0:0:
256,192,8695,1,0,0:0:0:0:
256,192,8806,1,2,0:0:0:0:
256,192,8917,1,2,0:0:0:0:
256,192,8973,1,2,0:0:0:0:
256,192,9028,1,0,0:0:0:0:
256,192,9139,1,0,0:0:0:0:
256,192,9251,1,2,0:0:0:0:
256,192,9362,1,2,0:0:0:0:
256,192,9584,1,0,0:0:0:0:
256,192,9639,1,0,0:0:0:0:
256,192,9695,1,2,0:0:0:0:
256,192,9806,1,2,0:0:0:0:
256,192,9917,1,0,0:0:0:0:
256,192,10139,1,2,0:0:0:0:
256,192,10251,1,0,0:0:0:0:
256,192,10362,1,2,0:0:0:0:
256,192,10417,1,2,0:0:0:0:
256,192,10473,1,0,0:0:0:0:
256,192,10528,1,0,0:0:0:0:
256,192,10584,1,2,0:0:0:0:
256,192,10695,1,2,0:0:0:0:
256,192,10751,1,2,0:0:0:0:
256,192,10806,1,0,0:0:0:0:
256,192,10917,1,0,0:0:0:0:
256,192,11028,1,2,0:0:0:0:
256,192,11139,1,2,0:0:0:0:
256,192,11362,1,0,0:0:0:0:
256,192,11417,1,0,0:0:0:0:
256,192,11473,1,2,0:0:0:0:
256,192,11584,1,2,0:0:0:0:
256,192,11695,1,0,0:0:0:0:
256,192,11806,1,0,0:0:0:0:
256,192,11917,1,2,0:0:0:0:
256,192,12028,1,0,0:0:0:0:
256,192,12084,1,2,0:0:0:0:
256,192,12139,1,2,0:0:0:0:
256,192,12251,1,0,0:0:0:0:
256,192,12362,1,2,0:0:0:0:
256,192,12473,1,2,0:0:0:0:
256,192,12528,1,2,0:0:0:0:
256,192,12584,1,0,0:0:0:0:
256,192,12695,1,0,0:0:0:0:
256,192,12806,1,2,0:0:0:0:
256,192,12917,1,2,0:0:0:0:
256,192,12973,1,0,0:0:0:0:
256,192,13028,1,2,0:0:0:0:
256,192,13084,1,2,0:0:0:0:
256,192,13139,1,0,0:0:0:0:
256,192,13195,1,0,0:0:0:0:
256,192,13251,1,2,0:0:0:0:
256,192,13362,1,2,0:0:0:0:
256,192,13417,1,2,0:0:0:0:
256,192,13473,1,0,0:0:0:0:
256,192,13584,1,2,0:0:0:0:
256,192,13695,1,2,0:0:0:0:
256,192,13751,1,2,0:0:0:0:
256,192,13806,1,0,0:0:0:0:
256,192,13862,1,0,0:0:0:0:
256,192,13917,1,2,0:0:0:0:
256,192,14028,1,0,0:0:0:0:
256,192,14056,1,0,0:0:0:0:
256,192,14139,1,0,0:0:0:0:
256,192,14167,1,0,0:0:0:0:
256,192,14251,1,2,0:0:0:0:
256,192,14278,1,2,0:0:0:0:
256,192,14362,1,4,0:0:0:0:
256,192,14473,1,2,0:0:0:0:
256,192,14528,1,2,0:0:0:0:
256,192,14584,1,0,0:0:0:0:
256,192,14695,1,2,0:0:0:0:
256,192,14751,1,2,0:0:0:0:
256,192,14806,1,0,0:0:0:0:
256,192,14917,1,2,0:0:0:0:
256,192,14973,1,2,0:0:0:0:
256,192,15028,1,0,0:0:0:0:
256,192,15084,1,0,0:0:0:0:
256,192,15139,1,2,0:0:0:0:
256,192,15251,1,0,0:0:0:0:
256,192,15306,1,0,0:0:0:0:
256,192,15362,1,2,0:0:0:0:
256,192,15417,1,2,0:0:0:0:
256,192,15473,1,0,0:0:0:0:
256,192,15584,1,2,0:0:0:0:
256,192,15639,1,2,0:0:0:0:
256,192,15695,1,0,0:0:0:0:
256,192,15806,1,2,0:0:0:0:
256,192,15862,1,2,0:0:0:0:
256,192,15917,1,0,0:0:0:0:
256,192,16028,1,0,0:0:0:0:
256,192,16139,1,0,0:0:0:0:
256,192,16251,1,2,0:0:0:0:
256,192,16306,1,2,0:0:0:0:
256,192,16362,1,0,0:0:0:0:
256,192,16473,1,2,0:0:0:0:
256,192,16528,1,2,0:0:0:0:
256,192,16584,1,0,0:0:0:0:
256,192,16695,1,2,0:0:0:0:
256,192,16751,1,2,0:0:0:0:
256,192,16806,1,0,0:0:0:0:
256,192,16862,1,0,0:0:0:0:
256,192,16917,1,2,0:0:0:0:
256,192,17028,1,0,0:0:0:0:
256,192,17084,1,0,0:0:0:0:
256,192,17139,1,2,0:0:0:0:
256,192,17195,1,2,0:0:0:0:
256,192,17251,1,0,0:0:0:0:
256,192,17306,1,0,0:0:0:0:
256,192,17362,1,2,0:0:0:0:
256,192,17417,1,2,0:0:0:0:
256,192,17473,1,0,0:0:0:0:
256,192,17584,1,0,0:0:0:0:
256,192,17695,1,0,0:0:0:0:
256,192,17806,1,0,0:0:0:0:
256,192,17917,1,0,0:0:0:0:
256,192,18028,1,2,0:0:0:0:
256,192,18084,1,2,0:0:0:0:
256,192,18139,1,0,0:0:0:0:
256,192,18251,1,2,0:0:0:0:
256,192,18306,1,2,0:0:0:0:
256,192,18362,1,0,0:0:0:0:
256,192,18473,1,2,0:0:0:0:
256,192,18528,1,2,0:0:0:0:
256,192,18584,1,0,0:0:0:0:
256,192,18639,1,0,0:0:0:0:
256,192,18695,1,2,0:0:0:0:
256,192,18806,1,0,0:0:0:0:
256,192,18862,1,0,0:0:0:0:
256,192,18917,1,2,0:0:0:0:
256,192,18973,1,2,0:0:0:0:
256,192,19028,1,0,0:0:0:0:
256,192,19139,1,2,0:0:0:0:
256,192,19195,1,2,0:0:0:0:
256,192,19251,1,0,0:0:0:0:
256,192,19306,1,0,0:0:0:0:
256,192,19362,1,2,0:0:0:0:
256,192,19417,1,2,0:0:0:0:
256,192,19473,1,0,0:0:0:0:
256,192,19584,1,0,0:0:0:0:
256,192,19695,1,0,0:0:0:0:
256,192,19806,1,2,0:0:0:0:
256,192,19862,1,2,0:0:0:0:
256,192,19917,1,0,0:0:0:0:
256,192,20028,1,2,0:0:0:0:
256,192,20084,1,2,0:0:0:0:
256,192,20139,1,0,0:0:0:0:
256,192,20251,1,2,0:0:0:0:
256,192,20306,1,2,0:0:0:0:
256,192,20362,1,0,0:0:0:0:
256,192,20417,1,0,0:0:0:0:
256,192,20473,1,2,0:0:0:0:
256,192,20584,1,0,0:0:0:0:
256,192,20639,1,2,0:0:0:0:
256,192,20695,1,0,0:0:0:0:
256,192,20751,1,2,0:0:0:0:
256,192,20806,1,0,0:0:0:0:
256,192,20862,1,2,0:0:0:0:
256,192,20917,1,0,0:0:0:0:
256,192,21028,1,0,0:0:0:0:
256,192,21084,1,0,0:0:0:0:
256,192,21139,1,0,0:0:0:0:
256,192,21251,1,2,0:0:0:0:
256,192,21306,1,2,0:0:0:0:
256,192,21362,1,2,0:0:0:0:
256,192,21473,1,4,0:0:0:0:
256,192,21584,1,2,0:0:0:0:
256,192,21639,1,2,0:0:0:0:
256,192,21695,1,0,0:0:0:0:
256,192,21806,1,2,0:0:0:0:
256,192,21862,1,2,0:0:0:0:
256,192,21917,1,0,0:0:0:0:
256,192,22028,1,2,0:0:0:0:
256,192,22084,1,2,0:0:0:0:
256,192,22139,1,0,0:0:0:0:
256,192,22195,1,0,0:0:0:0:
256,192,22251,1,2,0:0:0:0:
256,192,22362,1,0,0:0:0:0:
256,192,22417,1,0,0:0:0:0:
256,192,22473,1,2,0:0:0:0:
256,192,22528,1,2,0:0:0:0:
256,192,22584,1,0,0:0:0:0:
256,192,22695,1,2,0:0:0:0:
256,192,22751,1,2,0:0:0:0:
256,192,22806,1,0,0:0:0:0:
256,192,22917,1,2,0:0:0:0:
256,192,22973,1,2,0:0:0:0:
256,192,23028,1,0,0:0:0:0:
256,192,23139,1,0,0:0:0:0:
256,192,23251,1,0,0:0:0:0:
256,192,23362,1,2,0:0:0:0:
256,192,23417,1,2,0:0:0:0:
256,192,23473,1,0,0:0:0:0:
256,192,23584,1,2,0:0:0:0:
256,192,23639,1,2,0:0:0:0:
256,192,23695,1,0,0:0:0:0:
256,192,23806,1,2,0:0:0:0:
256,192,23862,1,2,0:0:0:0:
256,192,23917,1,0,0:0:0:0:
256,192,23973,1,0,0:0:0:0:
256,192,24028,1,2,0:0:0:0:
256,192,24139,1,0,0:0:0:0:
256,192,24195,1,0,0:0:0:0:
256,192,24251,1,2,0:0:0:0:
256,192,24306,1,2,0:0:0:0:
256,192,24362,1,0,0:0:0:0:
256,192,24417,1,0,0:0:0:0:
256,192,24473,1,2,0:0:0:0:
256,192,24528,1,2,0:0:0:0:
256,192,24584,1,0,0:0:0:0:
256,192,24695,1,0,0:0:0:0:
256,192,24806,1,0,0:0:0:0:
256,192,24917,1,0,0:0:0:0:
256,192,25028,1,0,0:0:0:0:
256,192,25139,1,2,0:0:0:0:
256,192,25195,1,2,0:0:0:0:
256,192,25251,1,0,0:0:0:0:
256,192,25362,1,2,0:0:0:0:
256,192,25417,1,2,0:0:0:0:
256,192,25473,1,0,0:0:0:0:
256,192,25584,1,2,0:0:0:0:
256,192,25639,1,2,0:0:0:0:
256,192,25695,1,0,0:0:0:0:
256,192,25751,1,0,0:0:0:0:
256,192,25806,1,2,0:0:0:0:
256,192,25917,1,0,0:0:0:0:
256,192,25973,1,0,0:0:0:0:
256,192,26028,1,2,0:0:0:0:
256,192,26084,1,2,0:0:0:0:
256,192,26139,1,0,0:0:0:0:
256,192,26251,1,2,0:0:0:0:
256,192,26306,1,2,0:0:0:0:
256,192,26362,1,0,0:0:0:0:
256,192,26417,1,0,0:0:0:0:
256,192,26473,1,2,0:0:0:0:
256,192,26528,1,2,0:0:0:0:
256,192,26584,1,0,0:0:0:0:
256,192,26695,1,0,0:0:0:0:
256,192,26806,1,0,0:0:0:0:
256,192,26917,1,2,0:0:0:0:
256,192,26973,1,2,0:0:0:0:
256,192,27028,1,0,0:0:0:0:
256,192,27139,1,2,0:0:0:0:
256,192,27195,1,2,0:0:0:0:
256,192,27251,1,0,0:0:0:0:
256,192,27362,1,2,0:0:0:0:
256,192,27417,1,2,0:0:0:0:
256,192,27473,1,0,0:0:0:0:
256,192,27528,1,0,0:0:0:0:
256,192,27584,1,2,0:0:0:0:
256,192,27695,1,0,0:0:0:0:
256,192,27751,1,0,0:0:0:0:
256,192,27806,1,2,0:0:0:0:
256,192,27862,1,0,0:0:0:0:
256,192,27917,1,2,0:0:0:0:
256,192,27973,1,2,0:0:0:0:
256,192,28028,1,0,0:0:0:0:
256,192,28084,1,2,0:0:0:0:
256,192,28139,1,0,0:0:0:0:
256,192,28251,1,2,0:0:0:0:
256,192,28278,1,2,0:0:0:0:
256,192,28362,1,2,0:0:0:0:
256,192,28389,1,2,0:0:0:0:
256,192,28473,1,2,0:0:0:0:
256,192,28501,1,2,0:0:0:0:
256,192,28584,1,4,0:0:0:0:
256,192,28695,1,2,0:0:0:0:
256,192,28751,1,2,0:0:0:0:
256,192,28806,1,0,0:0:0:0:
256,192,28917,1,2,0:0:0:0:
256,192,28973,1,2,0:0:0:0:
256,192,29028,1,0,0:0:0:0:
256,192,29139,1,2,0:0:0:0:
256,192,29195,1,2,0:0:0:0:
256,192,29251,1,0,0:0:0:0:
256,192,29306,1,0,0:0:0:0:
256,192,29362,1,2,0:0:0:0:
256,192,29473,1,0,0:0:0:0:
256,192,29528,1,0,0:0:0:0:
256,192,29584,1,2,0:0:0:0:
256,192,29639,1,0,0:0:0:0:
256,192,29695,1,2,0:0:0:0:
256,192,29751,1,2,0:0:0:0:
256,192,29806,1,0,0:0:0:0:
256,192,29862,1,2,0:0:0:0:
256,192,29917,1,0,0:0:0:0:
256,192,30028,1,2,0:0:0:0:
256,192,30084,1,2,0:0:0:0:
256,192,30139,1,0,0:0:0:0:
256,192,30251,1,0,0:0:0:0:
256,192,30362,1,0,0:0:0:0:
256,192,30473,1,2,0:0:0:0:
256,192,30528,1,2,0:0:0:0:
256,192,30584,1,0,0:0:0:0:
256,192,30695,1,2,0:0:0:0:
256,192,30751,1,2,0:0:0:0:
256,192,30806,1,0,0:0:0:0:
256,192,30917,1,2,0:0:0:0:
256,192,30973,1,2,0:0:0:0:
256,192,31028,1,0,0:0:0:0:
256,192,31084,1,0,0:0:0:0:
256,192,31139,1,2,0:0:0:0:
256,192,31251,1,0,0:0:0:0:
256,192,31306,1,2,0:0:0:0:
256,192,31362,1,0,0:0:0:0:
256,192,31417,1,0,0:0:0:0:
256,192,31473,1,2,0:0:0:0:
256,192,31528,1,0,0:0:0:0:
256,192,31584,1,2,0:0:0:0:
256,192,31639,1,2,0:0:0:0:
256,192,31695,1,0,0:0:0:0:
256,192,31806,1,2,0:0:0:0:
256,192,31862,1,0,0:0:0:0:
256,192,31917,1,2,0:0:0:0:
256,192,31973,1,0,0:0:0:0:
256,192,32028,1,2,0:0:0:0:
256,192,32139,1,0,0:0:0:0:
256,192,32251,1,2,0:0:0:0:
256,192,32306,1,2,0:0:0:0:
256,192,32362,1,0,0:0:0:0:
256,192,32473,1,2,0:0:0:0:
256,192,32528,1,2,0:0:0:0:
256,192,32584,1,0,0:0:0:0:
256,192,32695,1,2,0:0:0:0:
256,192,32751,1,2,0:0:0:0:
256,192,32806,1,0,0:0:0:0:
256,192,32862,1,0,0:0:0:0:
256,192,32917,1,2,0:0:0:0:
256,192,33028,1,0,0:0:0:0:
256,192,33084,1,0,0:0:0:0:
256,192,33139,1,2,0:0:0:0:
256,192,33195,1,0,0:0:0:0:
256,192,33251,1,2,0:0:0:0:
256,192,33306,1,2,0:0:0:0:
256,192,33362,1,0,0:0:0:0:
256,192,33417,1,2,0:0:0:0:
256,192,33473,1,0,0:0:0:0:
256,192,33528,1,0,0:0:0:0:
256,192,33584,1,2,0:0:0:0:
256,192,33639,1,2,0:0:0:0:
256,192,33695,1,0,0:0:0:0:
256,192,33806,1,0,0:0:0:0:
256,192,33917,1,0,0:0:0:0:
256,192,34028,1,2,0:0:0:0:
256,192,34084,1,2,0:0:0:0:
256,192,34139,1,0,0:0:0:0:
256,192,34251,1,2,0:0:0:0:
256,192,34306,1,2,0:0:0:0:
256,192,34362,1,0,0:0:0:0:
256,192,34473,1,2,0:0:0:0:
256,192,34528,1,2,0:0:0:0:
256,192,34584,1,0,0:0:0:0:
256,192,34639,1,0,0:0:0:0:
256,192,34695,1,2,0:0:0:0:
256,192,34806,1,0,0:0:0:0:
256,192,34862,1,2,0:0:0:0:
256,192,34917,1,0,0:0:0:0:
256,192,34973,1,2,0:0:0:0:
256,192,35028,1,0,0:0:0:0:
256,192,35084,1,2,0:0:0:0:
256,192,35139,1,0,0:0:0:0:
256,192,35195,1,2,0:0:0:0:
256,192,35251,1,0,0:0:0:0:
256,192,35306,1,0,0:0:0:0:
256,192,35362,1,0,0:0:0:0:
256,192,35417,1,2,0:0:0:0:
256,192,35473,1,0,0:0:0:0:
256,192,35528,1,0,0:0:0:0:
256,192,35584,1,2,0:0:0:0:
256,192,35695,5,4,0:0:0:0:
256,192,35806,1,2,0:0:0:0:
256,192,35862,1,2,0:0:0:0:
256,192,35917,1,0,0:0:0:0:
256,192,36028,1,2,0:0:0:0:
256,192,36084,1,2,0:0:0:0:
256,192,36139,1,0,0:0:0:0:
256,192,36251,1,2,0:0:0:0:
256,192,36306,1,2,0:0:0:0:
256,192,36362,1,0,0:0:0:0:
256,192,36473,1,2,0:0:0:0:
256,192,36528,1,2,0:0:0:0:
256,192,36584,1,0,0:0:0:0:
256,192,36639,1,0,0:0:0:0:
256,192,36695,1,2,0:0:0:0:
256,192,36751,1,2,0:0:0:0:
256,192,36806,1,0,0:0:0:0:
256,192,36862,1,0,0:0:0:0:
256,192,36917,1,2,0:0:0:0:
256,192,36973,1,2,0:0:0:0:
256,192,37028,1,0,0:0:0:0:
256,192,37139,1,2,0:0:0:0:
256,192,37195,1,2,0:0:0:0:
256,192,37251,1,0,0:0:0:0:
256,192,37362,1,0,0:0:0:0:
256,192,37473,1,0,0:0:0:0:
256,192,37584,1,2,0:0:0:0:
256,192,37639,1,2,0:0:0:0:
256,192,37695,1,0,0:0:0:0:
256,192,37806,1,2,0:0:0:0:
256,192,37862,1,2,0:0:0:0:
256,192,37917,1,0,0:0:0:0:
256,192,38028,1,2,0:0:0:0:
256,192,38084,1,2,0:0:0:0:
256,192,38139,1,0,0:0:0:0:
256,192,38251,1,2,0:0:0:0:
256,192,38306,1,2,0:0:0:0:
256,192,38362,1,0,0:0:0:0:
256,192,38417,1,0,0:0:0:0:
256,192,38473,1,2,0:0:0:0:
256,192,38528,1,2,0:0:0:0:
256,192,38584,1,0,0:0:0:0:
256,192,38639,1,2,0:0:0:0:
256,192,38695,1,2,0:0:0:0:
256,192,38806,1,4,0:0:0:0:
256,192,38917,1,4,0:0:0:0:
256,192,39028,1,4,0:0:0:0:
256,192,39139,1,4,0:0:0:0:
256,192,39251,1,4,0:0:0:0:
256,192,39362,1,2,0:0:0:0:
256,192,39417,1,2,0:0:0:0:
256,192,39473,1,0,0:0:0:0:
256,192,39584,1,2,0:0:0:0:
256,192,39639,1,2,0:0:0:0:
256,192,39695,1,0,0:0:0:0:
256,192,39806,1,2,0:0:0:0:
256,192,39862,1,2,0:0:0:0:
256,192,39917,1,0,0:0:0:0:
256,192,39973,1,0,0:0:0:0:
256,192,40028,1,0,0:0:0:0:
256,192,40084,1,0,0:0:0:0:
256,192,40139,1,0,0:0:0:0:
256,192,40251,1,2,0:0:0:0:
256,192,40306,1,2,0:0:0:0:
256,192,40362,1,0,0:0:0:0:
256,192,40473,1,2,0:0:0:0:
256,192,40528,1,2,0:0:0:0:
256,192,40584,1,0,0:0:0:0:
256,192,40695,1,0,0:0:0:0:
256,192,40751,1,2,0:0:0:0:
256,192,40806,1,0,0:0:0:0:
256,192,40862,1,0,0:0:0:0:
256,192,40917,1,2,0:0:0:0:
256,192,40973,1,2,0:0:0:0:
256,192,41028,1,0,0:0:0:0:
256,192,41139,1,0,0:0:0:0:
256,192,41195,1,0,0:0:0:0:
256,192,41251,1,2,0:0:0:0:
256,192,41288,1,2,0:0:0:0:
256,192,41325,1,2,0:0:0:0:
256,192,41362,1,0,0:0:0:0:
256,192,41473,1,0,0:0:0:0:
256,192,41528,1,2,0:0:0:0:
256,192,41584,1,0,0:0:0:0:
256,192,41639,1,0,0:0:0:0:
256,192,41695,1,2,0:0:0:0:
256,192,41732,1,0,0:0:0:0:
256,192,41769,1,0,0:0:0:0:
256,192,41806,1,2,0:0:0:0:
256,192,41862,1,2,0:0:0:0:
256,192,41917,1,0,0:0:0:0:
256,192,41973,1,2,0:0:0:0:
256,192,42028,1,0,0:0:0:0:
256,192,42084,1,2,0:0:0:0:
256,192,42139,1,0,0:0:0:0:
256,192,42195,1,0,0:0:0:0:
256,192,42251,1,2,0:0:0:0:
256,192,42306,1,2,0:0:0:0:
256,192,42362,1,0,0:0:0:0:
256,192,42399,1,0,0:0:0:0:
256,192,42436,1,0,0:0:0:0:
256,192,42473,1,2,0:0:0:0:
256,192,42528,1,2,0:0:0:0:
256,192,42584,1,0,0:0:0:0:
256,192,42621,1,0,0:0:0:0:
256,192,42658,1,0,0:0:0:0:
256,192,42695,1,2,0:0:0:0:
256,192,42751,1,2,0:0:0:0:
256,192,42806,1,0,0:0:0:0:
256,192,43028,1,2,0:0:0:0:
256,192,43139,1,2,0:0:0:0:
256,192,43362,1,0,0:0:0:0:
256,192,43417,1,0,0:0:0:0:
256,192,43473,1,2,0:0:0:0:
256,192,43584,1,2,0:0:0:0:
256,192,43695,1,0,0:0:0:0:
256,192,43806,1,0,0:0:0:0:
256,192,43917,1,2,0:0:0:0:
256,192,44028,1,0,0:0:0:0:
256,192,44084,1,2,0:0:0:0:
256,192,44139,1,2,0:0:0:0:
256,192,44251,1,0,0:0:0:0:
256,192,44362,1,2,0:0:0:0:
256,192,44473,1,2,0:0:0:0:
256,192,44528,1,2,0:0:0:0:
256,192,44584,1,0,0:0:0:0:
256,192,44695,1,0,0:0:0:0:
256,192,44806,1,2,0:0:0:0:
256,192,44917,1,2,0:0:0:0:
256,192,45139,1,0,0:0:0:0:
256,192,45251,1,2,0:0:0:0:
256,192,45362,1,2,0:0:0:0:
256,192,45417,1,2,0:0:0:0:
256,192,45473,1,0,0:0:0:0:
256,192,45584,1,0,0:0:0:0:
256,192,45695,1,2,0:0:0:0:
256,192,45806,1,2,0:0:0:0:
256,192,45862,1,2,0:0:0:0:
256,192,45917,1,0,0:0:0:0:
256,192,45973,1,2,0:0:0:0:
256,192,46028,1,2,0:0:0:0:
256,192,46084,1,2,0:0:0:0:
256,192,46139,1,0,0:0:0:0:
256,192,46195,1,0,0:0:0:0:
256,192,46251,1,2,0:0:0:0:
256,192,46306,1,2,0:0:0:0:
256,192,46362,1,0,0:0:0:0:
256,192,46584,1,2,0:0:0:0:
256,192,46695,1,2,0:0:0:0:
256,192,46917,1,0,0:0:0:0:
256,192,46973,1,0,0:0:0:0:
256,192,47028,1,2,0:0:0:0:
256,192,47139,1,2,0:0:0:0:
256,192,47251,1,0,0:0:0:0:
256,192,47362,1,0,0:0:0:0:
256,192,47473,1,2,0:0:0:0:
256,192,47584,1,0,0:0:0:0:
256,192,47639,1,2,0:0:0:0:
256,192,47695,1,2,0:0:0:0:
256,192,47806,1,0,0:0:0:0:
256,192,47917,1,2,0:0:0:0:
256,192,48028,1,2,0:0:0:0:
256,192,48084,1,2,0:0:0:0:
256,192,48139,1,0,0:0:0:0:
256,192,48251,1,0,0:0:0:0:
256,192,48362,1,2,0:0:0:0:
256,192,48473,1,2,0:0:0:0:
256,192,48695,1,0,0:0:0:0:
256,192,48806,1,2,0:0:0:0:
256,192,48917,1,2,0:0:0:0:
256,192,48973,1,2,0:0:0:0:
256,192,49028,1,0,0:0:0:0:
256,192,49139,1,0,0:0:0:0:
256,192,49251,1,2,0:0:0:0:
256,192,49362,1,2,0:0:0:0:
256,192,49417,1,0,0:0:0:0:
256,192,49473,1,2,0:0:0:0:
256,192,49528,1,2,0:0:0:0:
256,192,49584,1,0,0:0:0:0:
256,192,49639,1,2,0:0:0:0:
256,192,49695,1,0,0:0:0:0:
256,192,49751,1,0,0:0:0:0:
256,192,49806,1,2,0:0:0:0:
256,192,49862,1,2,0:0:0:0:
256,192,49917,1,0,0:0:0:0:
256,192,50139,1,2,0:0:0:0:
256,192,50251,1,2,0:0:0:0:
256,192,50473,1,0,0:0:0:0:
256,192,50584,1,2,0:0:0:0:
256,192,50695,1,2,0:0:0:0:
256,192,50751,1,2,0:0:0:0:
256,192,50806,1,0,0:0:0:0:
256,192,50917,1,0,0:0:0:0:
256,192,51028,1,2,0:0:0:0:
256,192,51139,1,2,0:0:0:0:
256,192,51195,1,0,0:0:0:0:
256,192,51251,1,2,0:0:0:0:
256,192,51362,1,0,0:0:0:0:
256,192,51473,1,2,0:0:0:0:
256,192,51584,1,2,0:0:0:0:
256,192,51639,1,2,0:0:0:0:
256,192,51695,1,0,0:0:0:0:
256,192,51806,1,0,0:0:0:0:
256,192,51917,1,2,0:0:0:0:
256,192,52028,1,0,0:0:0:0:
256,192,52084,1,0,0:0:0:0:
256,192,52139,1,2,0:0:0:0:
256,192,52195,1,2,0:0:0:0:
256,192,52251,1,0,0:0:0:0:
256,192,52362,1,2,0:0:0:0:
256,192,52473,1,2,0:0:0:0:
256,192,52584,1,0,0:0:0:0:
256,192,52695,1,2,0:0:0:0:
256,192,52751,1,2,0:0:0:0:
256,192,52806,1,0,0:0:0:0:
256,192,52917,1,2,0:0:0:0:
256,192,53028,1,0,0:0:0:0:
256,192,53139,1,0,0:0:0:0:
256,192,53195,1,0,0:0:0:0:
256,192,53251,1,2,0:0:0:0:
256,192,53362,1,2,0:0:0:0:
256,192,53473,1,0,0:0:0:0:
256,192,53584,1,0,0:0:0:0:
256,192,53695,1,2,0:0:0:0:
256,192,53806,1,0,0:0:0:0:
256,192,53862,1,0,0:0:0:0:
256,192,53917,1,2,0:0:0:0:
256,192,53973,1,0,0:0:0:0:
256,192,54028,1,0,0:0:0:0:
256,192,54139,1,2,0:0:0:0:
256,192,54251,1,2,0:0:0:0:
256,192,54306,1,2,0:0:0:0:
256,192,54362,1,0,0:0:0:0:
256,192,54473,1,0,0:0:0:0:
256,192,54584,1,2,0:0:0:0:
256,192,54695,1,0,0:0:0:0:
256,192,54751,1,2,0:0:0:0:
256,192,54806,1,2,0:0:0:0:
256,192,54862,1,2,0:0:0:0:
256,192,54917,1,0,0:0:0:0:
256,192,55028,1,0,0:0:0:0:
256,192,55139,1,2,0:0:0:0:
256,192,55251,1,0,0:0:0:0:
256,192,55362,1,2,0:0:0:0:
256,192,55417,1,2,0:0:0:0:
256,192,55473,1,0,0:0:0:0:
256,192,55584,1,2,0:0:0:0:
256,192,55639,1,2,0:0:0:0:
256,192,55695,1,0,0:0:0:0:
256,192,55806,1,2,0:0:0:0:
256,192,55862,1,2,0:0:0:0:
256,192,55917,1,0,0:0:0:0:
256,192,55973,1,0,0:0:0:0:
256,192,56028,1,2,0:0:0:0:
256,192,56139,1,0,0:0:0:0:
256,192,56195,1,0,0:0:0:0:
256,192,56251,1,2,0:0:0:0:
256,192,56306,1,0,0:0:0:0:
256,192,56362,1,2,0:0:0:0:
256,192,56417,1,2,0:0:0:0:
256,192,56473,1,0,0:0:0:0:
256,192,56528,1,2,0:0:0:0:
256,192,56584,1,0,0:0:0:0:
256,192,56639,1,0,0:0:0:0:
256,192,56695,1,2,0:0:0:0:
256,192,56751,1,2,0:0:0:0:
256,192,56806,1,0,0:0:0:0:
256,192,56862,1,0,0:0:0:0:
256,192,56917,1,2,0:0:0:0:
256,192,56973,1,2,0:0:0:0:
256,192,61473,5,4,0:0:0:0:
256,192,61584,1,2,0:0:0:0:
256,192,61639,1,2,0:0:0:0:
256,192,61695,1,0,0:0:0:0:
256,192,61806,1,2,0:0:0:0:
256,192,61862,1,2,0:0:0:0:
256,192,61917,1,0,0:0:0:0:
256,192,62028,1,2,0:0:0:0:
256,192,62084,1,2,0:0:0:0:
256,192,62139,1,0,0:0:0:0:
256,192,62195,1,0,0:0:0:0:
256,192,62251,1,2,0:0:0:0:
256,192,62362,1,0,0:0:0:0:
256,192,62417,1,2,0:0:0:0:
256,192,62473,1,0,0:0:0:0:
256,192,62528,1,2,0:0:0:0:
256,192,62584,1,0,0:0:0:0:
256,192,62639,1,2,0:0:0:0:
256,192,62695,1,0,0:0:0:0:
256,192,62751,1,2,0:0:0:0:
256,192,62806,1,0,0:0:0:0:
256,192,62862,1,0,0:0:0:0:
256,192,62917,1,2,0:0:0:0:
256,192,62973,1,2,0:0:0:0:
256,192,63028,1,0,0:0:0:0:
256,192,63084,1,2,0:0:0:0:
256,192,63139,1,2,0:0:0:0:
256,192,63251,1,0,0:0:0:0:
256,192,63362,1,2,0:0:0:0:
256,192,63417,1,2,0:0:0:0:
256,192,63473,1,0,0:0:0:0:
256,192,63584,1,2,0:0:0:0:
256,192,63639,1,2,0:0:0:0:
256,192,63695,1,0,0:0:0:0:
256,192,63806,1,2,0:0:0:0:
256,192,63862,1,2,0:0:0:0:
256,192,63917,1,0,0:0:0:0:
256,192,63973,1,2,0:0:0:0:
256,192,64028,1,2,0:0:0:0:
256,192,64139,1,0,0:0:0:0:
256,192,64195,1,2,0:0:0:0:
256,192,64251,1,2,0:0:0:0:
256,192,64306,1,0,0:0:0:0:
256,192,64362,1,2,0:0:0:0:
256,192,64417,1,2,0:0:0:0:
256,192,64473,1,0,0:0:0:0:
256,192,64528,1,0,0:0:0:0:
256,192,64584,1,2,0:0:0:0:
256,192,64639,1,0,0:0:0:0:
256,192,64695,1,0,0:0:0:0:
256,192,64751,1,0,0:0:0:0:
256,192,64806,1,2,0:0:0:0:
256,192,64862,1,0,0:0:0:0:
256,192,64917,1,2,0:0:0:0:
256,192,64973,1,2,0:0:0:0:
256,192,65028,1,0,0:0:0:0:
256,192,65139,1,2,0:0:0:0:
256,192,65251,1,0,0:0:0:0:
256,192,65306,1,0,0:0:0:0:
256,192,65362,1,2,0:0:0:0:
256,192,65473,1,0,0:0:0:0:
256,192,65528,1,0,0:0:0:0:
256,192,65584,1,2,0:0:0:0:
256,192,65695,1,0,0:0:0:0:
256,192,65751,1,0,0:0:0:0:
256,192,65806,1,2,0:0:0:0:
256,192,65917,1,2,0:0:0:0:
256,192,65973,1,0,0:0:0:0:
256,192,66028,1,2,0:0:0:0:
256,192,66139,1,2,0:0:0:0:
256,192,66195,1,0,0:0:0:0:
256,192,66251,1,2,0:0:0:0:
256,192,66362,1,2,0:0:0:0:
256,192,66417,1,0,0:0:0:0:
256,192,66473,1,2,0:0:0:0:
256,192,66584,1,2,0:0:0:0:
256,192,66639,1,0,0:0:0:0:
256,192,66695,1,2,0:0:0:0:
256,192,66806,1,0,0:0:0:0:
256,192,66862,1,2,0:0:0:0:
256,192,66917,1,2,0:0:0:0:
256,192,67028,1,0,0:0:0:0:
256,192,67084,1,2,0:0:0:0:
256,192,67139,1,2,0:0:0:0:
256,192,67251,1,0,0:0:0:0:
256,192,67306,1,2,0:0:0:0:
256,192,67362,1,2,0:0:0:0:
256,192,67473,1,0,0:0:0:0:
256,192,67528,1,2,0:0:0:0:
256,192,67584,1,2,0:0:0:0:
256,192,67695,1,0,0:0:0:0:
256,192,67751,1,2,0:0:0:0:
256,192,67806,1,2,0:0:0:0:
256,192,67917,1,6,0:0:0:0:
256,192,68139,1,6,0:0:0:0:
256,192,68362,1,6,0:0:0:0:
256,192,68584,1,6,0:0:0:0:
256,192,68695,12,0,69362,0:0:0:0:
256,192,69473,5,0,0:0:0:0:
256,192,69501,1,0,0:0:0:0:
256,192,69584,1,0,0:0:0:0:
256,192,69612,1,0,0:0:0:0:
256,192,69695,1,2,0:0:0:0:
256,192,69723,1,2,0:0:0:0:
256,192,69806,1,2,0:0:0:0:
256,192,69834,1,2,0:0:0:0:
256,192,69917,5,0,0:0:0:0:
256,192,69945,1,0,0:0:0:0:
256,192,70028,1,2,0:0:0:0:
256,192,70056,1,2,0:0:0:0:
256,192,70139,1,2,0:0:0:0:
256,192,70167,1,2,0:0:0:0:
256,192,70251,1,2,0:0:0:0:
256,192,70278,1,2,0:0:0:0:
256,192,70362,1,4,0:0:0:0:
256,192,70473,1,6,0:0:0:0:
256,192,70806,1,4,0:0:0:0:
256,192,70917,1,6,0:0:0:0:
256,192,71251,1,6,0:0:0:0:
256,192,71473,1,6,0:0:0:0:
256,192,71695,1,6,0:0:0:0:
256,192,71917,1,6,0:0:0:0:
256,192,72139,1,4,0:0:0:0:
256,192,72251,12,0,72917,0:0:0:0:
256,192,73028,5,6,0:0:0:0:
256,192,73139,12,0,73806,0:0:0:0:
256,192,73917,5,4,0:0:0:0:
256,192,74028,1,2,0:0:0:0:
256,192,74251,1,2,0:0:0:0:
256,192,74362,5,4,0:0:0:0:
256,192,74473,1,2,0:0:0:0:
256,192,74528,1,2,0:0:0:0:
256,192,74584,1,2,0:0:0:0:
256,192,74695,1,2,0:0:0:0:
256,192,74806,1,2,0:0:0:0:
256,192,74862,1,2,0:0:0:0:
256,192,74917,1,0,0:0:0:0:
256,192,75028,1,2,0:0:0:0:
256,192,75084,1,2,0:0:0:0:
256,192,75139,1,0,0:0:0:0:
256,192,75251,1,4,0:0:0:0:
256,192,75362,1,6,0:0:0:0:
256,192,75695,12,0,76917,0:0:0:0:
256,192,77028,5,6,0:0:0:0:
256,192,77139,1,6,0:0:0:0:
256,192,77251,1,4,0:0:0:0:
256,192,77473,1,4,0:0:0:0:
256,192,77584,1,2,0:0:0:0:
256,192,77639,1,2,0:0:0:0:
256,192,77695,1,0,0:0:0:0:
256,192,77806,1,2,0:0:0:0:
256,192,77862,1,2,0:0:0:0:
256,192,77917,1,0,0:0:0:0:
256,192,78028,1,2,0:0:0:0:
256,192,78084,1,2,0:0:0:0:
256,192,78139,1,0,0:0:0:0:
256,192,78195,1,0,0:0:0:0:
256,192,78251,1,2,0:0:0:0:
256,192,78362,1,0,0:0:0:0:
256,192,78417,1,0,0:0:0:0:
256,192,78473,1,2,0:0:0:0:
256,192,78528,1,2,0:0:0:0:
256,192,78584,1,0,0:0:0:0:
256,192,78639,1,2,0:0:0:0:
256,192,78695,1,2,0:0:0:0:
256,192,78751,1,2,0:0:0:0:
256,192,78806,1,0,0:0:0:0:
256,192,78862,1,0,0:0:0:0:
256,192,78917,1,2,0:0:0:0:
256,192,78973,1,0,0:0:0:0:
256,192,79028,1,2,0:0:0:0:
256,192,79139,1,2,0:0:0:0:
256,192,79195,1,2,0:0:0:0:
256,192,79251,1,0,0:0:0:0:
256,192,79362,1,2,0:0:0:0:
256,192,79473,1,0,0:0:0:0:
256,192,79528,1,0,0:0:0:0:
256,192,79584,1,2,0:0:0:0:
256,192,79695,1,0,0:0:0:0:
256,192,79751,1,0,0:0:0:0:
256,192,79806,1,2,0:0:0:0:
256,192,79862,1,2,0:0:0:0:
256,192,79917,1,0,0:0:0:0:
256,192,79973,1,0,0:0:0:0:
256,192,80028,1,2,0:0:0:0:
256,192,80139,1,0,0:0:0:0:
256,192,80251,1,2,0:0:0:0:
256,192,80306,1,2,0:0:0:0:
256,192,80362,1,0,0:0:0:0:
256,192,80417,1,2,0:0:0:0:
256,192,80473,1,0,0:0:0:0:
256,192,80528,1,2,0:0:0:0:
256,192,80584,1,0,0:0:0:0:
256,192,80639,1,0,0:0:0:0:
256,192,80695,1,2,0:0:0:0:
256,192,80732,1,2,0:0:0:0:
256,192,80769,1,2,0:0:0:0:
256,192,80806,1,0,0:0:0:0:
256,192,80862,1,0,0:0:0:0:
256,192,80917,1,2,0:0:0:0:
256,192,81028,1,4,0:0:0:0:
256,192,81139,1,2,0:0:0:0:
256,192,81195,1,2,0:0:0:0:
256,192,81251,1,0,0:0:0:0:
256,192,81362,1,2,0:0:0:0:
256,192,81417,1,2,0:0:0:0:
256,192,81473,1,0,0:0:0:0:
256,192,81584,1,2,0:0:0:0:
256,192,81639,1,2,0:0:0:0:
256,192,81695,1,0,0:0:0:0:
256,192,81751,1,0,0:0:0:0:
256,192,81806,1,2,0:0:0:0:
256,192,81917,1,0,0:0:0:0:
256,192,81973,1,0,0:0:0:0:
256,192,82028,1,2,0:0:0:0:
256,192,82084,1,0,0:0:0:0:
256,192,82139,1,2,0:0:0:0:
256,192,82195,1,2,0:0:0:0:
256,192,82251,1,0,0:0:0:0:
256,192,82306,1,2,0:0:0:0:
256,192,82362,1,0,0:0:0:0:
256,192,82417,1,0,0:0:0:0:
256,192,82473,1,2,0:0:0:0:
256,192,82528,1,2,0:0:0:0:
256,192,82584,1,0,0:0:0:0:
256,192,82639,1,0,0:0:0:0:
256,192,82695,1,2,0:0:0:0:
256,192,82806,1,2,0:0:0:0:
256,192,82862,1,2,0:0:0:0:
256,192,82917,1,0,0:0:0:0:
256,192,83028,1,2,0:0:0:0:
256,192,83084,1,2,0:0:0:0:
256,192,83139,1,0,0:0:0:0:
256,192,83251,1,2,0:0:0:0:
256,192,83306,1,2,0:0:0:0:
256,192,83362,1,0,0:0:0:0:
256,192,83473,1,2,0:0:0:0:
256,192,83584,1,0,0:0:0:0:
256,192,83639,1,2,0:0:0:0:
256,192,83695,1,0,0:0:0:0:
256,192,83806,1,2,0:0:0:0:
256,192,83917,1,0,0:0:0:0:
256,192,83973,1,0,0:0:0:0:
256,192,84028,1,2,0:0:0:0:
256,192,84139,1,0,0:0:0:0:
256,192,84195,1,0,0:0:0:0:
256,192,84251,1,2,0:0:0:0:
256,192,84306,1,0,0:0:0:0:
256,192,84362,1,2,0:0:0:0:
256,192,84417,1,2,0:0:0:0:
256,192,84473,1,0,0:0:0:0:
256,192,84510,1,2,0:0:0:0:
256,192,84547,1,2,0:0:0:0:
256,192,84584,1,0,0:0:0:0:
256,192,84695,1,2,0:0:0:0:
256,192,84751,1,2,0:0:0:0:
256,192,84806,1,0,0:0:0:0:
256,192,84917,1,2,0:0:0:0:
256,192,84973,1,2,0:0:0:0:
256,192,85028,1,0,0:0:0:0:
256,192,85139,1,2,0:0:0:0:
256,192,85195,1,2,0:0:0:0:
256,192,85251,1,0,0:0:0:0:
256,192,85306,1,0,0:0:0:0:
256,192,85362,1,2,0:0:0:0:
256,192,85473,1,0,0:0:0:0:
256,192,85528,1,0,0:0:0:0:
256,192,85584,1,2,0:0:0:0:
256,192,85639,1,2,0:0:0:0:
256,192,85695,1,0,0:0:0:0:
256,192,85751,1,2,0:0:0:0:
256,192,85806,1,2,0:0:0:0:
256,192,85862,1,2,0:0:0:0:
256,192,85917,1,0,0:0:0:0:
256,192,85973,1,0,0:0:0:0:
256,192,86028,1,2,0:0:0:0:
256,192,86084,1,0,0:0:0:0:
256,192,86139,1,2,0:0:0:0:
256,192,86251,1,2,0:0:0:0:
256,192,86306,1,2,0:0:0:0:
256,192,86362,1,0,0:0:0:0:
256,192,86473,1,2,0:0:0:0:
256,192,86584,1,0,0:0:0:0:
256,192,86639,1,0,0:0:0:0:
256,192,86695,1,2,0:0:0:0:
256,192,86806,1,0,0:0:0:0:
256,192,86862,1,0,0:0:0:0:
256,192,86917,1,2,0:0:0:0:
256,192,86973,1,2,0:0:0:0:
256,192,87028,1,0,0:0:0:0:
256,192,87084,1,0,0:0:0:0:
256,192,87139,1,2,0:0:0:0:
256,192,87251,1,0,0:0:0:0:
256,192,87362,1,2,0:0:0:0:
256,192,87417,1,2,0:0:0:0:
256,192,87473,1,0,0:0:0:0:
256,192,87528,1,2,0:0:0:0:
256,192,87584,1,0,0:0:0:0:
256,192,87639,1,2,0:0:0:0:
256,192,87695,1,0,0:0:0:0:
256,192,87751,1,0,0:0:0:0:
256,192,87806,1,2,0:0:0:0:
256,192,87843,1,2,0:0:0:0:
256,192,87880,1,2,0:0:0:0:
256,192,87917,1,0,0:0:0:0:
256,192,87973,1,0,0:0:0:0:
256,192,88028,1,2,0:0:0:0:
256,192,88139,1,4,0:0:0:0:
256,192,88251,1,2,0:0:0:0:
256,192,88306,1,2,0:0:0:0:
256,192,88362,1,0,0:0:0:0:
256,192,88473,1,2,0:0:0:0:
256,192,88528,1,2,0:0:0:0:
256,192,88584,1,0,0:0:0:0:
256,192,88695,1,2,0:0:0:0:
256,192,88751,1,2,0:0:0:0:
256,192,88806,1,0,0:0:0:0:
256,192,88862,1,0,0:0:0:0:
256,192,88917,1,2,0:0:0:0:
256,192,89028,1,0,0:0:0:0:
256,192,89084,1,0,0:0:0:0:
256,192,89139,1,2,0:0:0:0:
256,192,89195,1,0,0:0:0:0:
256,192,89251,1,2,0:0:0:0:
256,192,89306,1,2,0:0:0:0:
256,192,89362,1,0,0:0:0:0:
256,192,89417,1,2,0:0:0:0:
256,192,89473,1,0,0:0:0:0:
256,192,89528,1,0,0:0:0:0:
256,192,89584,1,2,0:0:0:0:
256,192,89639,1,2,0:0:0:0:
256,192,89695,1,0,0:0:0:0:
256,192,89751,1,0,0:0:0:0:
256,192,89806,1,2,0:0:0:0:
256,192,89917,1,0,0:0:0:0:
256,192,89973,1,0,0:0:0:0:
256,192,90028,1,0,0:0:0:0:
256,192,90084,1,0,0:0:0:0:
256,192,90139,1,2,0:0:0:0:
256,192,90195,1,2,0:0:0:0:
256,192,90251,1,2,0:0:0:0:
256,192,90306,1,2,0:0:0:0:
256,192,90362,1,0,0:0:0:0:
256,192,90417,1,0,0:0:0:0:
256,192,90473,1,2,0:0:0:0:
256,192,90528,1,2,0:0:0:0:
256,192,90584,1,0,0:0:0:0:
256,192,90639,1,2,0:0:0:0:
256,192,90695,1,2,0:0:0:0:
256,192,90751,1,2,0:0:0:0:
256,192,90806,1,0,0:0:0:0:
256,192,90862,1,2,0:0:0:0:
256,192,90917,1,2,0:0:0:0:
256,192,90973,1,0,0:0:0:0:
256,192,91028,1,2,0:0:0:0:
256,192,91084,1,2,0:0:0:0:
256,192,91139,1,2,0:0:0:0:
256,192,91195,1,2,0:0:0:0:
256,192,91251,1,0,0:0:0:0:
256,192,91306,1,2,0:0:0:0:
256,192,91362,1,0,0:0:0:0:
256,192,91417,1,0,0:0:0:0:
256,192,91473,1,2,0:0:0:0:
256,192,91510,1,2,0:0:0:0:
256,192,91547,1,2,0:0:0:0:
256,192,91584,1,2,0:0:0:0:
256,192,91695,5,4,0:0:0:0:
256,192,91806,1,2,0:0:0:0:
256,192,91862,1,2,0:0:0:0:
256,192,91917,1,0,0:0:0:0:
256,192,92028,1,2,0:0:0:0:
256,192,92084,1,2,0:0:0:0:
256,192,92139,1,0,0:0:0:0:
256,192,92195,1,0,0:0:0:0:
256,192,92251,1,2,0:0:0:0:
256,192,92306,1,2,0:0:0:0:
256,192,92362,1,0,0:0:0:0:
256,192,92417,1,0,0:0:0:0:
256,192,92473,1,2,0:0:0:0:
256,192,92584,1,0,0:0:0:0:
256,192,92639,1,0,0:0:0:0:
256,192,92695,1,2,0:0:0:0:
256,192,92751,1,2,0:0:0:0:
256,192,92806,1,0,0:0:0:0:
256,192,92862,1,2,0:0:0:0:
256,192,92917,1,2,0:0:0:0:
256,192,92973,1,2,0:0:0:0:
256,192,93028,1,0,0:0:0:0:
256,192,93084,1,0,0:0:0:0:
256,192,93139,1,2,0:0:0:0:
256,192,93195,1,0,0:0:0:0:
256,192,93251,1,2,0:0:0:0:
256,192,93362,1,2,0:0:0:0:
256,192,93417,1,2,0:0:0:0:
256,192,93473,1,0,0:0:0:0:
256,192,93584,1,2,0:0:0:0:
256,192,93695,1,0,0:0:0:0:
256,192,93751,1,0,0:0:0:0:
256,192,93806,1,2,0:0:0:0:
256,192,93862,1,2,0:0:0:0:
256,192,93917,1,0,0:0:0:0:
256,192,93973,1,0,0:0:0:0:
256,192,94028,1,2,0:0:0:0:
256,192,94084,1,2,0:0:0:0:
256,192,94139,1,0,0:0:0:0:
256,192,94195,1,2,0:0:0:0:
256,192,94251,1,2,0:0:0:0:
256,192,94362,1,0,0:0:0:0:
256,192,94417,1,2,0:0:0:0:
256,192,94473,1,0,0:0:0:0:
256,192,94528,1,0,0:0:0:0:
256,192,94584,1,2,0:0:0:0:
256,192,94639,1,0,0:0:0:0:
256,192,94695,1,2,0:0:0:0:
256,192,94751,1,2,0:0:0:0:
256,192,94806,1,0,0:0:0:0:
256,192,94862,1,0,0:0:0:0:
256,192,94917,1,2,0:0:0:0:
256,192,94954,1,2,0:0:0:0:
256,192,94991,1,2,0:0:0:0:
256,192,95028,1,0,0:0:0:0:
256,192,95084,1,0,0:0:0:0:
256,192,95139,1,2,0:0:0:0:
256,192,95251,1,4,0:0:0:0:
256,192,95362,1,2,0:0:0:0:
256,192,95417,1,2,0:0:0:0:
256,192,95473,1,0,0:0:0:0:
256,192,95584,1,2,0:0:0:0:
256,192,95639,1,2,0:0:0:0:
256,192,95695,1,0,0:0:0:0:
256,192,95751,1,0,0:0:0:0:
256,192,95806,1,2,0:0:0:0:
256,192,95862,1,2,0:0:0:0:
256,192,95917,1,0,0:0:0:0:
256,192,95973,1,0,0:0:0:0:
256,192,96028,1,2,0:0:0:0:
256,192,96139,1,0,0:0:0:0:
256,192,96195,1,2,0:0:0:0:
256,192,96251,1,0,0:0:0:0:
256,192,96306,1,0,0:0:0:0:
256,192,96362,1,2,0:0:0:0:
256,192,96417,1,0,0:0:0:0:
256,192,96473,1,2,0:0:0:0:
256,192,96528,1,0,0:0:0:0:
256,192,96584,1,2,0:0:0:0:
256,192,96639,1,2,0:0:0:0:
256,192,96695,1,0,0:0:0:0:
256,192,96751,1,2,0:0:0:0:
256,192,96806,1,0,0:0:0:0:
256,192,96862,1,0,0:0:0:0:
256,192,96917,1,2,0:0:0:0:
256,192,96973,1,2,0:0:0:0:
256,192,97028,1,0,0:0:0:0:
256,192,97139,1,2,0:0:0:0:
256,192,97251,1,0,0:0:0:0:
256,192,97306,1,0,0:0:0:0:
256,192,97362,1,2,0:0:0:0:
256,192,97473,1,0,0:0:0:0:
256,192,97528,1,2,0:0:0:0:
256,192,97584,1,2,0:0:0:0:
256,192,97639,1,2,0:0:0:0:
256,192,97695,1,0,0:0:0:0:
256,192,97751,1,0,0:0:0:0:
256,192,97806,1,2,0:0:0:0:
256,192,97917,1,2,0:0:0:0:
256,192,97954,1,2,0:0:0:0:
256,192,97991,1,2,0:0:0:0:
256,192,98028,1,0,0:0:0:0:
256,192,98084,1,0,0:0:0:0:
256,192,98139,1,2,0:0:0:0:
256,192,98195,1,0,0:0:0:0:
256,192,98251,1,2,0:0:0:0:
256,192,98306,1,2,0:0:0:0:
256,192,98362,1,0,0:0:0:0:
256,192,98399,1,0,0:0:0:0:
256,192,98436,1,0,0:0:0:0:
256,192,98473,1,2,0:0:0:0:
256,192,98528,1,2,0:0:0:0:
256,192,98584,1,0,0:0:0:0:
256,192,98639,1,0,0:0:0:0:
256,192,98695,1,0,0:0:0:0:
256,192,98806,5,4,0:0:0:0:
256,192,98917,1,2,0:0:0:0:
256,192,98973,1,2,0:0:0:0:
256,192,99028,1,0,0:0:0:0:
256,192,99139,1,2,0:0:0:0:
256,192,99195,1,2,0:0:0:0:
256,192,99251,1,0,0:0:0:0:
256,192,99362,1,2,0:0:0:0:
256,192,99417,1,2,0:0:0:0:
256,192,99473,1,0,0:0:0:0:
256,192,99528,1,0,0:0:0:0:
256,192,99584,1,2,0:0:0:0:
256,192,99695,1,0,0:0:0:0:
256,192,99751,1,2,0:0:0:0:
256,192,99806,1,0,0:0:0:0:
256,192,99862,1,2,0:0:0:0:
256,192,99917,1,0,0:0:0:0:
256,192,99973,1,0,0:0:0:0:
256,192,100028,1,2,0:0:0:0:
256,192,100084,1,2,0:0:0:0:
256,192,100139,1,0,0:0:0:0:
256,192,100251,1,6,0:0:0:0:
256,192,100584,1,0,0:0:0:0:
256,192,100695,1,0,0:0:0:0:
256,192,100751,1,2,0:0:0:0:
256,192,100806,1,0,0:0:0:0:
256,192,100862,1,0,0:0:0:0:
256,192,100917,1,2,0:0:0:0:
256,192,100973,1,2,0:0:0:0:
256,192,101028,1,0,0:0:0:0:
256,192,101084,1,0,0:0:0:0:
256,192,101139,1,2,0:0:0:0:
256,192,101195,1,2,0:0:0:0:
256,192,101251,1,0,0:0:0:0:
256,192,101306,1,0,0:0:0:0:
256,192,101362,1,2,0:0:0:0:
256,192,101399,1,2,0:0:0:0:
256,192,101436,1,2,0:0:0:0:
256,192,101473,1,0,0:0:0:0:
256,192,101584,1,0,0:0:0:0:
256,192,101639,1,0,0:0:0:0:
256,192,101695,1,2,0:0:0:0:
256,192,101806,1,0,0:0:0:0:
256,192,101917,1,6,0:0:0:0:
256,192,102028,1,6,0:0:0:0:
256,192,102139,1,6,0:0:0:0:
256,192,102251,1,6,0:0:0:0:
256,192,102362,1,4,0:0:0:0:
256,192,102473,12,0,102806,0:0:0:0:
256,192,102917,5,0,0:0:0:0:
256,192,102945,1,0,0:0:0:0:
256,192,103028,1,0,0:0:0:0:
256,192,103056,1,0,0:0:0:0:
256,192,103139,1,2,0:0:0:0:
256,192,103167,1,2,0:0:0:0:
256,192,103251,5,4,0:0:0:0:
256,192,103362,12,0,103695,0:0:0:0:
256,192,103806,5,2,0:0:0:0:
256,192,103917,1,2,0:0:0:0:
256,192,104028,1,2,0:0:0:0:
256,192,104139,1,4,0:0:0:0:
256,192,104251,1,2,0:0:0:0:
256,192,104306,1,2,0:0:0:0:
256,192,104362,1,0,0:0:0:0:
256,192,104473,1,2,0:0:0:0:
256,192,104584,1,0,0:0:0:0:
256,192,104639,1,0,0:0:0:0:
256,192,104695,1,0,0:0:0:0:
256,192,104751,1,0,0:0:0:0:
256,192,104806,1,2,0:0:0:0:
256,192,104862,1,2,0:0:0:0:
256,192,104917,1,2,0:0:0:0:
256,192,105028,1,4,0:0:0:0:
256,192,105473,1,0,0:0:0:0:
256,192,105528,1,0,0:0:0:0:
256,192,105584,1,0,0:0:0:0:
256,192,105639,1,0,0:0:0:0:
256,192,105695,1,2,0:0:0:0:
256,192,105732,1,2,0:0:0:0:
256,192,105769,1,2,0:0:0:0:
256,192,105806,1,2,0:0:0:0:
256,192,105843,1,2,0:0:0:0:
256,192,105880,1,2,0:0:0:0:
256,192,105917,5,0,0:0:0:0:
256,192,106139,1,2,0:0:0:0:
256,192,106251,1,2,0:0:0:0:
256,192,106473,1,0,0:0:0:0:
256,192,106528,1,0,0:0:0:0:
256,192,106584,1,2,0:0:0:0:
256,192,106695,1,2,0:0:0:0:
256,192,106806,1,0,0:0:0:0:
256,192,107028,1,2,0:0:0:0:
256,192,107139,1,2,0:0:0:0:
256,192,107362,1,0,0:0:0:0:
256,192,107473,1,2,0:0:0:0:
256,192,107584,1,2,0:0:0:0:
256,192,107639,1,2,0:0:0:0:
256,192,107695,1,0,0:0:0:0:
256,192,107806,1,0,0:0:0:0:
256,192,107917,1,2,0:0:0:0:
256,192,108028,1,2,0:0:0:0:
256,192,108251,1,0,0:0:0:0:
256,192,108306,1,0,0:0:0:0:
256,192,108362,1,2,0:0:0:0:
256,192,108473,1,2,0:0:0:0:
256,192,108584,1,0,0:0:0:0:
256,192,108806,1,2,0:0:0:0:
256,192,108917,1,0,0:0:0:0:
256,192,109028,1,2,0:0:0:0:
256,192,109084,1,2,0:0:0:0:
256,192,109139,1,0,0:0:0:0:
256,192,109195,1,0,0:0:0:0:
256,192,109251,1,2,0:0:0:0:
256,192,109362,1,2,0:0:0:0:
256,192,109417,1,2,0:0:0:0:
256,192,109473,5,0,0:0:0:0:
256,192,109695,1,2,0:0:0:0:
256,192,109806,1,2,0:0:0:0:
256,192,110028,1,0,0:0:0:0:
256,192,110084,1,0,0:0:0:0:
256,192,110139,1,2,0:0:0:0:
256,192,110251,1,2,0:0:0:0:
256,192,110362,1,0,0:0:0:0:
256,192,110584,1,2,0:0:0:0:
256,192,110695,1,2,0:0:0:0:
256,192,110917,1,0,0:0:0:0:
256,192,111028,1,2,0:0:0:0:
256,192,111139,1,2,0:0:0:0:
256,192,111195,1,2,0:0:0:0:
256,192,111251,1,0,0:0:0:0:
256,192,111362,1,0,0:0:0:0:
256,192,111473,1,2,0:0:0:0:
256,192,111584,1,2,0:0:0:0:
256,192,111806,1,0,0:0:0:0:
256,192,111862,1,0,0:0:0:0:
256,192,111917,1,2,0:0:0:0:
256,192,112028,1,2,0:0:0:0:
256,192,112139,1,0,0:0:0:0:
256,192,112362,1,2,0:0:0:0:
256,192,112473,1,0,0:0:0:0:
256,192,112584,1,2,0:0:0:0:
256,192,112639,1,2,0:0:0:0:
256,192,112695,1,0,0:0:0:0:
256,192,112751,1,0,0:0:0:0:
256,192,112806,1,2,0:0:0:0:
256,192,112862,1,2,0:0:0:0:
256,192,112917,1,2,0:0:0:0:
256,192,113028,1,4,0:0:0:0:
256,192,113251,1,2,0:0:0:0:
256,192,113362,1,2,0:0:0:0:
256,192,113584,1,0,0:0:0:0:
256,192,113639,1,0,0:0:0:0:
256,192,113695,1,2,0:0:0:0:
256,192,113806,1,2,0:0:0:0:
256,192,113917,1,0,0:0:0:0:
256,192,114028,1,0,0:0:0:0:
256,192,114139,1,2,0:0:0:0:
256,192,114251,1,0,0:0:0:0:
256,192,114306,1,2,0:0:0:0:
256,192,114362,1,2,0:0:0:0:
256,192,114473,1,0,0:0:0:0:
256,192,114584,1,2,0:0:0:0:
256,192,114695,1,2,0:0:0:0:
256,192,114751,1,2,0:0:0:0:
256,192,114806,1,0,0:0:0:0:
256,192,114917,1,0,0:0:0:0:
256,192,115028,1,2,0:0:0:0:
256,192,115139,1,2,0:0:0:0:
256,192,115362,1,0,0:0:0:0:
256,192,115473,1,2,0:0:0:0:
256,192,115584,1,2,0:0:0:0:
256,192,115639,1,2,0:0:0:0:
256,192,115695,1,0,0:0:0:0:
256,192,115806,1,0,0:0:0:0:
256,192,115917,1,2,0:0:0:0:
256,192,116028,1,2,0:0:0:0:
256,192,116084,1,2,0:0:0:0:
256,192,116139,1,0,0:0:0:0:
256,192,116195,1,2,0:0:0:0:
256,192,116251,1,2,0:0:0:0:
256,192,116306,1,2,0:0:0:0:
256,192,116362,1,0,0:0:0:0:
256,192,116417,1,0,0:0:0:0:
256,192,116473,1,2,0:0:0:0:
256,192,116528,1,2,0:0:0:0:
256,192,116584,1,0,0:0:0:0:
256,192,116806,1,2,0:0:0:0:
256,192,116917,1,2,0:0:0:0:
256,192,117139,1,0,0:0:0:0:
256,192,117195,1,0,0:0:0:0:
256,192,117251,1,2,0:0:0:0:
256,192,117362,1,2,0:0:0:0:
256,192,117473,1,0,0:0:0:0:
256,192,117584,1,0,0:0:0:0:
256,192,117695,1,2,0:0:0:0:
256,192,117806,1,0,0:0:0:0:
256,192,117862,1,2,0:0:0:0:
256,192,117917,1,2,0:0:0:0:
256,192,118028,1,0,0:0:0:0:
256,192,118139,1,2,0:0:0:0:
256,192,118251,1,2,0:0:0:0:
256,192,118306,1,2,0:0:0:0:
256,192,118362,1,0,0:0:0:0:
256,192,118473,1,0,0:0:0:0:
256,192,118584,1,2,0:0:0:0:
256,192,118695,1,2,0:0:0:0:
256,192,118917,1,0,0:0:0:0:
256,192,119028,1,2,0:0:0:0:
256,192,119139,1,2,0:0:0:0:
256,192,119195,1,2,0:0:0:0:
256,192,119251,1,0,0:0:0:0:
256,192,119362,1,0,0:0:0:0:
256,192,119473,1,2,0:0:0:0:
256,192,119584,1,2,0:0:0:0:
256,192,119639,1,2,0:0:0:0:
256,192,119695,1,0,0:0:0:0:
256,192,119806,1,2,0:0:0:0:
256,192,119862,1,2,0:0:0:0:
256,192,119917,1,0,0:0:0:0:
256,192,119973,1,0,0:0:0:0:
256,192,120028,1,2,0:0:0:0:
256,192,120139,5,0,0:0:0:0:
256,192,120195,1,0,0:0:0:0:
256,192,120251,1,2,0:0:0:0:
256,192,120306,1,2,0:0:0:0:
256,192,120362,1,0,0:0:0:0:
256,192,120417,1,0,0:0:0:0:
256,192,120473,1,2,0:0:0:0:
256,192,120528,1,2,0:0:0:0:
256,192,120584,1,0,0:0:0:0:
256,192,120639,1,2,0:0:0:0:
256,192,120695,1,2,0:0:0:0:
256,192,120751,1,2,0:0:0:0:
256,192,120806,1,0,0:0:0:0:
256,192,120862,1,0,0:0:0:0:
256,192,120917,1,2,0:0:0:0:
256,192,120973,1,2,0:0:0:0:
256,192,121028,1,0,0:0:0:0:
256,192,121084,1,0,0:0:0:0:
256,192,121139,1,2,0:0:0:0:
256,192,121195,1,0,0:0:0:0:
256,192,121251,1,2,0:0:0:0:
256,192,121306,1,2,0:0:0:0:
256,192,121362,1,0,0:0:0:0:
256,192,121417,1,2,0:0:0:0:
256,192,121473,1,0,0:0:0:0:
256,192,121528,1,0,0:0:0:0:
256,192,121584,1,2,0:0:0:0:
256,192,121639,1,2,0:0:0:0:
256,192,121695,1,0,0:0:0:0:
256,192,121751,1,0,0:0:0:0:
256,192,121806,1,0,0:0:0:0:
256,192,121862,1,2,0:0:0:0:
256,192,121917,1,0,0:0:0:0:
256,192,121973,1,0,0:0:0:0:
256,192,122028,1,2,0:0:0:0:
256,192,122084,1,2,0:0:0:0:
256,192,122139,1,0,0:0:0:0:
256,192,122195,1,0,0:0:0:0:
256,192,122251,1,2,0:0:0:0:
256,192,122306,1,2,0:0:0:0:
256,192,122362,1,0,0:0:0:0:
256,192,122417,1,2,0:0:0:0:
256,192,122473,1,2,0:0:0:0:
256,192,122528,1,2,0:0:0:0:
256,192,122584,1,0,0:0:0:0:
256,192,122639,1,0,0:0:0:0:
256,192,122695,1,2,0:0:0:0:
256,192,122751,1,2,0:0:0:0:
256,192,122806,1,0,0:0:0:0:
256,192,122862,1,0,0:0:0:0:
256,192,122917,1,2,0:0:0:0:
256,192,122973,1,0,0:0:0:0:
256,192,123028,1,0,0:0:0:0:
256,192,123084,1,2,0:0:0:0:
256,192,123139,1,0,0:0:0:0:
256,192,123195,1,0,0:0:0:0:
256,192,123251,1,2,0:0:0:0:
256,192,123306,1,2,0:0:0:0:
256,192,123362,1,0,0:0:0:0:
256,192,123417,1,2,0:0:0:0:
256,192,123473,1,0,0:0:0:0:
256,192,123528,1,0,0:0:0:0:
256,192,123584,1,2,0:0:0:0:
256,192,123639,1,2,0:0:0:0:
256,192,123695,1,0,0:0:0:0:
256,192,123751,1,0,0:0:0:0:
256,192,123806,1,2,0:0:0:0:
256,192,123862,1,2,0:0:0:0:
256,192,123917,1,0,0:0:0:0:
256,192,123973,1,2,0:0:0:0:
256,192,124028,1,2,0:0:0:0:
256,192,124084,1,2,0:0:0:0:
256,192,124139,1,0,0:0:0:0:
256,192,124195,1,0,0:0:0:0:
256,192,124251,1,2,0:0:0:0:
256,192,124306,1,0,0:0:0:0:
256,192,124362,1,2,0:0:0:0:
256,192,124417,1,2,0:0:0:0:
256,192,124473,1,0,0:0:0:0:
256,192,124528,1,2,0:0:0:0:
256,192,124584,1,0,0:0:0:0:
256,192,124639,1,2,0:0:0:0:
256,192,124695,1,2,0:0:0:0:
256,192,124751,1,0,0:0:0:0:
256,192,124806,1,2,0:0:0:0:
256,192,124862,1,2,0:0:0:0:
256,192,124917,1,0,0:0:0:0:
256,192,124973,1,0,0:0:0:0:
256,192,125028,1,2,0:0:0:0:
256,192,125084,1,0,0:0:0:0:
256,192,125139,1,0,0:0:0:0:
256,192,125195,1,0,0:0:0:0:
256,192,125251,1,2,0:0:0:0:
256,192,125306,1,0,0:0:0:0:
256,192,125362,1,2,0:0:0:0:
256,192,125417,1,2,0:0:0:0:
256,192,125473,1,0,0:0:0:0:
256,192,125528,1,0,0:0:0:0:
256,192,125584,1,2,0:0:0:0:
256,192,125621,1,2,0:0:0:0:
256,192,125658,1,2,0:0:0:0:
256,192,125695,1,0,0:0:0:0:
256,192,125751,1,0,0:0:0:0:
256,192,125806,1,2,0:0:0:0:
256,192,125862,1,2,0:0:0:0:
256,192,125917,1,0,0:0:0:0:
256,192,125973,1,0,0:0:0:0:
256,192,126028,1,2,0:0:0:0:
256,192,126065,1,2,0:0:0:0:
256,192,126102,1,2,0:0:0:0:
256,192,126139,1,0,0:0:0:0:
256,192,126195,1,0,0:0:0:0:
256,192,126251,1,2,0:0:0:0:
256,192,126306,1,2,0:0:0:0:
256,192,126362,1,0,0:0:0:0:
256,192,126417,1,2,0:0:0:0:
256,192,126473,1,2,0:0:0:0:
256,192,126528,1,0,0:0:0:0:
256,192,126584,1,2,0:0:0:0:
256,192,126639,1,2,0:0:0:0:
256,192,126695,1,0,0:0:0:0:
256,192,126751,1,0,0:0:0:0:
256,192,126806,1,2,0:0:0:0:
256,192,126834,1,2,0:0:0:0:
256,192,126917,1,0,0:0:0:0:
256,192,126945,1,0,0:0:0:0:
256,192,127028,1,2,0:0:0:0:
256,192,127056,1,2,0:0:0:0:
256,192,127139,1,2,0:0:0:0:
256,192,127167,1,2,0:0:0:0:
256,192,127251,5,0,0:0:0:0:
256,192,127306,1,0,0:0:0:0:
256,192,127362,1,2,0:0:0:0:
256,192,127417,1,2,0:0:0:0:
256,192,127473,1,0,0:0:0:0:
256,192,127528,1,0,0:0:0:0:
256,192,127584,1,2,0:0:0:0:
256,192,127639,1,2,0:0:0:0:
256,192,127695,1,0,0:0:0:0:
256,192,127751,1,2,0:0:0:0:
256,192,127806,1,2,0:0:0:0:
256,192,127862,1,2,0:0:0:0:
256,192,127917,1,0,0:0:0:0:
256,192,127973,1,0,0:0:0:0:
256,192,128028,1,2,0:0:0:0:
256,192,128084,1,2,0:0:0:0:
256,192,128139,1,0,0:0:0:0:
256,192,128195,1,0,0:0:0:0:
256,192,128251,1,2,0:0:0:0:
256,192,128306,1,0,0:0:0:0:
256,192,128362,1,2,0:0:0:0:
256,192,128417,1,2,0:0:0:0:
256,192,128473,1,0,0:0:0:0:
256,192,128528,1,2,0:0:0:0:
256,192,128584,1,0,0:0:0:0:
256,192,128639,1,0,0:0:0:0:
256,192,128695,1,2,0:0:0:0:
256,192,128751,1,2,0:0:0:0:
256,192,128806,1,0,0:0:0:0:
256,192,128862,1,0,0:0:0:0:
256,192,128917,1,0,0:0:0:0:
256,192,128973,1,2,0:0:0:0:
256,192,129028,1,0,0:0:0:0:
256,192,129084,1,0,0:0:0:0:
256,192,129139,1,2,0:0:0:0:
256,192,129195,1,2,0:0:0:0:
256,192,129251,1,0,0:0:0:0:
256,192,129306,1,0,0:0:0:0:
256,192,129362,1,2,0:0:0:0:
256,192,129417,1,2,0:0:0:0:
256,192,129473,1,0,0:0:0:0:
256,192,129528,1,2,0:0:0:0:
256,192,129584,1,2,0:0:0:0:
256,192,129639,1,2,0:0:0:0:
256,192,129695,1,0,0:0:0:0:
256,192,129751,1,0,0:0:0:0:
256,192,129806,1,2,0:0:0:0:
256,192,129862,1,2,0:0:0:0:
256,192,129917,1,0,0:0:0:0:
256,192,129973,1,0,0:0:0:0:
256,192,130028,1,2,0:0:0:0:
256,192,130084,1,0,0:0:0:0:
256,192,130139,1,0,0:0:0:0:
256,192,130195,1,2,0:0:0:0:
256,192,130251,1,0,0:0:0:0:
256,192,130306,1,0,0:0:0:0:
256,192,130362,1,2,0:0:0:0:
256,192,130417,1,0,0:0:0:0:
256,192,130473,1,2,0:0:0:0:
256,192,130528,1,2,0:0:0:0:
256,192,130584,1,0,0:0:0:0:
256,192,130639,1,2,0:0:0:0:
256,192,130695,1,2,0:0:0:0:
256,192,130751,1,2,0:0:0:0:
256,192,130806,1,0,0:0:0:0:
256,192,130917,1,2,0:0:0:0:
256,192,130973,1,2,0:0:0:0:
256,192,131028,1,0,0:0:0:0:
256,192,131139,1,2,0:0:0:0:
256,192,131195,1,2,0:0:0:0:
256,192,131251,1,0,0:0:0:0:
256,192,131362,1,2,0:0:0:0:
256,192,131417,1,2,0:0:0:0:
256,192,131473,1,0,0:0:0:0:
256,192,131528,1,0,0:0:0:0:
256,192,131584,1,2,0:0:0:0:
256,192,131695,1,0,0:0:0:0:
256,192,131751,1,0,0:0:0:0:
256,192,131806,1,2,0:0:0:0:
256,192,131862,1,2,0:0:0:0:
256,192,131917,1,0,0:0:0:0:
256,192,131973,1,0,0:0:0:0:
256,192,132028,1,0,0:0:0:0:
256,192,132084,1,2,0:0:0:0:
256,192,132139,1,0,0:0:0:0:
256,192,132195,1,0,0:0:0:0:
256,192,132251,1,2,0:0:0:0:
256,192,132306,1,2,0:0:0:0:
256,192,132362,1,0,0:0:0:0:
256,192,132417,1,2,0:0:0:0:
256,192,132473,1,2,0:0:0:0:
256,192,132584,1,2,0:0:0:0:
256,192,132639,1,2,0:0:0:0:
256,192,132695,1,0,0:0:0:0:
256,192,132751,1,0,0:0:0:0:
256,192,132806,1,2,0:0:0:0:
256,192,132862,1,2,0:0:0:0:
256,192,132917,1,0,0:0:0:0:
256,192,132973,1,0,0:0:0:0:
256,192,133028,1,2,0:0:0:0:
256,192,133084,1,2,0:0:0:0:
256,192,133139,1,0,0:0:0:0:
256,192,133195,1,0,0:0:0:0:
256,192,133251,1,2,0:0:0:0:
256,192,133306,1,2,0:0:0:0:
256,192,133362,1,0,0:0:0:0:
256,192,133417,1,0,0:0:0:0:
256,192,133473,1,2,0:0:0:0:
256,192,133584,1,0,0:0:0:0:
256,192,133639,1,0,0:0:0:0:
256,192,133695,1,2,0:0:0:0:
256,192,133806,1,2,0:0:0:0:
256,192,133862,1,2,0:0:0:0:
256,192,133917,1,0,0:0:0:0:
256,192,133973,1,2,0:0:0:0:
256,192,134028,1,0,0:0:0:0:
256,192,134084,1,0,0:0:0:0:
256,192,134139,1,2,0:0:0:0:
256,192,134195,1,2,0:0:0:0:
256,192,134251,1,2,0:0:0:0:
256,192,134362,5,0,0:0:0:0:
256,192,134473,1,2,0:0:0:0:
256,192,134528,1,2,0:0:0:0:
256,192,134584,1,0,0:0:0:0:
256,192,134695,1,0,0:0:0:0:
256,192,134751,1,0,0:0:0:0:
256,192,134806,1,2,0:0:0:0:
256,192,134917,1,2,0:0:0:0:
256,192,134973,1,2,0:0:0:0:
256,192,135028,1,0,0:0:0:0:
256,192,135139,1,0,0:0:0:0:
256,192,135195,1,2,0:0:0:0:
256,192,135251,1,0,0:0:0:0:
256,192,135362,1,2,0:0:0:0:
256,192,135417,1,2,0:0:0:0:
256,192,135473,1,0,0:0:0:0:
256,192,135584,1,0,0:0:0:0:
256,192,135639,1,0,0:0:0:0:
256,192,135695,1,2,0:0:0:0:
256,192,135806,1,2,0:0:0:0:
256,192,135862,1,0,0:0:0:0:
256,192,135917,1,0,0:0:0:0:
256,192,136028,1,2,0:0:0:0:
256,192,136139,1,0,0:0:0:0:
256,192,136167,1,0,0:0:0:0:
256,192,136251,1,2,0:0:0:0:
256,192,136278,1,2,0:0:0:0:
256,192,136362,1,0,0:0:0:0:
256,192,136389,1,0,0:0:0:0:
256,192,136473,1,0,0:0:0:0:
256,192,136501,1,0,0:0:0:0:
256,192,136584,1,0,0:0:0:0:
256,192,136612,1,0,0:0:0:0:
256,192,136695,1,2,0:0:0:0:
256,192,136723,1,2,0:0:0:0:
256,192,136806,1,0,0:0:0:0:
256,192,136834,1,0,0:0:0:0:
256,192,136917,1,2,0:0:0:0:
256,192,136945,1,2,0:0:0:0:
256,192,137028,1,0,0:0:0:0:
256,192,137139,1,2,0:0:0:0:
256,192,137195,1,2,0:0:0:0:
256,192,137251,1,0,0:0:0:0:
256,192,137362,1,0,0:0:0:0:
256,192,137417,1,0,0:0:0:0:
256,192,137473,1,2,0:0:0:0:
256,192,137584,1,2,0:0:0:0:
256,192,137639,1,2,0:0:0:0:
256,192,137695,1,0,0:0:0:0:
256,192,137806,1,0,0:0:0:0:
256,192,137862,1,2,0:0:0:0:
256,192,137917,1,0,0:0:0:0:
256,192,138028,1,2,0:0:0:0:
256,192,138084,1,2,0:0:0:0:
256,192,138139,1,0,0:0:0:0:
256,192,138251,1,0,0:0:0:0:
256,192,138306,1,0,0:0:0:0:
256,192,138362,1,2,0:0:0:0:
256,192,138473,1,2,0:0:0:0:
256,192,138528,1,0,0:0:0:0:
256,192,138584,1,0,0:0:0:0:
256,192,138695,1,2,0:0:0:0:
256,192,138751,1,2,0:0:0:0:
256,192,138806,1,0,0:0:0:0:
256,192,138917,1,2,0:0:0:0:
256,192,138973,1,2,0:0:0:0:
256,192,139028,1,0,0:0:0:0:
256,192,139084,1,0,0:0:0:0:
256,192,139139,1,2,0:0:0:0:
256,192,139177,1,2,0:0:0:0:
256,192,139214,1,2,0:0:0:0:
256,192,139251,1,0,0:0:0:0:
256,192,139306,1,0,0:0:0:0:
256,192,139362,1,2,0:0:0:0:
256,192,139399,1,2,0:0:0:0:
256,192,139436,1,2,0:0:0:0:
256,192,139473,1,0,0:0:0:0:
256,192,139528,1,0,0:0:0:0:
256,192,139584,1,0,0:0:0:0:
256,192,139695,1,0,0:0:0:0:
256,192,139806,1,2,0:0:0:0:
256,192,139843,1,2,0:0:0:0:
256,192,139880,1,2,0:0:0:0:
256,192,139917,1,0,0:0:0:0:
256,192,140028,1,0,0:0:0:0:
256,192,140065,1,2,0:0:0:0:
256,192,140102,1,2,0:0:0:0:
256,192,140139,1,0,0:0:0:0:
256,192,140251,1,2,0:0:0:0:
256,192,140288,1,0,0:0:0:0:
256,192,140325,1,0,0:0:0:0:
256,192,140362,1,2,0:0:0:0:
256,192,140473,1,2,0:0:0:0:
256,192,140510,1,2,0:0:0:0:
256,192,140547,1,2,0:0:0:0:
256,192,140584,1,0,0:0:0:0:
256,192,140695,1,0,0:0:0:0:
256,192,140751,1,0,0:0:0:0:
256,192,140806,1,2,0:0:0:0:
256,192,140917,1,0,0:0:0:0:
256,192,141028,1,2,0:0:0:0:
256,192,141084,1,2,0:0:0:0:
256,192,141139,1,0,0:0:0:0:
256,192,141195,1,0,0:0:0:0:
256,192,141251,1,2,0:0:0:0:
256,192,141288,1,2,0:0:0:0:
256,192,141325,1,2,0:0:0:0:
256,192,141362,1,2,0:0:0:0:
256,192,141473,1,0,0:0:0:0:
256,192,141584,1,2,0:0:0:0:
256,192,141639,1,2,0:0:0:0:
256,192,141695,1,0,0:0:0:0:
256,192,141806,1,0,0:0:0:0:
256,192,141862,1,0,0:0:0:0:
256,192,141917,1,2,0:0:0:0:
256,192,142028,1,2,0:0:0:0:
256,192,142084,1,2,0:0:0:0:
256,192,142139,1,0,0:0:0:0:
256,192,142251,1,0,0:0:0:0:
256,192,142306,1,2,0:0:0:0:
256,192,142362,1,0,0:0:0:0:
256,192,142473,1,2,0:0:0:0:
256,192,142528,1,2,0:0:0:0:
256,192,142584,1,0,0:0:0:0:
256,192,142695,1,0,0:0:0:0:
256,192,142751,1,0,0:0:0:0:
256,192,142806,1,2,0:0:0:0:
256,192,142917,1,2,0:0:0:0:
256,192,142973,1,0,0:0:0:0:
256,192,143028,1,2,0:0:0:0:
256,192,143084,1,2,0:0:0:0:
256,192,143139,1,2,0:0:0:0:
256,192,143195,1,2,0:0:0:0:
256,192,143251,1,0,0:0:0:0:
256,192,143362,1,0,0:0:0:0:
256,192,143417,1,2,0:0:0:0:
256,192,143473,1,0,0:0:0:0:
256,192,143528,1,2,0:0:0:0:
256,192,143584,1,0,0:0:0:0:
256,192,143639,1,2,0:0:0:0:
256,192,143695,1,0,0:0:0:0:
256,192,143751,1,0,0:0:0:0:
256,192,143806,1,2,0:0:0:0:
256,192,143843,1,2,0:0:0:0:
256,192,143880,1,2,0:0:0:0:
256,192,143917,1,0,0:0:0:0:
256,192,143973,1,0,0:0:0:0:
256,192,144028,1,2,0:0:0:0:
256,192,144139,1,0,0:0:0:0:
256,192,144251,1,2,0:0:0:0:
256,192,144306,1,2,0:0:0:0:
256,192,144362,1,0,0:0:0:0:
256,192,144473,1,2,0:0:0:0:
256,192,144528,1,2,0:0:0:0:
256,192,144584,1,0,0:0:0:0:
256,192,144695,1,2,0:0:0:0:
256,192,144751,1,2,0:0:0:0:
256,192,144806,1,0,0:0:0:0:
256,192,144862,1,0,0:0:0:0:
256,192,144917,1,2,0:0:0:0:
256,192,145028,1,0,0:0:0:0:
256,192,145139,1,2,0:0:0:0:
256,192,145195,1,0,0:0:0:0:
256,192,145251,1,0,0:0:0:0:
256,192,145362,1,2,0:0:0:0:
256,192,145417,1,0,0:0:0:0:
256,192,145473,1,0,0:0:0:0:
256,192,145584,1,2,0:0:0:0:
256,192,145639,1,0,0:0:0:0:
256,192,145695,1,0,0:0:0:0:
256,192,145751,1,0,0:0:0:0:
256,192,145806,1,2,0:0:0:0:
256,192,145917,1,0,0:0:0:0:
256,192,146028,1,2,0:0:0:0:
256,192,146084,1,2,0:0:0:0:
256,192,146139,1,0,0:0:0:0:
256,192,146251,1,2,0:0:0:0:
256,192,146306,1,2,0:0:0:0:
256,192,146362,1,0,0:0:0:0:
256,192,146473,1,0,0:0:0:0:
256,192,146528,1,2,0:0:0:0:
256,192,146584,1,0,0:0:0:0:
256,192,146639,1,0,0:0:0:0:
256,192,146695,1,2,0:0:0:0:
256,192,146806,1,0,0:0:0:0:
256,192,146917,1,2,0:0:0:0:
256,192,146973,1,2,0:0:0:0:
256,192,147028,1,0,0:0:0:0:
256,192,147139,1,2,0:0:0:0:
256,192,147195,1,2,0:0:0:0:
256,192,147251,1,0,0:0:0:0:
256,192,147362,1,2,0:0:0:0:
256,192,147417,1,2,0:0:0:0:
256,192,147473,1,0,0:0:0:0:
256,192,147584,1,2,0:0:0:0:
256,192,147639,1,2,0:0:0:0:
256,192,147695,1,0,0:0:0:0:
256,192,147806,1,0,0:0:0:0:
256,192,147862,1,2,0:0:0:0:
256,192,147917,1,0,0:0:0:0:
256,192,147973,1,0,0:0:0:0:
256,192,148028,1,2,0:0:0:0:
256,192,148084,1,2,0:0:0:0:
256,192,148139,1,0,0:0:0:0:
256,192,148177,1,0,0:0:0:0:
256,192,148214,1,0,0:0:0:0:
256,192,148251,1,2,0:0:0:0:
256,192,148288,1,2,0:0:0:0:
256,192,148325,1,2,0:0:0:0:
256,192,148584,12,2,150584,0:0:0:0:
