osu file format v14

[General]
AudioFilename: audio.mp3
AudioLeadIn: 0
PreviewTime: 13917
Countdown: 1
SampleSet: Normal
StackLeniency: 0.7
Mode: 1
LetterboxInBreaks: 0
WidescreenStoryboard: 0

[Editor]
Bookmarks: 14362,28584,35695,42806,57028,77473,91695,98806,105917,127251,134362,141473
DistanceSpacing: 0.8
BeatDivisor: 2
GridSize: 32
TimelineZoom: 1.7

[Metadata]
Title:Fuck Them All
TitleUnicode:Fuck Them All
Artist:Hardestboy
ArtistUnicode:Hardestboy
Creator:tasuke912
Version:Oni
Source:osu!
Tags:featured artist fa rst renketsu:one rising sun traxx RST-0001 ATTACK THE MUSIC Electronic Terrorcore Breakcore Instrumental
BeatmapID:2223032
BeatmapSetID:1061580

[Difficulty]
HPDrainRate:5
CircleSize:2
OverallDifficulty:6.5
ApproachRate:5
SliderMultiplier:1.4
SliderTickRate:1

[Events]
//Background and Video events
0,0,"bg.jpg",0,0
//Break Periods
//Storyboard Layer 0 (Background)
//Storyboard Layer 1 (Fail)
//Storyboard Layer 2 (Pass)
//Storyboard Layer 3 (Foreground)
//Storyboard Layer 4 (Overlay)
//Storyboard Sound Samples

[TimingPoints]
140,222.222222222222,4,1,0,80,1,0
140,-111.111111111111,4,1,0,80,0,0
14362,-100,4,1,0,80,0,0
42806,-111.111111111111,4,1,0,80,0,0
61473,-100,4,1,0,80,0,0
75695,-100,4,1,0,60,0,0
76973,-100,4,1,0,80,0,0
106139,-105.263157894737,4,1,0,80,0,0
106473,-111.111111111111,4,1,0,80,0,0
120139,-100,4,1,0,80,0,1
148584,-100,4,1,0,50,0,0

[HitObjects]
256,192,140,5,4,0:0:0:0:
256,192,362,1,2,0:0:0:0:
256,192,695,1,0,0:0:0:0:
256,192,806,1,2,0:0:0:0:
256,192,1028,1,0,0:0:0:0:
256,192,1251,1,2,0:0:0:0:
256,192,1584,1,0,0:0:0:0:
256,192,1695,1,2,0:0:0:0:
256,192,1917,1,0,0:0:0:0:
256,192,2139,1,2,0:0:0:0:
256,192,2473,1,0,0:0:0:0:
256,192,2584,1,2,0:0:0:0:
256,192,2806,1,0,0:0:0:0:
256,192,3028,1,2,0:0:0:0:
256,192,3473,1,2,0:0:0:0:
256,192,3584,1,2,0:0:0:0:
256,192,3695,1,0,0:0:0:0:
256,192,3917,1,2,0:0:0:0:
256,192,4251,1,0,0:0:0:0:
256,192,4362,1,2,0:0:0:0:
256,192,4584,1,0,0:0:0:0:
256,192,4806,1,2,0:0:0:0:
256,192,5139,1,0,0:0:0:0:
256,192,5251,1,2,0:0:0:0:
256,192,5473,1,0,0:0:0:0:
256,192,5695,1,2,0:0:0:0:
256,192,6028,1,0,0:0:0:0:
256,192,6139,1,2,0:0:0:0:
256,192,6362,1,0,0:0:0:0:
256,192,6584,1,2,0:0:0:0:
256,192,6695,1,2,0:0:0:0:
256,192,6917,1,2,0:0:0:0:
256,192,7028,1,2,0:0:0:0:
256,192,7251,1,4,0:0:0:0:
256,192,7473,1,2,0:0:0:0:
256,192,7806,1,0,0:0:0:0:
256,192,7917,1,2,0:0:0:0:
256,192,8028,1,2,0:0:0:0:
256,192,8139,1,0,0:0:0:0:
256,192,8362,1,2,0:0:0:0:
256,192,8695,1,0,0:0:0:0:
256,192,8806,1,2,0:0:0:0:
256,192,9028,1,0,0:0:0:0:
256,192,9251,1,2,0:0:0:0:
256,192,9584,1,0,0:0:0:0:
256,192,9695,1,2,0:0:0:0:
256,192,9806,1,2,0:0:0:0:
256,192,9917,1,0,0:0:0:0:
256,192,10139,1,2,0:0:0:0:
256,192,10584,1,2,0:0:0:0:
256,192,10695,1,2,0:0:0:0:
256,192,10806,1,0,0:0:0:0:
256,192,11028,1,2,0:0:0:0:
256,192,11362,1,0,0:0:0:0:
256,192,11473,1,2,0:0:0:0:
256,192,11584,1,2,0:0:0:0:
256,192,11695,1,0,0:0:0:0:
256,192,11917,1,2,0:0:0:0:
256,192,12251,1,0,0:0:0:0:
256,192,12362,1,2,0:0:0:0:
256,192,12584,1,0,0:0:0:0:
256,192,12806,1,2,0:0:0:0:
256,192,13139,1,0,0:0:0:0:
256,192,13251,1,2,0:0:0:0:
256,192,13362,1,2,0:0:0:0:
256,192,13473,1,0,0:0:0:0:
256,192,13695,1,2,0:0:0:0:
256,192,13806,1,2,0:0:0:0:
256,192,14028,1,0,0:0:0:0:
256,192,14139,1,0,0:0:0:0:
256,192,14251,1,2,0:0:0:0:
256,192,14362,1,4,0:0:0:0:
256,192,14584,1,0,0:0:0:0:
256,192,14695,1,2,0:0:0:0:
256,192,14806,1,0,0:0:0:0:
256,192,14917,1,2,0:0:0:0:
256,192,15028,1,0,0:0:0:0:
256,192,15251,1,0,0:0:0:0:
256,192,15362,1,2,0:0:0:0:
256,192,15473,1,0,0:0:0:0:
256,192,15584,1,2,0:0:0:0:
256,192,15695,1,0,0:0:0:0:
256,192,15806,1,2,0:0:0:0:
256,192,15917,1,0,0:0:0:0:
256,192,16139,1,0,0:0:0:0:
256,192,16362,1,0,0:0:0:0:
256,192,16473,1,2,0:0:0:0:
256,192,16584,1,0,0:0:0:0:
256,192,16695,1,2,0:0:0:0:
256,192,16806,1,0,0:0:0:0:
256,192,17028,1,0,0:0:0:0:
256,192,17251,1,2,0:0:0:0:
256,192,17362,1,2,0:0:0:0:
256,192,17473,1,0,0:0:0:0:
256,192,17584,1,0,0:0:0:0:
256,192,17695,1,0,0:0:0:0:
256,192,17806,1,0,0:0:0:0:
256,192,17917,1,0,0:0:0:0:
256,192,18139,1,0,0:0:0:0:
256,192,18251,1,2,0:0:0:0:
256,192,18362,1,0,0:0:0:0:
256,192,18473,1,2,0:0:0:0:
256,192,18584,1,0,0:0:0:0:
256,192,18806,1,0,0:0:0:0:
256,192,18917,1,2,0:0:0:0:
256,192,19028,1,0,0:0:0:0:
256,192,19139,1,2,0:0:0:0:
256,192,19251,1,0,0:0:0:0:
256,192,19362,1,2,0:0:0:0:
256,192,19473,1,0,0:0:0:0:
256,192,19695,1,0,0:0:0:0:
256,192,19917,1,0,0:0:0:0:
256,192,20028,1,2,0:0:0:0:
256,192,20139,1,0,0:0:0:0:
256,192,20251,1,2,0:0:0:0:
256,192,20362,1,0,0:0:0:0:
256,192,20473,1,2,0:0:0:0:
256,192,20584,1,0,0:0:0:0:
256,192,20806,1,0,0:0:0:0:
256,192,20917,1,0,0:0:0:0:
256,192,21028,1,0,0:0:0:0:
256,192,21084,1,0,0:0:0:0:
256,192,21139,1,0,0:0:0:0:
256,192,21251,1,2,0:0:0:0:
256,192,21362,1,2,0:0:0:0:
256,192,21473,1,4,0:0:0:0:
256,192,21695,1,0,0:0:0:0:
256,192,21806,1,2,0:0:0:0:
256,192,21917,1,0,0:0:0:0:
256,192,22028,1,2,0:0:0:0:
256,192,22139,1,0,0:0:0:0:
256,192,22362,1,0,0:0:0:0:
256,192,22473,1,2,0:0:0:0:
256,192,22584,1,0,0:0:0:0:
256,192,22695,1,2,0:0:0:0:
256,192,22806,1,0,0:0:0:0:
256,192,22917,1,2,0:0:0:0:
256,192,23028,1,0,0:0:0:0:
256,192,23251,1,0,0:0:0:0:
256,192,23473,1,0,0:0:0:0:
256,192,23584,1,2,0:0:0:0:
256,192,23695,1,0,0:0:0:0:
256,192,23806,1,2,0:0:0:0:
256,192,23917,1,0,0:0:0:0:
256,192,24139,1,0,0:0:0:0:
256,192,24362,1,2,0:0:0:0:
256,192,24473,1,2,0:0:0:0:
256,192,24584,1,0,0:0:0:0:
256,192,24695,1,0,0:0:0:0:
256,192,24806,1,0,0:0:0:0:
256,192,24917,1,0,0:0:0:0:
256,192,25028,1,0,0:0:0:0:
256,192,25251,1,0,0:0:0:0:
256,192,25362,1,2,0:0:0:0:
256,192,25473,1,0,0:0:0:0:
256,192,25584,1,2,0:0:0:0:
256,192,25695,1,0,0:0:0:0:
256,192,25917,1,0,0:0:0:0:
256,192,26028,1,2,0:0:0:0:
256,192,26139,1,0,0:0:0:0:
256,192,26251,1,2,0:0:0:0:
256,192,26362,1,0,0:0:0:0:
256,192,26473,1,2,0:0:0:0:
256,192,26584,1,0,0:0:0:0:
256,192,26806,1,0,0:0:0:0:
256,192,27028,1,0,0:0:0:0:
256,192,27139,1,2,0:0:0:0:
256,192,27251,1,0,0:0:0:0:
256,192,27362,1,2,0:0:0:0:
256,192,27473,1,0,0:0:0:0:
256,192,27584,1,2,0:0:0:0:
256,192,27695,1,0,0:0:0:0:
256,192,28139,1,2,0:0:0:0:
256,192,28251,1,0,0:0:0:0:
256,192,28362,1,2,0:0:0:0:
256,192,28473,1,2,0:0:0:0:
256,192,28584,5,4,0:0:0:0:
256,192,28806,1,0,0:0:0:0:
256,192,28917,1,2,0:0:0:0:
256,192,29028,1,0,0:0:0:0:
256,192,29139,1,2,0:0:0:0:
256,192,29251,1,0,0:0:0:0:
256,192,29473,1,0,0:0:0:0:
256,192,29584,1,2,0:0:0:0:
256,192,29695,1,0,0:0:0:0:
256,192,29806,1,2,0:0:0:0:
256,192,29917,1,0,0:0:0:0:
256,192,30028,1,2,0:0:0:0:
256,192,30139,1,0,0:0:0:0:
256,192,30362,1,0,0:0:0:0:
256,192,30584,1,0,0:0:0:0:
256,192,30695,1,2,0:0:0:0:
256,192,30806,1,0,0:0:0:0:
256,192,30917,1,2,0:0:0:0:
256,192,31028,1,0,0:0:0:0:
256,192,31251,1,0,0:0:0:0:
256,192,31473,1,2,0:0:0:0:
256,192,31584,1,2,0:0:0:0:
256,192,31695,1,0,0:0:0:0:
256,192,31806,1,0,0:0:0:0:
256,192,31917,1,0,0:0:0:0:
256,192,32028,1,0,0:0:0:0:
256,192,32139,1,0,0:0:0:0:
256,192,32362,1,0,0:0:0:0:
256,192,32473,1,2,0:0:0:0:
256,192,32584,1,0,0:0:0:0:
256,192,32695,1,2,0:0:0:0:
256,192,32806,1,0,0:0:0:0:
256,192,33028,1,0,0:0:0:0:
256,192,33139,1,2,0:0:0:0:
256,192,33251,1,0,0:0:0:0:
256,192,33362,1,2,0:0:0:0:
256,192,33473,1,0,0:0:0:0:
256,192,33584,1,2,0:0:0:0:
256,192,33695,1,0,0:0:0:0:
256,192,33917,1,0,0:0:0:0:
256,192,34139,1,0,0:0:0:0:
256,192,34251,1,2,0:0:0:0:
256,192,34362,1,0,0:0:0:0:
256,192,34473,1,2,0:0:0:0:
256,192,34584,1,0,0:0:0:0:
256,192,34695,1,2,0:0:0:0:
256,192,34806,1,0,0:0:0:0:
256,192,35028,1,2,0:0:0:0:
256,192,35139,1,2,0:0:0:0:
256,192,35251,1,0,0:0:0:0:
256,192,35306,1,0,0:0:0:0:
256,192,35362,1,0,0:0:0:0:
256,192,35473,1,2,0:0:0:0:
256,192,35584,1,2,0:0:0:0:
256,192,35695,5,4,0:0:0:0:
256,192,35917,1,0,0:0:0:0:
256,192,36028,1,2,0:0:0:0:
256,192,36139,1,0,0:0:0:0:
256,192,36251,1,2,0:0:0:0:
256,192,36362,1,0,0:0:0:0:
256,192,36584,1,2,0:0:0:0:
256,192,36695,1,2,0:0:0:0:
256,192,36806,1,0,0:0:0:0:
256,192,36917,1,2,0:0:0:0:
256,192,37028,1,0,0:0:0:0:
256,192,37139,1,2,0:0:0:0:
256,192,37251,1,0,0:0:0:0:
256,192,37473,1,0,0:0:0:0:
256,192,37695,1,0,0:0:0:0:
256,192,37806,1,2,0:0:0:0:
256,192,37917,1,0,0:0:0:0:
256,192,38028,1,2,0:0:0:0:
256,192,38139,1,0,0:0:0:0:
256,192,38362,1,2,0:0:0:0:
256,192,38584,1,0,0:0:0:0:
256,192,38695,1,2,0:0:0:0:
256,192,38806,1,0,0:0:0:0:
256,192,38917,1,0,0:0:0:0:
256,192,39028,1,0,0:0:0:0:
256,192,39139,1,0,0:0:0:0:
256,192,39251,1,0,0:0:0:0:
256,192,39473,1,0,0:0:0:0:
256,192,39584,1,2,0:0:0:0:
256,192,39695,1,0,0:0:0:0:
256,192,39806,1,2,0:0:0:0:
256,192,39917,1,0,0:0:0:0:
256,192,39973,1,0,0:0:0:0:
256,192,40028,1,0,0:0:0:0:
256,192,40139,1,0,0:0:0:0:
256,192,40362,1,2,0:0:0:0:
256,192,40473,1,2,0:0:0:0:
256,192,40584,1,0,0:0:0:0:
256,192,40695,1,0,0:0:0:0:
256,192,40806,1,0,0:0:0:0:
256,192,40917,1,0,0:0:0:0:
256,192,41028,1,0,0:0:0:0:
256,192,41251,1,2,0:0:0:0:
256,192,41306,1,2,0:0:0:0:
256,192,41362,1,2,0:0:0:0:
256,192,41473,1,0,0:0:0:0:
256,192,41584,1,0,0:0:0:0:
256,192,41695,1,2,0:0:0:0:
256,192,41751,1,2,0:0:0:0:
256,192,41806,1,2,0:0:0:0:
256,192,41917,1,0,0:0:0:0:
256,192,42028,1,0,0:0:0:0:
256,192,42139,1,0,0:0:0:0:
256,192,42251,1,0,0:0:0:0:
256,192,42362,1,2,0:0:0:0:
256,192,42417,1,2,0:0:0:0:
256,192,42473,1,2,0:0:0:0:
256,192,42584,1,2,0:0:0:0:
256,192,42806,5,4,0:0:0:0:
256,192,43028,1,2,0:0:0:0:
256,192,43362,1,0,0:0:0:0:
256,192,43473,1,2,0:0:0:0:
256,192,43695,1,0,0:0:0:0:
256,192,43917,1,2,0:0:0:0:
256,192,44251,1,0,0:0:0:0:
256,192,44362,1,2,0:0:0:0:
256,192,44473,1,2,0:0:0:0:
256,192,44584,1,0,0:0:0:0:
256,192,44806,1,2,0:0:0:0:
256,192,45139,1,0,0:0:0:0:
256,192,45251,1,2,0:0:0:0:
256,192,45473,1,0,0:0:0:0:
256,192,45695,1,2,0:0:0:0:
256,192,45806,1,2,0:0:0:0:
256,192,46028,1,2,0:0:0:0:
256,192,46139,1,0,0:0:0:0:
256,192,46251,1,2,0:0:0:0:
256,192,46362,1,0,0:0:0:0:
256,192,46584,1,2,0:0:0:0:
256,192,46917,1,0,0:0:0:0:
256,192,47028,1,2,0:0:0:0:
256,192,47251,1,0,0:0:0:0:
256,192,47473,1,2,0:0:0:0:
256,192,47806,1,0,0:0:0:0:
256,192,47917,1,2,0:0:0:0:
256,192,48028,1,2,0:0:0:0:
256,192,48139,1,0,0:0:0:0:
256,192,48362,1,2,0:0:0:0:
256,192,48695,1,0,0:0:0:0:
256,192,48806,1,2,0:0:0:0:
256,192,49028,1,0,0:0:0:0:
256,192,49251,1,2,0:0:0:0:
256,192,49362,1,2,0:0:0:0:
256,192,49584,1,2,0:0:0:0:
256,192,49695,1,0,0:0:0:0:
256,192,49806,1,2,0:0:0:0:
256,192,49917,1,0,0:0:0:0:
256,192,50139,1,2,0:0:0:0:
256,192,50473,1,0,0:0:0:0:
256,192,50584,1,2,0:0:0:0:
256,192,50695,1,2,0:0:0:0:
256,192,50806,1,0,0:0:0:0:
256,192,51028,1,0,0:0:0:0:
256,192,51139,1,2,0:0:0:0:
256,192,51362,1,2,0:0:0:0:
256,192,51473,1,0,0:0:0:0:
256,192,51584,1,2,0:0:0:0:
256,192,51695,1,0,0:0:0:0:
256,192,51917,1,0,0:0:0:0:
256,192,52028,1,2,0:0:0:0:
256,192,52251,1,0,0:0:0:0:
256,192,52362,1,2,0:0:0:0:
256,192,52473,1,2,0:0:0:0:
256,192,52584,1,0,0:0:0:0:
256,192,52806,1,2,0:0:0:0:
256,192,52917,1,2,0:0:0:0:
256,192,53028,1,0,0:0:0:0:
256,192,53139,1,0,0:0:0:0:
256,192,53251,1,2,0:0:0:0:
256,192,53473,1,0,0:0:0:0:
256,192,53695,1,2,0:0:0:0:
256,192,54028,1,0,0:0:0:0:
256,192,54139,1,2,0:0:0:0:
256,192,54251,1,2,0:0:0:0:
256,192,54362,1,0,0:0:0:0:
256,192,54584,1,0,0:0:0:0:
256,192,54695,1,2,0:0:0:0:
256,192,54917,1,2,0:0:0:0:
256,192,55028,1,0,0:0:0:0:
256,192,55139,1,2,0:0:0:0:
256,192,55251,1,0,0:0:0:0:
256,192,55473,1,2,0:0:0:0:
256,192,55584,1,2,0:0:0:0:
256,192,55695,1,0,0:0:0:0:
256,192,55806,1,2,0:0:0:0:
256,192,55917,1,0,0:0:0:0:
256,192,56028,1,2,0:0:0:0:
256,192,56139,1,0,0:0:0:0:
256,192,56362,1,0,0:0:0:0:
256,192,56473,1,2,0:0:0:0:
256,192,56584,1,0,0:0:0:0:
256,192,56695,1,0,0:0:0:0:
256,192,56806,1,2,0:0:0:0:
256,192,56917,1,2,0:0:0:0:
256,192,61473,1,0,0:0:0:0:
256,192,61695,1,0,0:0:0:0:
256,192,61806,1,2,0:0:0:0:
256,192,61917,1,0,0:0:0:0:
256,192,62028,1,2,0:0:0:0:
256,192,62139,1,0,0:0:0:0:
256,192,62362,1,0,0:0:0:0:
256,192,62473,1,0,0:0:0:0:
256,192,62584,1,0,0:0:0:0:
256,192,62695,1,0,0:0:0:0:
256,192,62806,1,0,0:0:0:0:
256,192,62917,1,0,0:0:0:0:
256,192,63028,1,0,0:0:0:0:
256,192,63139,1,0,0:0:0:0:
256,192,63251,1,0,0:0:0:0:
256,192,63473,1,0,0:0:0:0:
256,192,63584,1,2,0:0:0:0:
256,192,63695,1,0,0:0:0:0:
256,192,63806,1,2,0:0:0:0:
256,192,63917,1,0,0:0:0:0:
256,192,64139,1,0,0:0:0:0:
256,192,64251,1,0,0:0:0:0:
256,192,64362,1,0,0:0:0:0:
256,192,64473,1,0,0:0:0:0:
256,192,64584,1,2,0:0:0:0:
256,192,64639,1,2,0:0:0:0:
256,192,64695,1,2,0:0:0:0:
256,192,64806,1,2,0:0:0:0:
256,192,65028,1,0,0:0:0:0:
256,192,65251,1,0,0:0:0:0:
256,192,65362,1,2,0:0:0:0:
256,192,65473,1,0,0:0:0:0:
256,192,65584,1,2,0:0:0:0:
256,192,65695,1,0,0:0:0:0:
256,192,65917,1,2,0:0:0:0:
256,192,66028,1,0,0:0:0:0:
256,192,66139,1,2,0:0:0:0:
256,192,66251,1,0,0:0:0:0:
256,192,66362,1,2,0:0:0:0:
256,192,66473,1,0,0:0:0:0:
256,192,66584,1,2,0:0:0:0:
256,192,66806,1,2,0:0:0:0:
256,192,66917,1,2,0:0:0:0:
256,192,67028,1,0,0:0:0:0:
256,192,67139,1,2,0:0:0:0:
256,192,67251,1,0,0:0:0:0:
256,192,67362,1,2,0:0:0:0:
256,192,67473,1,0,0:0:0:0:
256,192,67584,1,2,0:0:0:0:
256,192,67695,1,0,0:0:0:0:
256,192,67917,1,2,0:0:0:0:
256,192,68139,1,2,0:0:0:0:
256,192,68362,1,2,0:0:0:0:
0,160,68584,2,2,P|157:70|128:288,1,490
256,192,69473,1,2,0:0:0:0:
256,192,69584,1,2,0:0:0:0:
256,192,69695,1,2,0:0:0:0:
256,192,69806,1,2,0:0:0:0:
256,192,69917,1,2,0:0:0:0:
256,192,70028,1,2,0:0:0:0:
256,192,70139,1,2,0:0:0:0:
256,192,70251,1,2,0:0:0:0:
48,93,70362,2,6,L|276:46,1,210
81,117,70806,2,6,L|294:73,1,210
256,192,71251,1,6,0:0:0:0:
256,192,71473,1,6,0:0:0:0:
256,192,71695,1,6,0:0:0:0:
256,192,71917,1,6,0:0:0:0:
109,120,72139,2,0,P|287:70|421:317,1,490
161,290,73028,2,4,P|108:188|370:108,1,490
154,265,73917,2,0,L|370:242,1,210
363,148,74362,2,4,L|147:131,1,210
128,160,74806,1,4,0:0:0:0:
128,160,75028,1,4,0:0:0:0:
128,160,75251,1,6,0:0:0:0:
128,160,75362,1,6,0:0:0:0:
256,192,75695,12,0,76806,0:0:0:0:
256,192,77028,5,2,0:0:0:0:
256,192,77139,1,2,0:0:0:0:
256,192,77251,1,2,0:0:0:0:
256,192,77473,1,4,0:0:0:0:
256,192,77695,1,0,0:0:0:0:
256,192,77806,1,2,0:0:0:0:
256,192,77917,1,0,0:0:0:0:
256,192,78028,1,2,0:0:0:0:
256,192,78139,1,0,0:0:0:0:
256,192,78251,1,2,0:0:0:0:
256,192,78362,1,0,0:0:0:0:
256,192,78584,1,0,0:0:0:0:
256,192,78695,1,2,0:0:0:0:
256,192,78806,1,0,0:0:0:0:
256,192,78917,1,2,0:0:0:0:
256,192,79028,1,0,0:0:0:0:
256,192,79251,1,0,0:0:0:0:
256,192,79362,1,2,0:0:0:0:
256,192,79473,1,0,0:0:0:0:
256,192,79584,1,2,0:0:0:0:
256,192,79695,1,0,0:0:0:0:
256,192,79806,1,2,0:0:0:0:
256,192,79917,1,0,0:0:0:0:
256,192,80028,1,2,0:0:0:0:
256,192,80139,1,0,0:0:0:0:
256,192,80362,1,0,0:0:0:0:
256,192,80473,1,0,0:0:0:0:
256,192,80584,1,0,0:0:0:0:
256,192,80695,1,2,0:0:0:0:
256,192,80806,1,0,0:0:0:0:
256,192,80917,1,2,0:0:0:0:
256,192,81028,1,4,0:0:0:0:
256,192,81251,1,0,0:0:0:0:
256,192,81362,1,2,0:0:0:0:
256,192,81473,1,0,0:0:0:0:
256,192,81584,1,2,0:0:0:0:
256,192,81695,1,0,0:0:0:0:
256,192,81806,1,2,0:0:0:0:
256,192,81917,1,0,0:0:0:0:
256,192,82139,1,0,0:0:0:0:
256,192,82251,1,2,0:0:0:0:
256,192,82362,1,0,0:0:0:0:
256,192,82473,1,2,0:0:0:0:
256,192,82584,1,0,0:0:0:0:
256,192,82806,1,2,0:0:0:0:
256,192,83028,1,2,0:0:0:0:
256,192,83251,1,2,0:0:0:0:
256,192,83473,1,2,0:0:0:0:
256,192,83584,1,2,0:0:0:0:
256,192,83695,1,0,0:0:0:0:
256,192,83806,1,2,0:0:0:0:
256,192,83917,1,0,0:0:0:0:
256,192,84028,1,0,0:0:0:0:
256,192,84139,1,0,0:0:0:0:
256,192,84251,1,0,0:0:0:0:
256,192,84306,1,0,0:0:0:0:
256,192,84362,1,0,0:0:0:0:
256,192,84473,1,2,0:0:0:0:
256,192,84584,1,4,0:0:0:0:
256,192,84806,1,0,0:0:0:0:
256,192,84917,1,2,0:0:0:0:
256,192,85028,1,0,0:0:0:0:
256,192,85139,1,2,0:0:0:0:
256,192,85251,1,0,0:0:0:0:
256,192,85362,1,2,0:0:0:0:
256,192,85473,1,0,0:0:0:0:
256,192,85695,1,0,0:0:0:0:
256,192,85806,1,2,0:0:0:0:
256,192,85917,1,0,0:0:0:0:
256,192,86028,1,2,0:0:0:0:
256,192,86139,1,0,0:0:0:0:
256,192,86362,1,0,0:0:0:0:
256,192,86473,1,2,0:0:0:0:
256,192,86584,1,0,0:0:0:0:
256,192,86695,1,2,0:0:0:0:
256,192,86806,1,0,0:0:0:0:
256,192,86917,1,2,0:0:0:0:
256,192,87028,1,0,0:0:0:0:
256,192,87139,1,2,0:0:0:0:
256,192,87251,1,0,0:0:0:0:
256,192,87473,1,0,0:0:0:0:
256,192,87584,1,0,0:0:0:0:
256,192,87695,1,0,0:0:0:0:
256,192,87806,1,2,0:0:0:0:
256,192,87917,1,0,0:0:0:0:
256,192,88028,1,2,0:0:0:0:
256,192,88139,1,4,0:0:0:0:
256,192,88362,1,0,0:0:0:0:
256,192,88473,1,2,0:0:0:0:
256,192,88584,1,0,0:0:0:0:
256,192,88695,1,2,0:0:0:0:
256,192,88806,1,0,0:0:0:0:
256,192,88917,1,2,0:0:0:0:
256,192,89028,1,0,0:0:0:0:
256,192,89251,1,0,0:0:0:0:
256,192,89362,1,2,0:0:0:0:
256,192,89473,1,0,0:0:0:0:
256,192,89584,1,2,0:0:0:0:
256,192,89695,1,0,0:0:0:0:
256,192,89917,1,0,0:0:0:0:
256,192,90139,1,0,0:0:0:0:
256,192,90251,1,2,0:0:0:0:
256,192,90362,1,0,0:0:0:0:
256,192,90473,1,2,0:0:0:0:
256,192,90584,1,2,0:0:0:0:
256,192,90806,1,2,0:0:0:0:
256,192,90917,1,2,0:0:0:0:
256,192,91028,1,0,0:0:0:0:
256,192,91084,1,0,0:0:0:0:
256,192,91139,1,0,0:0:0:0:
256,192,91251,1,2,0:0:0:0:
256,192,91362,1,0,0:0:0:0:
256,192,91473,1,2,0:0:0:0:
256,192,91695,5,4,0:0:0:0:
256,192,91917,1,0,0:0:0:0:
256,192,92028,1,2,0:0:0:0:
256,192,92139,1,0,0:0:0:0:
256,192,92251,1,2,0:0:0:0:
256,192,92362,1,0,0:0:0:0:
256,192,92473,1,2,0:0:0:0:
256,192,92584,1,0,0:0:0:0:
256,192,92806,1,0,0:0:0:0:
256,192,92917,1,2,0:0:0:0:
256,192,93028,1,0,0:0:0:0:
256,192,93139,1,2,0:0:0:0:
256,192,93251,1,0,0:0:0:0:
256,192,93473,1,0,0:0:0:0:
256,192,93584,1,2,0:0:0:0:
256,192,93695,1,0,0:0:0:0:
256,192,93806,1,2,0:0:0:0:
256,192,93917,1,0,0:0:0:0:
256,192,94028,1,2,0:0:0:0:
256,192,94139,1,0,0:0:0:0:
256,192,94251,1,2,0:0:0:0:
256,192,94362,1,0,0:0:0:0:
256,192,94584,1,0,0:0:0:0:
256,192,94695,1,0,0:0:0:0:
256,192,94806,1,0,0:0:0:0:
256,192,94917,1,2,0:0:0:0:
256,192,95028,1,0,0:0:0:0:
256,192,95139,1,2,0:0:0:0:
256,192,95251,1,4,0:0:0:0:
256,192,95473,1,0,0:0:0:0:
256,192,95584,1,2,0:0:0:0:
256,192,95695,1,0,0:0:0:0:
256,192,95806,1,2,0:0:0:0:
256,192,95917,1,0,0:0:0:0:
256,192,96028,1,2,0:0:0:0:
256,192,96139,1,0,0:0:0:0:
256,192,96251,1,0,0:0:0:0:
256,192,96362,1,0,0:0:0:0:
256,192,96473,1,0,0:0:0:0:
256,192,96584,1,0,0:0:0:0:
256,192,96695,1,0,0:0:0:0:
256,192,96806,1,0,0:0:0:0:
256,192,96917,1,0,0:0:0:0:
256,192,97028,12,0,97695,0:0:0:0:
256,192,97917,5,2,0:0:0:0:
256,192,98028,1,2,0:0:0:0:
256,192,98139,1,0,0:0:0:0:
256,192,98362,1,0,0:0:0:0:
256,192,98473,1,0,0:0:0:0:
256,192,98584,1,2,0:0:0:0:
256,192,98639,1,2,0:0:0:0:
256,192,98695,1,2,0:0:0:0:
256,192,98806,1,4,0:0:0:0:
256,192,99028,1,0,0:0:0:0:
256,192,99139,1,2,0:0:0:0:
256,192,99251,1,0,0:0:0:0:
256,192,99362,1,2,0:0:0:0:
256,192,99473,1,0,0:0:0:0:
256,192,99584,1,2,0:0:0:0:
256,192,99695,1,0,0:0:0:0:
256,192,99806,1,0,0:0:0:0:
256,192,99917,1,0,0:0:0:0:
256,192,100028,1,0,0:0:0:0:
256,192,100139,1,0,0:0:0:0:
256,192,100251,1,2,0:0:0:0:
256,192,100584,1,0,0:0:0:0:
256,192,100695,1,0,0:0:0:0:
256,192,100806,1,2,0:0:0:0:
256,192,100917,1,2,0:0:0:0:
256,192,101028,1,0,0:0:0:0:
256,192,101139,1,2,0:0:0:0:
256,192,101195,1,2,0:0:0:0:
256,192,101251,1,2,0:0:0:0:
256,192,101362,1,2,0:0:0:0:
256,192,101473,1,4,0:0:0:0:
256,192,101695,1,4,0:0:0:0:
256,192,101917,1,4,0:0:0:0:
256,192,102028,1,4,0:0:0:0:
256,192,102139,1,4,0:0:0:0:
256,192,102251,1,4,0:0:0:0:
61,112,102362,2,4,L|380:56,1,280
256,192,102917,1,4,0:0:0:0:
256,192,103028,1,4,0:0:0:0:
256,192,103139,1,4,0:0:0:0:
61,112,103251,2,4,L|380:56,1,280
256,192,103806,1,6,0:0:0:0:
256,192,103917,1,6,0:0:0:0:
256,192,104028,1,6,0:0:0:0:
256,192,104139,1,4,0:0:0:0:
256,192,104362,1,6,0:0:0:0:
256,192,104584,1,4,0:0:0:0:
256,192,104806,1,6,0:0:0:0:
256,192,105028,1,4,0:0:0:0:
256,192,105473,1,0,0:0:0:0:
256,192,105528,1,0,0:0:0:0:
256,192,105584,1,0,0:0:0:0:
256,192,105695,1,2,0:0:0:0:
256,192,105806,1,2,0:0:0:0:
256,192,105917,1,4,0:0:0:0:
256,192,106139,1,2,0:0:0:0:
256,192,106473,1,0,0:0:0:0:
256,192,106584,1,2,0:0:0:0:
256,192,106806,1,0,0:0:0:0:
256,192,107028,1,2,0:0:0:0:
256,192,107362,1,0,0:0:0:0:
256,192,107473,1,2,0:0:0:0:
256,192,107584,1,2,0:0:0:0:
256,192,107695,1,0,0:0:0:0:
256,192,107917,1,2,0:0:0:0:
256,192,108251,1,0,0:0:0:0:
256,192,108362,1,2,0:0:0:0:
256,192,108584,1,0,0:0:0:0:
256,192,108806,1,2,0:0:0:0:
256,192,108917,1,2,0:0:0:0:
256,192,109139,1,2,0:0:0:0:
256,192,109251,1,0,0:0:0:0:
256,192,109362,1,2,0:0:0:0:
256,192,109473,1,0,0:0:0:0:
256,192,109695,1,2,0:0:0:0:
256,192,110028,1,0,0:0:0:0:
256,192,110139,1,2,0:0:0:0:
256,192,110362,1,0,0:0:0:0:
256,192,110584,1,2,0:0:0:0:
256,192,110917,1,0,0:0:0:0:
256,192,111028,1,2,0:0:0:0:
256,192,111139,1,2,0:0:0:0:
256,192,111251,1,0,0:0:0:0:
256,192,111473,1,2,0:0:0:0:
256,192,111806,1,0,0:0:0:0:
256,192,111917,1,2,0:0:0:0:
256,192,112139,1,0,0:0:0:0:
256,192,112362,1,2,0:0:0:0:
256,192,112473,1,2,0:0:0:0:
256,192,112695,1,2,0:0:0:0:
256,192,112806,1,0,0:0:0:0:
256,192,112917,1,2,0:0:0:0:
256,192,113028,1,4,0:0:0:0:
256,192,113251,1,2,0:0:0:0:
256,192,113584,1,0,0:0:0:0:
256,192,113695,1,2,0:0:0:0:
256,192,113917,1,0,0:0:0:0:
256,192,114139,1,2,0:0:0:0:
256,192,114251,1,2,0:0:0:0:
256,192,114473,1,0,0:0:0:0:
256,192,114584,1,2,0:0:0:0:
256,192,114695,1,2,0:0:0:0:
256,192,114806,1,0,0:0:0:0:
256,192,115028,1,0,0:0:0:0:
256,192,115139,1,2,0:0:0:0:
256,192,115362,1,0,0:0:0:0:
256,192,115473,1,2,0:0:0:0:
256,192,115584,1,2,0:0:0:0:
256,192,115695,1,0,0:0:0:0:
256,192,115917,1,0,0:0:0:0:
256,192,116028,1,2,0:0:0:0:
256,192,116139,1,2,0:0:0:0:
256,192,116251,1,0,0:0:0:0:
256,192,116362,1,2,0:0:0:0:
256,192,116473,1,2,0:0:0:0:
256,192,116584,1,0,0:0:0:0:
256,192,116806,1,2,0:0:0:0:
256,192,117139,1,0,0:0:0:0:
256,192,117251,1,2,0:0:0:0:
256,192,117473,1,0,0:0:0:0:
256,192,117695,1,2,0:0:0:0:
256,192,117806,1,2,0:0:0:0:
256,192,118028,1,0,0:0:0:0:
256,192,118139,1,2,0:0:0:0:
256,192,118251,1,2,0:0:0:0:
256,192,118362,1,0,0:0:0:0:
256,192,118584,1,0,0:0:0:0:
256,192,118695,1,2,0:0:0:0:
256,192,118917,1,0,0:0:0:0:
256,192,119028,1,2,0:0:0:0:
256,192,119139,1,2,0:0:0:0:
256,192,119251,1,0,0:0:0:0:
256,192,119473,1,2,0:0:0:0:
256,192,119584,1,2,0:0:0:0:
256,192,119695,1,0,0:0:0:0:
256,192,119806,1,2,0:0:0:0:
256,192,119917,1,2,0:0:0:0:
256,192,120139,5,4,0:0:0:0:
256,192,120362,1,0,0:0:0:0:
256,192,120473,1,2,0:0:0:0:
256,192,120584,1,0,0:0:0:0:
256,192,120695,1,2,0:0:0:0:
256,192,120806,1,0,0:0:0:0:
256,192,120917,1,2,0:0:0:0:
256,192,121028,1,0,0:0:0:0:
256,192,121139,1,2,0:0:0:0:
256,192,121251,1,0,0:0:0:0:
256,192,121362,1,2,0:0:0:0:
256,192,121473,1,0,0:0:0:0:
256,192,121584,1,2,0:0:0:0:
256,192,121695,1,0,0:0:0:0:
256,192,121806,1,2,0:0:0:0:
256,192,121917,1,0,0:0:0:0:
256,192,122028,1,2,0:0:0:0:
256,192,122139,1,0,0:0:0:0:
256,192,122251,1,2,0:0:0:0:
256,192,122362,1,0,0:0:0:0:
256,192,122473,1,2,0:0:0:0:
256,192,122584,1,0,0:0:0:0:
256,192,122695,1,2,0:0:0:0:
256,192,122806,1,0,0:0:0:0:
256,192,122917,1,2,0:0:0:0:
256,192,123028,1,0,0:0:0:0:
256,192,123139,1,2,0:0:0:0:
256,192,123251,1,0,0:0:0:0:
256,192,123362,1,2,0:0:0:0:
256,192,123473,1,0,0:0:0:0:
256,192,123584,1,2,0:0:0:0:
256,192,123695,1,0,0:0:0:0:
256,192,123806,1,2,0:0:0:0:
256,192,123917,1,0,0:0:0:0:
256,192,124028,1,2,0:0:0:0:
256,192,124139,1,0,0:0:0:0:
256,192,124251,1,2,0:0:0:0:
256,192,124362,1,0,0:0:0:0:
256,192,124473,1,2,0:0:0:0:
256,192,124584,1,0,0:0:0:0:
256,192,124695,1,2,0:0:0:0:
256,192,124806,1,0,0:0:0:0:
256,192,124917,1,2,0:0:0:0:
256,192,125028,1,0,0:0:0:0:
256,192,125139,1,2,0:0:0:0:
256,192,125251,1,0,0:0:0:0:
256,192,125473,1,0,0:0:0:0:
256,192,125695,1,2,0:0:0:0:
256,192,125806,1,2,0:0:0:0:
256,192,125917,1,0,0:0:0:0:
256,192,126028,1,2,0:0:0:0:
256,192,126139,1,0,0:0:0:0:
256,192,126251,1,2,0:0:0:0:
256,192,126362,1,0,0:0:0:0:
256,192,126473,1,0,0:0:0:0:
256,192,126584,1,2,0:0:0:0:
256,192,126695,1,0,0:0:0:0:
256,192,126806,1,2,0:0:0:0:
256,192,126862,1,2,0:0:0:0:
256,192,126917,1,2,0:0:0:0:
256,192,127028,1,2,0:0:0:0:
256,192,127251,1,0,0:0:0:0:
256,192,127362,1,2,0:0:0:0:
256,192,127473,1,0,0:0:0:0:
256,192,127584,1,2,0:0:0:0:
256,192,127695,1,0,0:0:0:0:
256,192,127806,1,2,0:0:0:0:
256,192,127917,1,0,0:0:0:0:
256,192,128028,1,2,0:0:0:0:
256,192,128139,1,0,0:0:0:0:
256,192,128251,1,2,0:0:0:0:
256,192,128362,1,0,0:0:0:0:
256,192,128473,1,2,0:0:0:0:
256,192,128584,1,0,0:0:0:0:
256,192,128695,1,2,0:0:0:0:
256,192,128806,1,0,0:0:0:0:
256,192,128917,1,2,0:0:0:0:
256,192,129028,1,0,0:0:0:0:
256,192,129139,1,2,0:0:0:0:
256,192,129251,1,0,0:0:0:0:
256,192,129362,1,2,0:0:0:0:
256,192,129473,1,0,0:0:0:0:
256,192,129584,1,2,0:0:0:0:
256,192,129695,1,0,0:0:0:0:
256,192,129806,1,2,0:0:0:0:
256,192,129917,1,0,0:0:0:0:
256,192,130028,1,2,0:0:0:0:
256,192,130139,1,0,0:0:0:0:
256,192,130251,1,2,0:0:0:0:
256,192,130362,1,0,0:0:0:0:
256,192,130473,1,0,0:0:0:0:
256,192,130584,1,0,0:0:0:0:
256,192,130695,1,0,0:0:0:0:
256,192,130806,1,0,0:0:0:0:
256,192,131028,1,0,0:0:0:0:
256,192,131139,1,2,0:0:0:0:
256,192,131251,1,0,0:0:0:0:
256,192,131362,1,2,0:0:0:0:
256,192,131473,1,0,0:0:0:0:
256,192,131584,1,2,0:0:0:0:
256,192,131695,1,0,0:0:0:0:
256,192,131806,1,2,0:0:0:0:
256,192,131917,1,0,0:0:0:0:
256,192,132028,1,2,0:0:0:0:
256,192,132139,1,0,0:0:0:0:
256,192,132251,1,2,0:0:0:0:
256,192,132362,1,0,0:0:0:0:
256,192,132473,1,2,0:0:0:0:
256,192,132584,1,2,0:0:0:0:
256,192,132695,1,0,0:0:0:0:
256,192,132806,1,2,0:0:0:0:
256,192,132917,1,0,0:0:0:0:
256,192,133028,1,2,0:0:0:0:
256,192,133139,1,0,0:0:0:0:
256,192,133251,1,2,0:0:0:0:
256,192,133362,1,0,0:0:0:0:
256,192,133473,1,2,0:0:0:0:
256,192,133584,1,0,0:0:0:0:
256,192,133695,1,2,0:0:0:0:
256,192,133806,1,0,0:0:0:0:
256,192,133917,1,2,0:0:0:0:
256,192,134139,1,2,0:0:0:0:
256,192,134362,1,0,0:0:0:0:
256,192,134473,1,2,0:0:0:0:
256,192,134584,1,0,0:0:0:0:
256,192,134695,1,2,0:0:0:0:
256,192,134806,1,0,0:0:0:0:
256,192,134917,1,2,0:0:0:0:
256,192,135028,1,0,0:0:0:0:
256,192,135139,1,2,0:0:0:0:
256,192,135251,1,0,0:0:0:0:
256,192,135362,1,2,0:0:0:0:
256,192,135473,1,0,0:0:0:0:
256,192,135584,1,2,0:0:0:0:
256,192,135695,1,0,0:0:0:0:
256,192,135806,1,2,0:0:0:0:
256,192,135917,1,0,0:0:0:0:
256,192,136139,1,0,0:0:0:0:
256,192,136251,1,2,0:0:0:0:
256,192,136362,1,2,0:0:0:0:
256,192,136473,1,0,0:0:0:0:
256,192,136584,1,0,0:0:0:0:
256,192,136695,1,2,0:0:0:0:
256,192,136806,1,2,0:0:0:0:
256,192,136917,1,2,0:0:0:0:
256,192,137028,1,0,0:0:0:0:
256,192,137139,1,2,0:0:0:0:
256,192,137251,1,0,0:0:0:0:
256,192,137362,1,2,0:0:0:0:
256,192,137473,1,0,0:0:0:0:
256,192,137584,1,2,0:0:0:0:
256,192,137695,1,0,0:0:0:0:
256,192,137806,1,2,0:0:0:0:
256,192,137917,1,0,0:0:0:0:
256,192,138028,1,2,0:0:0:0:
256,192,138139,1,0,0:0:0:0:
256,192,138251,1,2,0:0:0:0:
256,192,138362,1,0,0:0:0:0:
256,192,138473,1,2,0:0:0:0:
256,192,138584,1,0,0:0:0:0:
256,192,138806,1,0,0:0:0:0:
256,192,138917,1,0,0:0:0:0:
256,192,139028,1,2,0:0:0:0:
256,192,139084,1,2,0:0:0:0:
256,192,139139,1,2,0:0:0:0:
256,192,139251,1,0,0:0:0:0:
256,192,139362,1,2,0:0:0:0:
256,192,139473,1,0,0:0:0:0:
256,192,139528,1,0,0:0:0:0:
256,192,139584,1,0,0:0:0:0:
256,192,139695,1,0,0:0:0:0:
256,192,139806,1,2,0:0:0:0:
256,192,139917,1,0,0:0:0:0:
256,192,140028,1,2,0:0:0:0:
256,192,140139,1,0,0:0:0:0:
256,192,140251,1,2,0:0:0:0:
256,192,140362,1,0,0:0:0:0:
256,192,140473,1,2,0:0:0:0:
256,192,140584,1,0,0:0:0:0:
256,192,140695,1,0,0:0:0:0:
256,192,140806,1,2,0:0:0:0:
256,192,140917,1,2,0:0:0:0:
256,192,141028,1,0,0:0:0:0:
256,192,141139,1,0,0:0:0:0:
256,192,141251,1,2,0:0:0:0:
256,192,141306,1,2,0:0:0:0:
256,192,141362,1,2,0:0:0:0:
256,192,141473,1,0,0:0:0:0:
256,192,141695,1,0,0:0:0:0:
256,192,141806,1,2,0:0:0:0:
256,192,141917,1,0,0:0:0:0:
256,192,142028,1,2,0:0:0:0:
256,192,142139,1,0,0:0:0:0:
256,192,142251,1,2,0:0:0:0:
256,192,142362,1,0,0:0:0:0:
256,192,142473,1,2,0:0:0:0:
256,192,142584,1,0,0:0:0:0:
256,192,142695,1,2,0:0:0:0:
256,192,142806,1,0,0:0:0:0:
256,192,142917,1,2,0:0:0:0:
256,192,143028,1,2,0:0:0:0:
256,192,143084,1,2,0:0:0:0:
256,192,143139,1,2,0:0:0:0:
256,192,143251,1,0,0:0:0:0:
256,192,143362,1,0,0:0:0:0:
256,192,143473,1,2,0:0:0:0:
256,192,143584,1,0,0:0:0:0:
256,192,143695,1,0,0:0:0:0:
256,192,143806,1,2,0:0:0:0:
256,192,143862,1,2,0:0:0:0:
256,192,143917,1,2,0:0:0:0:
256,192,144028,1,2,0:0:0:0:
256,192,144139,1,0,0:0:0:0:
256,192,144362,1,0,0:0:0:0:
256,192,144473,1,2,0:0:0:0:
256,192,144584,1,0,0:0:0:0:
256,192,144695,1,2,0:0:0:0:
256,192,144806,1,0,0:0:0:0:
256,192,144917,1,2,0:0:0:0:
256,192,145028,1,0,0:0:0:0:
256,192,145139,1,0,0:0:0:0:
256,192,145251,1,2,0:0:0:0:
256,192,145362,1,2,0:0:0:0:
256,192,145473,1,0,0:0:0:0:
256,192,145584,1,0,0:0:0:0:
256,192,145695,1,2,0:0:0:0:
256,192,145806,1,2,0:0:0:0:
256,192,145917,1,0,0:0:0:0:
256,192,146028,1,2,0:0:0:0:
256,192,146139,1,0,0:0:0:0:
256,192,146251,1,2,0:0:0:0:
256,192,146362,1,0,0:0:0:0:
256,192,146473,1,0,0:0:0:0:
256,192,146584,1,0,0:0:0:0:
256,192,146695,1,0,0:0:0:0:
256,192,146806,1,0,0:0:0:0:
256,192,146917,1,2,0:0:0:0:
256,192,147028,1,0,0:0:0:0:
256,192,147139,1,2,0:0:0:0:
256,192,147251,1,0,0:0:0:0:
256,192,147362,1,2,0:0:0:0:
256,192,147473,1,0,0:0:0:0:
256,192,147584,1,2,0:0:0:0:
256,192,147695,1,0,0:0:0:0:
256,192,147806,1,0,0:0:0:0:
256,192,147917,1,0,0:0:0:0:
256,192,148028,1,0,0:0:0:0:
256,192,148139,1,2,0:0:0:0:
256,192,148195,1,2,0:0:0:0:
256,192,148251,1,2,0:0:0:0:
256,192,148306,1,2,0:0:0:0:
256,192,148362,1,2,0:0:0:0:
256,192,148584,12,4,150584,0:0:0:0:
