osu file format v14

[General]
AudioFilename: audio.mp3
AudioLeadIn: 0
PreviewTime: 13917
Countdown: 1
SampleSet: Normal
StackLeniency: 0.7
Mode: 1
LetterboxInBreaks: 0
WidescreenStoryboard: 1

[Editor]
Bookmarks: 14362,28584,35695,42806,57028,77473,91695,98806,105917,122139,127251,134362,141473
DistanceSpacing: 0.8
BeatDivisor: 2
GridSize: 32
TimelineZoom: 1.1

[Metadata]
Title:Fuck Them All
TitleUnicode:Fuck Them All
Artist:Hardestboy
ArtistUnicode:Hardestboy
Creator:tasuke912
Version:Kantan
Source:osu!
Tags:featured artist fa rst renketsu:one rising sun traxx RST-0001 ATTACK THE MUSIC Electronic Terrorcore Breakcore Instrumental
BeatmapID:2413351
BeatmapSetID:1061580

[Difficulty]
HPDrainRate:7
CircleSize:2
OverallDifficulty:3.5
ApproachRate:5
SliderMultiplier:1.2
SliderTickRate:1

[Events]
//Background and Video events
0,0,"bg.jpg",0,0
//Break Periods
//Storyboard Layer 0 (Background)
//Storyboard Layer 1 (Fail)
//Storyboard Layer 2 (Pass)
//Storyboard Layer 3 (Foreground)
//Storyboard Layer 4 (Overlay)
//Storyboard Sound Samples

[TimingPoints]
140,222.222222222222,4,1,0,80,1,0
140,-125,4,1,0,80,0,0
14362,-111.111111111111,4,1,0,80,0,0
43028,-125,4,1,0,80,0,0
61473,-111.111111111111,4,1,0,80,0,0
68584,-111.111111111111,4,1,0,70,0,0
70251,-111.111111111111,4,1,0,80,0,0
72139,-111.111111111111,4,1,0,70,0,0
73806,-111.111111111111,4,1,0,80,0,0
75695,-111.111111111111,4,1,0,60,0,0
77362,-111.111111111111,4,1,0,80,0,0
105917,-125,4,1,0,80,0,0
120139,-111.111111111111,4,1,0,80,0,1
148584,-111.111111111111,4,1,0,50,0,0

[HitObjects]
256,192,140,5,4,0:0:0:0:
256,192,1028,1,0,0:0:0:0:
256,192,1917,1,0,0:0:0:0:
256,192,3695,1,0,0:0:0:0:
256,192,4584,1,0,0:0:0:0:
256,192,5473,1,0,0:0:0:0:
256,192,7251,1,4,0:0:0:0:
256,192,8139,1,0,0:0:0:0:
256,192,9028,1,0,0:0:0:0:
256,192,10806,1,0,0:0:0:0:
256,192,11695,1,0,0:0:0:0:
256,192,12584,1,0,0:0:0:0:
256,192,14362,1,4,0:0:0:0:
256,192,14806,1,0,0:0:0:0:
256,192,15251,1,0,0:0:0:0:
256,192,16139,1,0,0:0:0:0:
256,192,16584,1,0,0:0:0:0:
256,192,17028,1,0,0:0:0:0:
256,192,17917,1,2,0:0:0:0:
256,192,18362,1,2,0:0:0:0:
256,192,18806,1,2,0:0:0:0:
256,192,19695,1,2,0:0:0:0:
256,192,20139,1,2,0:0:0:0:
256,192,20584,1,2,0:0:0:0:
256,192,21473,1,4,0:0:0:0:
256,192,21917,1,0,0:0:0:0:
256,192,22362,1,0,0:0:0:0:
256,192,23251,1,0,0:0:0:0:
256,192,23695,1,0,0:0:0:0:
256,192,24139,1,0,0:0:0:0:
256,192,25028,1,2,0:0:0:0:
256,192,25473,1,2,0:0:0:0:
256,192,25917,1,2,0:0:0:0:
256,192,26806,1,2,0:0:0:0:
256,192,27251,1,2,0:0:0:0:
256,192,27695,1,2,0:0:0:0:
256,192,28584,1,4,0:0:0:0:
256,192,29028,1,2,0:0:0:0:
256,192,29473,1,0,0:0:0:0:
256,192,30362,1,0,0:0:0:0:
256,192,30806,1,2,0:0:0:0:
256,192,31251,1,0,0:0:0:0:
256,192,32139,1,2,0:0:0:0:
256,192,32584,1,0,0:0:0:0:
256,192,33028,1,2,0:0:0:0:
256,192,33917,1,2,0:0:0:0:
256,192,34362,1,0,0:0:0:0:
256,192,34806,1,2,0:0:0:0:
256,192,35695,1,4,0:0:0:0:
256,192,36139,1,0,0:0:0:0:
256,192,36584,1,2,0:0:0:0:
256,192,37473,1,0,0:0:0:0:
256,192,37917,1,0,0:0:0:0:
256,192,38362,1,2,0:0:0:0:
256,192,39251,1,2,0:0:0:0:
256,192,40139,1,0,0:0:0:0:
256,192,41028,1,2,0:0:0:0:
256,192,41473,1,2,0:0:0:0:
256,192,41917,1,2,0:0:0:0:
256,192,42806,5,4,0:0:0:0:
256,192,43695,1,0,0:0:0:0:
256,192,44584,1,0,0:0:0:0:
256,192,45473,1,0,0:0:0:0:
256,192,45917,1,0,0:0:0:0:
256,192,46362,1,2,0:0:0:0:
256,192,47251,1,2,0:0:0:0:
256,192,48139,1,2,0:0:0:0:
256,192,49028,1,2,0:0:0:0:
256,192,49473,1,2,0:0:0:0:
256,192,49917,1,0,0:0:0:0:
256,192,50806,1,0,0:0:0:0:
256,192,51695,1,0,0:0:0:0:
256,192,52584,1,0,0:0:0:0:
256,192,53028,1,0,0:0:0:0:
256,192,53473,1,2,0:0:0:0:
256,192,54362,1,2,0:0:0:0:
256,192,55251,1,2,0:0:0:0:
256,192,56139,1,2,0:0:0:0:
256,192,56584,1,2,0:0:0:0:
256,192,61473,5,0,0:0:0:0:
256,192,61917,1,0,0:0:0:0:
256,192,62362,1,0,0:0:0:0:
256,192,63251,1,2,0:0:0:0:
256,192,63695,1,2,0:0:0:0:
256,192,64139,1,2,0:0:0:0:
256,192,65028,1,0,0:0:0:0:
256,192,65917,1,2,0:0:0:0:
256,192,66806,1,2,0:0:0:0:
256,192,67251,1,2,0:0:0:0:
256,192,67695,1,2,0:0:0:0:
256,192,68584,12,0,69917,0:0:0:0:
256,192,70362,5,4,0:0:0:0:
256,192,70806,1,4,0:0:0:0:
256,192,71251,1,6,0:0:0:0:
256,192,72139,12,0,73695,0:0:0:0:
256,192,73917,5,4,0:0:0:0:
256,192,74362,1,4,0:0:0:0:
256,192,74806,1,6,0:0:0:0:
256,192,75695,12,0,77251,0:0:0:0:
256,192,77473,5,4,0:0:0:0:
256,192,77917,1,0,0:0:0:0:
256,192,78362,1,2,0:0:0:0:
256,192,79251,1,0,0:0:0:0:
256,192,79695,1,0,0:0:0:0:
256,192,80139,1,2,0:0:0:0:
256,192,81028,1,2,0:0:0:0:
256,192,81473,1,2,0:0:0:0:
256,192,81917,1,0,0:0:0:0:
256,192,82806,1,2,0:0:0:0:
256,192,83251,1,2,0:0:0:0:
256,192,83695,1,2,0:0:0:0:
256,192,84584,1,4,0:0:0:0:
256,192,85028,1,0,0:0:0:0:
256,192,85473,1,2,0:0:0:0:
256,192,86362,1,0,0:0:0:0:
256,192,86806,1,0,0:0:0:0:
256,192,87251,1,2,0:0:0:0:
256,192,88139,1,2,0:0:0:0:
256,192,88584,1,2,0:0:0:0:
256,192,89028,1,0,0:0:0:0:
256,192,89917,1,2,0:0:0:0:
256,192,90806,1,2,0:0:0:0:
256,192,91251,1,0,0:0:0:0:
256,192,91695,5,4,0:0:0:0:
256,192,92139,1,2,0:0:0:0:
256,192,92584,1,0,0:0:0:0:
256,192,93473,1,0,0:0:0:0:
256,192,93917,1,2,0:0:0:0:
256,192,94362,1,0,0:0:0:0:
256,192,95251,1,2,0:0:0:0:
256,192,95695,1,0,0:0:0:0:
256,192,96139,1,2,0:0:0:0:
256,192,97028,1,2,0:0:0:0:
256,192,97473,1,2,0:0:0:0:
256,192,97917,1,2,0:0:0:0:
256,192,98806,1,4,0:0:0:0:
256,192,99695,1,0,0:0:0:0:
256,192,100139,1,2,0:0:0:0:
256,192,100584,1,0,0:0:0:0:
256,192,101473,1,6,0:0:0:0:
256,192,101917,1,6,0:0:0:0:
256,192,102362,1,4,0:0:0:0:
256,192,103251,1,6,0:0:0:0:
256,192,104139,1,0,0:0:0:0:
256,192,104584,1,2,0:0:0:0:
256,192,105028,1,0,0:0:0:0:
256,192,105917,5,4,0:0:0:0:
256,192,106806,1,0,0:0:0:0:
256,192,107695,1,0,0:0:0:0:
256,192,108584,1,0,0:0:0:0:
256,192,109028,1,0,0:0:0:0:
256,192,109473,1,2,0:0:0:0:
256,192,110362,1,2,0:0:0:0:
256,192,111251,1,2,0:0:0:0:
256,192,112139,1,2,0:0:0:0:
256,192,112584,1,2,0:0:0:0:
256,192,113028,1,4,0:0:0:0:
256,192,113917,1,0,0:0:0:0:
256,192,114806,1,0,0:0:0:0:
256,192,115695,1,0,0:0:0:0:
256,192,116139,1,0,0:0:0:0:
256,192,116584,1,2,0:0:0:0:
256,192,117473,1,2,0:0:0:0:
256,192,118362,1,2,0:0:0:0:
256,192,120139,1,4,0:0:0:0:
256,192,120584,1,0,0:0:0:0:
256,192,121028,1,0,0:0:0:0:
256,192,121473,1,0,0:0:0:0:
256,192,121917,1,0,0:0:0:0:
256,192,122139,1,0,0:0:0:0:
256,192,122362,1,0,0:0:0:0:
256,192,122806,1,0,0:0:0:0:
256,192,123695,1,2,0:0:0:0:
256,192,124139,1,2,0:0:0:0:
256,192,124584,1,2,0:0:0:0:
256,192,125028,1,2,0:0:0:0:
256,192,125473,1,2,0:0:0:0:
256,192,125695,1,2,0:0:0:0:
256,192,125917,1,2,0:0:0:0:
256,192,126362,1,2,0:0:0:0:
256,192,127251,1,0,0:0:0:0:
256,192,127695,1,0,0:0:0:0:
256,192,128139,1,2,0:0:0:0:
256,192,128584,1,2,0:0:0:0:
256,192,129028,1,0,0:0:0:0:
256,192,129251,1,0,0:0:0:0:
256,192,129473,1,0,0:0:0:0:
256,192,129917,1,0,0:0:0:0:
256,192,130806,1,2,0:0:0:0:
256,192,131251,1,2,0:0:0:0:
256,192,131695,1,0,0:0:0:0:
256,192,132139,1,0,0:0:0:0:
256,192,132584,1,2,0:0:0:0:
256,192,132806,1,2,0:0:0:0:
256,192,133028,1,2,0:0:0:0:
256,192,133473,1,2,0:0:0:0:
256,192,134362,1,0,0:0:0:0:
256,192,134806,1,2,0:0:0:0:
256,192,135251,1,0,0:0:0:0:
256,192,135695,1,2,0:0:0:0:
256,192,136139,1,2,0:0:0:0:
256,192,136362,1,2,0:0:0:0:
256,192,136584,1,2,0:0:0:0:
256,192,137028,1,0,0:0:0:0:
256,192,137917,1,2,0:0:0:0:
256,192,138362,1,0,0:0:0:0:
256,192,138806,1,2,0:0:0:0:
256,192,139028,1,2,0:0:0:0:
256,192,139251,1,2,0:0:0:0:
256,192,139695,1,0,0:0:0:0:
256,192,140584,1,0,0:0:0:0:
256,192,141028,1,2,0:0:0:0:
256,192,141473,1,0,0:0:0:0:
256,192,141917,1,0,0:0:0:0:
256,192,142362,1,2,0:0:0:0:
256,192,142806,1,2,0:0:0:0:
256,192,143251,1,0,0:0:0:0:
256,192,143473,1,0,0:0:0:0:
256,192,143695,1,0,0:0:0:0:
256,192,144139,1,0,0:0:0:0:
256,192,145028,1,2,0:0:0:0:
256,192,145473,1,0,0:0:0:0:
256,192,145917,1,2,0:0:0:0:
256,192,146362,1,0,0:0:0:0:
256,192,146806,1,2,0:0:0:0:
256,192,147028,1,2,0:0:0:0:
256,192,147251,1,2,0:0:0:0:
256,192,147695,1,0,0:0:0:0:
256,192,148139,1,6,0:0:0:0:
256,192,148584,12,2,150584,0:0:0:0:
