osu file format v14

[General]
AudioFilename: audio.mp3
AudioLeadIn: 0
PreviewTime: -1
Countdown: 1
SampleSet: None
StackLeniency: 0.7
Mode: 3
LetterboxInBreaks: 0
SpecialStyle: 0
WidescreenStoryboard: 0

[Editor]
Bookmarks: 53615
DistanceSpacing: 1
BeatDivisor: 4
GridSize: 32
TimelineZoom: 1

[Metadata]
Title:BATTLE NO.1
TitleUnicode:BATTLE NO.1
Artist:Hardcore Tano*C
ArtistUnicode:Hardcore Tano*C
Creator:AmPotato2
Version:4K DUEL BATTLE
Source:
Tags:
BeatmapID:4548520
BeatmapSetID:2157663

[Difficulty]
HPDrainRate:5
CircleSize:4
OverallDifficulty:5
ApproachRate:5
SliderMultiplier:1.4
SliderTickRate:1

[Events]
//Background and Video events
0,0,"background.jpg",0,0
Video,0,"video.mp4"
//Break Periods
//Storyboard Layer 0 (Background)
//Storyboard Layer 1 (Fail)
//Storyboard Layer 2 (Pass)
//Storyboard Layer 3 (Foreground)
//Storyboard Layer 4 (Overlay)
//Storyboard Sound Samples

[TimingPoints]
0,300,4,1,0,100,1,0

[Colours]
Combo1 : 255,192,0
Combo2 : 0,202,0
Combo3 : 18,124,255
Combo4 : 242,24,57

[HitObjects]
256,192,1200,5,0,1:0:0:100:
0,192,1350,1,0,1:0:0:100:
256,192,1500,1,0,1:0:0:100:
0,192,1650,1,0,1:0:0:100:
256,192,1800,1,0,1:0:0:100:
0,192,1950,1,0,1:0:0:100:
256,192,2100,1,0,1:0:0:100:
0,192,2250,1,0,1:0:0:100:
256,192,2400,1,0,1:0:0:100:
256,192,2550,1,0,1:0:0:100:
0,192,2700,1,0,1:0:0:100:
128,192,2850,1,0,1:0:0:100:
384,192,3000,1,0,1:0:0:100:
256,192,3300,1,0,1:0:0:100:
128,192,3600,1,0,1:0:0:100:
0,192,3600,1,0,1:0:0:100:
0,192,3900,1,0,1:0:0:100:
128,192,3900,1,0,1:0:0:100:
128,192,4200,1,0,1:0:0:100:
0,192,4200,1,0,1:0:0:100:
0,192,4500,1,0,1:0:0:100:
128,192,4500,1,0,1:0:0:100:
128,192,4650,1,0,1:0:0:100:
0,192,4650,1,0,1:0:0:100:
384,192,4800,1,0,1:0:0:100:
256,192,4800,1,0,1:0:0:100:
384,192,5100,1,0,1:0:0:100:
256,192,5100,1,0,1:0:0:100:
256,192,5400,1,0,1:0:0:100:
384,192,5400,1,0,1:0:0:100:
256,192,5550,1,0,1:0:0:100:
384,192,5550,1,0,1:0:0:100:
256,192,5700,1,0,1:0:0:100:
384,192,5700,1,0,1:0:0:100:
128,192,5850,1,0,1:0:0:100:
0,192,5925,1,0,1:0:0:100:
256,192,6000,1,0,1:0:0:100:
384,192,6000,1,0,1:0:0:100:
128,192,6300,1,0,1:0:0:100:
0,192,6300,1,0,1:0:0:100:
384,192,6600,1,0,1:0:0:100:
256,192,6600,1,0,1:0:0:100:
256,192,6750,1,0,1:0:0:100:
128,192,6750,1,0,1:0:0:100:
128,192,6900,1,0,1:0:0:100:
0,192,6900,1,0,1:0:0:100:
384,192,7050,1,0,1:0:0:100:
256,192,7125,1,0,1:0:0:100:
384,192,7200,1,0,1:0:0:100:
256,192,7350,1,0,1:0:0:100:
128,192,7500,1,0,1:0:0:100:
0,192,7500,1,0,1:0:0:100:
256,192,7650,1,0,1:0:0:100:
384,192,7800,128,0,8100:1:0:0:100:
0,192,7800,1,0,1:0:0:100:
128,192,7875,1,0,1:0:0:100:
256,192,7950,1,0,1:0:0:100:
128,192,8025,1,0,1:0:0:100:
256,192,8100,128,0,8400:1:0:0:100:
0,192,8100,128,0,8400:1:0:0:100:
384,192,8400,1,0,1:0:0:100:
128,192,8400,1,0,1:0:0:100:
384,192,8700,1,0,1:0:0:100:
256,192,9000,1,0,1:0:0:100:
0,192,9000,1,0,1:0:0:100:
0,192,9300,1,0,1:0:0:100:
256,192,9450,1,0,1:0:0:100:
384,192,9525,1,0,1:0:0:100:
256,192,9600,1,0,1:0:0:100:
128,192,9600,1,0,1:0:0:100:
384,192,9900,1,0,1:0:0:100:
0,192,9900,1,0,1:0:0:100:
128,192,10050,1,0,1:0:0:100:
256,192,10050,1,0,1:0:0:100:
384,192,10350,1,0,1:0:0:100:
0,192,10350,1,0,1:0:0:100:
128,192,10500,1,0,1:0:0:100:
256,192,10500,1,0,1:0:0:100:
384,192,10800,1,0,1:0:0:100:
256,192,10800,1,0,1:0:0:100:
256,192,10950,1,0,1:0:0:100:
128,192,10950,1,0,1:0:0:100:
128,192,11100,1,0,1:0:0:100:
0,192,11100,1,0,1:0:0:100:
0,192,11250,1,0,1:0:0:100:
384,192,11250,1,0,1:0:0:100:
128,192,11400,1,0,1:0:0:100:
256,192,11400,1,0,1:0:0:100:
384,192,11500,1,0,1:0:0:100:
0,192,11600,1,0,1:0:0:100:
128,192,11700,1,0,1:0:0:100:
384,192,11700,1,0,1:0:0:100:
256,192,11800,1,0,1:0:0:100:
0,192,11900,1,0,1:0:0:100:
256,192,12000,1,0,1:0:0:100:
384,192,12000,1,0,1:0:0:100:
128,192,12150,1,0,1:0:0:100:
0,192,12300,1,0,1:0:0:100:
384,192,12300,1,0,1:0:0:100:
384,192,12600,1,0,1:0:0:100:
256,192,12600,1,0,1:0:0:100:
256,192,12900,1,0,1:0:0:100:
128,192,12900,1,0,1:0:0:100:
0,192,13200,1,0,1:0:0:100:
128,192,13200,1,0,1:0:0:100:
256,192,13200,1,0,1:0:0:100:
384,192,13200,1,0,1:0:0:100:
0,192,13350,1,0,1:0:0:100:
384,192,13500,1,0,1:0:0:100:
256,192,13500,1,0,1:0:0:100:
384,192,13650,1,0,1:0:0:100:
256,192,13800,1,0,1:0:0:100:
192,192,13800,1,0,0:0:0:0:
320,192,13950,1,0,0:0:0:0:
192,192,14100,1,0,0:0:0:0:
64,192,14100,1,0,0:0:0:0:
192,192,14250,1,0,0:0:0:0:
64,192,14250,1,0,0:0:0:0:
320,192,14400,1,0,0:0:0:0:
192,192,14475,1,0,0:0:0:0:
0,192,14550,1,0,1:0:0:100:
128,192,14625,1,0,1:0:0:100:
320,192,14700,1,0,0:0:0:0:
128,192,14850,1,0,1:0:0:100:
448,192,14850,1,0,0:0:0:0:
128,192,15000,1,0,1:0:0:100:
0,192,15000,1,0,1:0:0:100:
320,192,15075,1,0,0:0:0:0:
448,192,15150,1,0,0:0:0:0:
448,192,15300,1,0,0:0:0:0:
320,192,15300,1,0,0:0:0:0:
128,192,15375,1,0,1:0:0:100:
320,192,15450,1,0,0:0:0:0:
192,192,15525,1,0,0:0:0:0:
0,192,15600,1,0,1:0:0:100:
256,192,15600,1,0,1:0:0:100:
384,192,15600,1,0,1:0:0:100:
0,192,15750,1,0,1:0:0:100:
128,192,15825,1,0,1:0:0:100:
256,192,15900,1,0,1:0:0:100:
448,192,15975,1,0,0:0:0:0:
128,192,16050,1,0,1:0:0:100:
0,192,16125,1,0,1:0:0:100:
256,192,16200,1,0,1:0:0:100:
384,192,16275,1,0,1:0:0:100:
0,192,16275,1,0,1:0:0:100:
128,192,16350,1,0,1:0:0:100:
256,192,16425,1,0,1:0:0:100:
384,192,16500,1,0,1:0:0:100:
0,192,16500,1,0,1:0:0:100:
128,192,16575,1,0,1:0:0:100:
448,192,16650,1,0,0:0:0:0:
256,192,16725,1,0,1:0:0:100:
0,192,16800,1,0,1:0:0:100:
128,192,16800,1,0,1:0:0:100:
448,192,17100,1,0,0:0:0:0:
448,192,17250,1,0,0:0:0:0:
0,192,17400,1,0,1:0:0:100:
128,192,17400,1,0,1:0:0:100:
256,192,17400,1,0,1:0:0:100:
384,192,17400,1,0,1:0:0:100:
256,192,17625,1,0,1:0:0:100:
384,192,17625,1,0,1:0:0:100:
128,192,17625,1,0,1:0:0:100:
0,192,17625,1,0,1:0:0:100:
0,192,17850,1,0,1:0:0:100:
128,192,17850,1,0,1:0:0:100:
256,192,17850,1,0,1:0:0:100:
384,192,17850,1,0,1:0:0:100:
384,192,18000,1,0,1:0:0:100:
320,192,18000,1,0,0:0:0:0:
192,192,18000,1,0,0:0:0:0:
64,192,18000,1,0,0:0:0:0:
448,192,18150,1,0,0:0:0:0:
128,192,18300,1,0,1:0:0:100:
256,192,18375,1,0,1:0:0:100:
0,192,18450,1,0,1:0:0:100:
128,192,18525,1,0,1:0:0:100:
384,192,18600,1,0,1:0:0:100:
256,192,18675,1,0,1:0:0:100:
0,192,18750,1,0,1:0:0:100:
128,192,18825,1,0,1:0:0:100:
384,192,18900,1,0,1:0:0:100:
256,192,18975,1,0,1:0:0:100:
0,192,19050,1,0,1:0:0:100:
128,192,19125,1,0,1:0:0:100:
384,192,19200,1,0,1:0:0:100:
256,192,19275,1,0,1:0:0:100:
0,192,19350,1,0,1:0:0:100:
128,192,19425,1,0,1:0:0:100:
384,192,19500,1,0,1:0:0:100:
256,192,19575,1,0,1:0:0:100:
0,192,19650,1,0,1:0:0:100:
128,192,19725,1,0,1:0:0:100:
384,192,19800,1,0,1:0:0:100:
256,192,19875,1,0,1:0:0:100:
0,192,19950,1,0,1:0:0:100:
128,192,20025,1,0,1:0:0:100:
384,192,20100,1,0,1:0:0:100:
256,192,20175,1,0,1:0:0:100:
128,192,20250,1,0,1:0:0:100:
0,192,20325,1,0,1:0:0:100:
256,192,20400,1,0,1:0:0:100:
384,192,20475,1,0,1:0:0:100:
128,192,20550,1,0,1:0:0:100:
256,192,20625,1,0,1:0:0:100:
0,192,20700,1,0,1:0:0:100:
128,192,20775,1,0,1:0:0:100:
256,192,20850,1,0,1:0:0:100:
384,192,20925,1,0,1:0:0:100:
64,192,21000,1,0,0:0:0:0:
256,192,21075,1,0,1:0:0:100:
192,192,21150,1,0,0:0:0:0:
64,192,21225,1,0,0:0:0:0:
256,192,21300,1,0,1:0:0:100:
192,192,21375,1,0,0:0:0:0:
448,192,21450,1,0,0:0:0:0:
192,192,21525,1,0,0:0:0:0:
384,192,21600,128,0,22050:1:0:0:100:
256,192,21600,128,0,22050:1:0:0:100:
64,192,21600,128,0,22050:0:0:0:0:
0,192,22200,1,0,1:0:0:100:
256,192,22200,1,0,1:0:0:100:
384,192,22200,1,0,1:0:0:100:
64,192,22350,1,0,0:0:0:0:
320,192,22350,1,0,0:0:0:0:
448,192,22500,1,0,0:0:0:0:
64,192,22500,1,0,0:0:0:0:
192,192,22500,1,0,0:0:0:0:
384,192,22650,1,0,1:0:0:100:
64,192,22650,1,0,0:0:0:0:
384,192,22800,1,0,1:0:0:100:
256,192,22800,1,0,1:0:0:100:
128,192,22800,1,0,1:0:0:100:
192,192,22950,1,0,0:0:0:0:
256,192,23100,1,0,1:0:0:100:
0,192,23100,1,0,1:0:0:100:
0,192,23250,1,0,1:0:0:100:
128,192,23400,1,0,1:0:0:100:
384,192,23400,1,0,1:0:0:100:
384,192,23550,1,0,1:0:0:100:
256,192,23700,1,0,1:0:0:100:
128,192,23700,1,0,1:0:0:100:
128,192,23850,1,0,1:0:0:100:
256,192,24000,1,0,1:0:0:100:
0,192,24000,1,0,1:0:0:100:
384,192,24000,1,0,1:0:0:100:
0,192,24150,1,0,1:0:0:100:
128,192,24300,1,0,1:0:0:100:
384,192,24300,1,0,1:0:0:100:
128,192,24450,1,0,1:0:0:100:
256,192,24600,1,0,1:0:0:100:
384,192,24600,1,0,1:0:0:100:
384,192,24750,128,0,24825:1:0:0:100:
384,192,24900,128,0,24975:1:0:0:100:
0,192,24900,1,0,1:0:0:100:
384,192,25050,128,0,25125:1:0:0:100:
256,192,25200,1,0,1:0:0:100:
128,192,25200,1,0,1:0:0:100:
0,192,25200,1,0,1:0:0:100:
0,192,25350,1,0,1:0:0:100:
128,192,25500,1,0,1:0:0:100:
384,192,25500,1,0,1:0:0:100:
384,192,25650,1,0,1:0:0:100:
256,192,25800,1,0,1:0:0:100:
128,192,25800,1,0,1:0:0:100:
128,192,25950,1,0,1:0:0:100:
0,192,26100,1,0,1:0:0:100:
256,192,26100,1,0,1:0:0:100:
256,192,26250,1,0,1:0:0:100:
384,192,26400,1,0,1:0:0:100:
0,192,26400,1,0,1:0:0:100:
128,192,26475,1,0,1:0:0:100:
256,192,26550,1,0,1:0:0:100:
128,192,26625,1,0,1:0:0:100:
0,192,26700,1,0,1:0:0:100:
384,192,26850,1,0,1:0:0:100:
0,192,26850,1,0,1:0:0:100:
256,192,26925,1,0,1:0:0:100:
128,192,27000,1,0,1:0:0:100:
256,192,27075,1,0,1:0:0:100:
384,192,27150,1,0,1:0:0:100:
0,192,27300,1,0,1:0:0:100:
384,192,27375,1,0,1:0:0:100:
0,192,27450,1,0,1:0:0:100:
384,192,27525,1,0,1:0:0:100:
256,192,27600,1,0,1:0:0:100:
128,192,27600,1,0,1:0:0:100:
0,192,27600,1,0,1:0:0:100:
256,192,27750,1,0,1:0:0:100:
384,192,27900,1,0,1:0:0:100:
128,192,27900,1,0,1:0:0:100:
128,192,28050,1,0,1:0:0:100:
0,192,28200,1,0,1:0:0:100:
256,192,28200,1,0,1:0:0:100:
256,192,28350,1,0,1:0:0:100:
384,192,28500,1,0,1:0:0:100:
128,192,28500,1,0,1:0:0:100:
384,192,28650,1,0,1:0:0:100:
256,192,28800,1,0,1:0:0:100:
128,192,28800,1,0,1:0:0:100:
0,192,28800,1,0,1:0:0:100:
128,192,28950,1,0,1:0:0:100:
0,192,29100,1,0,1:0:0:100:
256,192,29100,1,0,1:0:0:100:
0,192,29250,1,0,1:0:0:100:
128,192,29400,1,0,1:0:0:100:
384,192,29400,1,0,1:0:0:100:
128,192,29550,128,0,29625:1:0:0:100:
128,192,29700,128,0,29775:1:0:0:100:
0,192,29700,1,0,1:0:0:100:
128,192,29850,128,0,29925:1:0:0:100:
384,192,30000,1,0,1:0:0:100:
256,192,30000,1,0,1:0:0:100:
256,192,30150,1,0,1:0:0:100:
0,192,30300,1,0,1:0:0:100:
128,192,30300,1,0,1:0:0:100:
0,192,30450,1,0,1:0:0:100:
256,192,30600,1,0,1:0:0:100:
128,192,30600,1,0,1:0:0:100:
128,192,30750,1,0,1:0:0:100:
0,192,30900,1,0,1:0:0:100:
256,192,30975,1,0,1:0:0:100:
384,192,31050,1,0,1:0:0:100:
128,192,31050,1,0,1:0:0:100:
0,192,31125,1,0,1:0:0:100:
384,192,31200,1,0,1:0:0:100:
0,192,31275,1,0,1:0:0:100:
128,192,31350,1,0,1:0:0:100:
256,192,31425,1,0,1:0:0:100:
0,192,31500,1,0,1:0:0:100:
384,192,31575,1,0,1:0:0:100:
256,192,31650,1,0,1:0:0:100:
0,192,31725,1,0,1:0:0:100:
128,192,31800,1,0,1:0:0:100:
384,192,31800,1,0,1:0:0:100:
256,192,31800,1,0,1:0:0:100:
384,192,31950,1,0,1:0:0:100:
256,192,32025,1,0,1:0:0:100:
0,192,32100,128,0,32250:1:0:0:100:
128,192,32100,128,0,32250:1:0:0:100:
192,192,32400,1,0,0:0:0:0:
0,192,32475,1,0,1:0:0:100:
128,192,32550,1,0,1:0:0:100:
0,192,32625,1,0,1:0:0:100:
256,192,32700,1,0,1:0:0:100:
384,192,32700,1,0,1:0:0:100:
320,192,32850,1,0,0:0:0:0:
0,192,32925,1,0,1:0:0:100:
128,192,32925,1,0,1:0:0:100:
192,192,33075,1,0,0:0:0:0:
256,192,33150,1,0,1:0:0:100:
384,192,33150,1,0,1:0:0:100:
64,192,33300,1,0,0:0:0:0:
448,192,33450,1,0,0:0:0:0:
320,192,33525,1,0,0:0:0:0:
192,192,33600,1,0,0:0:0:0:
64,192,33600,1,0,0:0:0:0:
64,192,33750,1,0,0:0:0:0:
192,192,33825,1,0,0:0:0:0:
320,192,33900,1,0,0:0:0:0:
448,192,33900,1,0,0:0:0:0:
448,192,34050,1,0,0:0:0:0:
192,192,34125,1,0,0:0:0:0:
64,192,34125,1,0,0:0:0:0:
64,192,34275,1,0,0:0:0:0:
320,192,34350,1,0,0:0:0:0:
448,192,34350,1,0,0:0:0:0:
192,192,34500,1,0,0:0:0:0:
448,192,34650,128,0,34950:0:0:0:0:
64,192,34800,1,0,0:0:0:0:
320,192,34875,1,0,0:0:0:0:
192,192,34950,1,0,0:0:0:0:
320,192,35025,1,0,0:0:0:0:
0,192,35100,1,0,1:0:0:100:
128,192,35100,1,0,1:0:0:100:
192,192,35250,1,0,0:0:0:0:
256,192,35325,1,0,1:0:0:100:
384,192,35325,1,0,1:0:0:100:
320,192,35475,1,0,0:0:0:0:
128,192,35550,1,0,1:0:0:100:
0,192,35550,1,0,1:0:0:100:
384,192,35700,1,0,1:0:0:100:
320,192,35850,1,0,0:0:0:0:
448,192,35925,1,0,0:0:0:0:
128,192,36000,1,0,1:0:0:100:
0,192,36000,1,0,1:0:0:100:
320,192,36150,1,0,0:0:0:0:
192,192,36225,1,0,0:0:0:0:
256,192,36300,1,0,1:0:0:100:
384,192,36300,1,0,1:0:0:100:
256,192,36450,1,0,1:0:0:100:
384,192,36450,1,0,1:0:0:100:
64,192,36600,1,0,0:0:0:0:
192,192,36825,1,0,0:0:0:0:
320,192,37050,1,0,0:0:0:0:
448,192,37200,128,0,37350:0:0:0:0:
192,192,37500,128,0,37725:0:0:0:0:
64,192,37500,128,0,37725:0:0:0:0:
320,192,37725,128,0,37950:0:0:0:0:
448,192,37725,128,0,37950:0:0:0:0:
192,192,37950,128,0,38175:0:0:0:0:
64,192,37950,128,0,38175:0:0:0:0:
320,192,38175,128,0,38400:0:0:0:0:
448,192,38175,128,0,38400:0:0:0:0:
192,192,38400,128,0,38625:0:0:0:0:
64,192,38400,128,0,38625:0:0:0:0:
320,192,38625,128,0,38850:0:0:0:0:
448,192,38625,128,0,38850:0:0:0:0:
192,192,38850,128,0,39075:0:0:0:0:
64,192,38850,128,0,39075:0:0:0:0:
320,192,39075,128,0,39300:0:0:0:0:
448,192,39075,128,0,39300:0:0:0:0:
192,192,39300,128,0,39375:0:0:0:0:
64,192,39300,128,0,39375:0:0:0:0:
64,192,39450,128,0,39525:0:0:0:0:
192,192,39450,128,0,39525:0:0:0:0:
448,192,39600,128,0,39750:0:0:0:0:
320,192,39600,128,0,39750:0:0:0:0:
192,192,39750,128,0,39900:0:0:0:0:
64,192,39750,128,0,39900:0:0:0:0:
448,192,39900,128,0,40050:0:0:0:0:
320,192,39900,128,0,40050:0:0:0:0:
192,192,40050,128,0,40200:0:0:0:0:
64,192,40050,128,0,40200:0:0:0:0:
384,192,40200,1,0,1:0:0:100:
256,192,40200,1,0,1:0:0:100:
0,192,40275,1,0,1:0:0:100:
128,192,40275,1,0,1:0:0:100:
256,192,40350,1,0,1:0:0:100:
384,192,40350,1,0,1:0:0:100:
128,192,40425,1,0,1:0:0:100:
0,192,40425,1,0,1:0:0:100:
256,192,40500,1,0,1:0:0:100:
384,192,40500,1,0,1:0:0:100:
0,192,40575,1,0,1:0:0:100:
128,192,40575,1,0,1:0:0:100:
256,192,40650,1,0,1:0:0:100:
384,192,40650,1,0,1:0:0:100:
0,192,40725,1,0,1:0:0:100:
128,192,40725,1,0,1:0:0:100:
320,192,40800,1,0,0:0:0:0:
320,192,41025,1,0,0:0:0:0:
320,192,41250,1,0,0:0:0:0:
320,192,41475,1,0,0:0:0:0:
320,192,41700,1,0,0:0:0:0:
384,192,42000,5,0,1:0:0:100:
128,192,42000,1,0,1:0:0:100:
256,192,42000,128,0,42300:1:0:0:100:
0,192,42150,1,0,1:0:0:100:
128,192,42300,1,0,1:0:0:100:
384,192,42300,128,0,42450:1:0:0:100:
256,192,42450,128,0,42600:1:0:0:100:
128,192,42600,1,0,1:0:0:100:
0,192,42600,128,0,42750:1:0:0:100:
256,192,42750,128,0,42900:1:0:0:100:
128,192,42900,1,0,1:0:0:100:
384,192,42900,128,0,43050:1:0:0:100:
256,192,43050,128,0,43200:1:0:0:100:
128,192,43200,1,0,1:0:0:100:
0,192,43200,128,0,43350:1:0:0:100:
384,192,43350,128,0,43500:1:0:0:100:
256,192,43500,128,0,43650:1:0:0:100:
0,192,43500,1,0,1:0:0:100:
384,192,43650,128,0,43950:1:0:0:100:
128,192,43650,1,0,1:0:0:100:
0,192,43800,1,0,1:0:0:100:
128,192,43950,1,0,1:0:0:100:
256,192,44025,1,0,1:0:0:100:
384,192,44100,1,0,1:0:0:100:
0,192,44100,1,0,1:0:0:100:
128,192,44250,1,0,1:0:0:100:
256,192,44250,1,0,1:0:0:100:
384,192,44400,1,0,1:0:0:100:
256,192,44400,1,0,1:0:0:100:
128,192,44400,1,0,1:0:0:100:
0,192,44400,1,0,1:0:0:100:
0,192,44550,1,0,1:0:0:100:
128,192,44700,1,0,1:0:0:100:
384,192,44700,128,0,44850:1:0:0:100:
256,192,44850,128,0,45000:1:0:0:100:
128,192,45000,1,0,1:0:0:100:
384,192,45000,128,0,45150:1:0:0:100:
0,192,45150,128,0,45300:1:0:0:100:
256,192,45300,1,0,1:0:0:100:
128,192,45300,128,0,45450:1:0:0:100:
384,192,45450,128,0,45750:1:0:0:100:
0,192,45600,1,0,1:0:0:100:
256,192,45600,1,0,1:0:0:100:
128,192,45750,1,0,1:0:0:100:
128,192,45900,128,0,46050:1:0:0:100:
384,192,45900,128,0,46050:1:0:0:100:
256,192,46050,128,0,46350:1:0:0:100:
0,192,46050,128,0,46350:1:0:0:100:
128,192,46350,1,0,1:0:0:100:
384,192,46500,1,0,1:0:0:100:
128,192,46650,1,0,1:0:0:100:
0,192,46725,1,0,1:0:0:100:
256,192,46800,1,0,1:0:0:100:
384,192,46800,1,0,1:0:0:100:
128,192,46800,128,0,46950:1:0:0:100:
384,192,46950,128,0,47100:1:0:0:100:
256,192,47100,1,0,1:0:0:100:
0,192,47100,128,0,47250:1:0:0:100:
128,192,47250,1,0,1:0:0:100:
384,192,47325,1,0,1:0:0:100:
256,192,47400,1,0,1:0:0:100:
128,192,47475,1,0,1:0:0:100:
256,192,47550,1,0,1:0:0:100:
384,192,47550,128,0,47850:1:0:0:100:
0,192,47850,1,0,1:0:0:100:
128,192,47850,128,0,48150:1:0:0:100:
256,192,48150,128,0,48225:1:0:0:100:
384,192,48225,128,0,48300:1:0:0:100:
0,192,48300,128,0,48375:1:0:0:100:
128,192,48375,128,0,48450:1:0:0:100:
384,192,48450,128,0,48600:1:0:0:100:
0,192,48600,128,0,48750:1:0:0:100:
128,192,48600,1,0,1:0:0:100:
256,192,48600,1,0,1:0:0:100:
128,192,48750,128,0,48825:1:0:0:100:
384,192,48750,128,0,48825:1:0:0:100:
256,192,48750,128,0,48825:1:0:0:100:
256,192,48975,128,0,49050:1:0:0:100:
0,192,48975,128,0,49050:1:0:0:100:
128,192,48975,128,0,49050:1:0:0:100:
256,192,49200,128,0,49500:1:0:0:100:
128,192,49200,128,0,49500:1:0:0:100:
0,192,49200,1,0,1:0:0:100:
384,192,49200,1,0,1:0:0:100:
384,192,49500,1,0,1:0:0:100:
0,192,49500,1,0,1:0:0:100:
256,192,49650,128,0,49800:1:0:0:100:
0,192,49800,1,0,1:0:0:100:
128,192,49800,128,0,49950:1:0:0:100:
256,192,49950,128,0,50100:1:0:0:100:
384,192,50100,1,0,1:0:0:100:
0,192,50100,128,0,50250:1:0:0:100:
256,192,50250,1,0,1:0:0:100:
128,192,50250,128,0,50550:1:0:0:100:
256,192,50550,1,0,1:0:0:100:
256,192,50700,1,0,1:0:0:100:
0,192,50700,128,0,50775:1:0:0:100:
384,192,50850,1,0,1:0:0:100:
0,192,51000,1,0,1:0:0:100:
256,192,51000,128,0,51075:1:0:0:100:
256,192,51150,1,0,1:0:0:100:
128,192,51300,128,0,51375:1:0:0:100:
0,192,51300,128,0,51525:1:0:0:100:
448,192,51600,128,0,51900:0:0:0:0:
320,192,51675,1,0,0:0:0:0:
64,192,51750,1,0,0:0:0:0:
320,192,51900,128,0,52200:0:0:0:0:
192,192,51975,1,0,0:0:0:0:
64,192,52050,1,0,0:0:0:0:
448,192,52200,128,0,52500:0:0:0:0:
192,192,52275,1,0,0:0:0:0:
64,192,52350,1,0,0:0:0:0:
320,192,52500,128,0,52800:0:0:0:0:
192,192,52575,1,0,0:0:0:0:
64,192,52650,1,0,0:0:0:0:
448,192,52800,128,0,53100:0:0:0:0:
192,192,52875,1,0,0:0:0:0:
64,192,52950,1,0,0:0:0:0:
320,192,53100,128,0,53400:0:0:0:0:
192,192,53175,1,0,0:0:0:0:
64,192,53250,1,0,0:0:0:0:
448,192,53400,128,0,53700:0:0:0:0:
192,192,53475,1,0,0:0:0:0:
64,192,53550,1,0,0:0:0:0:
320,192,53700,128,0,54000:0:0:0:0:
64,192,53775,1,0,0:0:0:0:
192,192,53850,1,0,0:0:0:0:
384,192,54000,128,0,56100:1:0:0:100:
192,192,54075,1,0,0:0:0:0:
64,192,54150,1,0,0:0:0:0:
0,192,54300,1,0,1:0:0:100:
320,192,54450,1,0,0:0:0:0:
64,192,54600,1,0,0:0:0:0:
320,192,54750,1,0,0:0:0:0:
64,192,54900,1,0,0:0:0:0:
192,192,55050,1,0,0:0:0:0:
192,192,55200,1,0,0:0:0:0:
64,192,55200,1,0,0:0:0:0:
320,192,55350,1,0,0:0:0:0:
192,192,55500,1,0,0:0:0:0:
0,192,55650,1,0,1:0:0:100:
192,192,55800,1,0,0:0:0:0:
64,192,55950,1,0,0:0:0:0:
320,192,56100,1,0,0:0:0:0:
64,192,56400,128,0,56700:0:0:0:0:
192,192,56475,1,0,0:0:0:0:
320,192,56550,1,0,0:0:0:0:
192,192,56700,128,0,57000:0:0:0:0:
320,192,56775,1,0,0:0:0:0:
448,192,56850,1,0,0:0:0:0:
64,192,57000,128,0,57300:0:0:0:0:
320,192,57075,1,0,0:0:0:0:
448,192,57150,1,0,0:0:0:0:
192,192,57300,128,0,57600:0:0:0:0:
320,192,57375,1,0,0:0:0:0:
448,192,57450,1,0,0:0:0:0:
64,192,57600,128,0,57900:0:0:0:0:
320,192,57675,1,0,0:0:0:0:
128,192,57750,1,0,1:0:0:100:
192,192,57900,128,0,58200:0:0:0:0:
448,192,57975,1,0,0:0:0:0:
320,192,58050,1,0,0:0:0:0:
64,192,58200,128,0,58500:0:0:0:0:
320,192,58275,1,0,0:0:0:0:
192,192,58350,1,0,0:0:0:0:
192,192,58500,128,0,58800:0:0:0:0:
320,192,58575,1,0,0:0:0:0:
448,192,58650,1,0,0:0:0:0:
64,192,58800,128,0,60900:0:0:0:0:
320,192,58875,1,0,0:0:0:0:
384,192,58950,1,0,1:0:0:100:
384,192,59100,1,0,1:0:0:100:
256,192,59250,1,0,1:0:0:100:
128,192,59400,1,0,1:0:0:100:
320,192,59550,1,0,0:0:0:0:
192,192,59700,1,0,0:0:0:0:
384,192,59850,1,0,1:0:0:100:
320,192,60000,1,0,0:0:0:0:
192,192,60000,1,0,0:0:0:0:
192,192,60150,1,0,0:0:0:0:
448,192,60300,1,0,0:0:0:0:
192,192,60450,1,0,0:0:0:0:
192,192,60600,1,0,0:0:0:0:
448,192,60787,1,0,0:0:0:0:
320,192,60825,1,0,0:0:0:0:
192,192,60862,1,0,0:0:0:0:
128,192,61200,128,0,61275:1:0:0:100:
384,192,61200,128,0,61275:1:0:0:100:
256,192,61237,128,0,61312:1:0:0:100:
0,192,61350,1,0,1:0:0:100:
256,192,61500,1,0,1:0:0:100:
384,192,61650,128,0,61687:1:0:0:100:
256,192,61725,128,0,61762:1:0:0:100:
128,192,61800,128,0,61875:1:0:0:100:
0,192,61800,128,0,61875:1:0:0:100:
256,192,61950,128,0,61987:1:0:0:100:
384,192,62100,128,0,62137:1:0:0:100:
0,192,62250,128,0,62325:1:0:0:100:
128,192,62250,128,0,62325:1:0:0:100:
256,192,62550,1,0,1:0:0:100:
384,192,62700,1,0,1:0:0:100:
256,192,62850,1,0,1:0:0:100:
0,192,63000,128,0,63075:1:0:0:100:
384,192,63000,128,0,63075:1:0:0:100:
256,192,63300,128,0,63375:1:0:0:100:
0,192,63300,128,0,63375:1:0:0:100:
384,192,63450,1,0,1:0:0:100:
128,192,63600,128,0,63675:1:0:0:100:
0,192,63675,128,0,63750:1:0:0:100:
256,192,63675,1,0,1:0:0:100:
384,192,63750,1,0,1:0:0:100:
256,192,63900,1,0,1:0:0:100:
0,192,64050,128,0,64087:1:0:0:100:
128,192,64125,128,0,64162:1:0:0:100:
256,192,64200,1,0,1:0:0:100:
0,192,64200,128,0,64275:1:0:0:100:
256,192,64350,128,0,64387:1:0:0:100:
128,192,64500,128,0,64537:1:0:0:100:
384,192,64650,128,0,64875:1:0:0:100:
256,192,64650,1,0,1:0:0:100:
128,192,64875,1,0,1:0:0:100:
0,192,64912,1,0,1:0:0:100:
256,192,65100,1,0,1:0:0:100:
384,192,65100,1,0,1:0:0:100:
0,192,65250,1,0,1:0:0:100:
256,192,65400,1,0,1:0:0:100:
128,192,65400,1,0,1:0:0:100:
0,192,65550,1,0,1:0:0:100:
384,192,65700,1,0,1:0:0:100:
256,192,65850,1,0,1:0:0:100:
384,192,66000,1,0,1:0:0:100:
0,192,66000,1,0,1:0:0:100:
128,192,66000,1,0,1:0:0:100:
128,192,66300,1,0,1:0:0:100:
0,192,66300,1,0,1:0:0:100:
384,192,66300,1,0,1:0:0:100:
128,192,66600,1,0,1:0:0:100:
0,192,66600,1,0,1:0:0:100:
384,192,66600,1,0,1:0:0:100:
384,192,66900,1,0,1:0:0:100:
128,192,66900,1,0,1:0:0:100:
0,192,66900,1,0,1:0:0:100:
0,192,67200,1,0,1:0:0:100:
384,192,67200,1,0,1:0:0:100:
256,192,67200,1,0,1:0:0:100:
256,192,67500,1,0,1:0:0:100:
384,192,67500,1,0,1:0:0:100:
0,192,67500,1,0,1:0:0:100:
256,192,67800,1,0,1:0:0:100:
384,192,67800,1,0,1:0:0:100:
0,192,67800,1,0,1:0:0:100:
0,192,68100,1,0,1:0:0:100:
256,192,68100,1,0,1:0:0:100:
384,192,68100,1,0,1:0:0:100:
0,192,68400,1,0,1:0:0:100:
128,192,68400,1,0,1:0:0:100:
256,192,68550,1,0,1:0:0:100:
128,192,68700,1,0,1:0:0:100:
0,192,68700,1,0,1:0:0:100:
384,192,68850,1,0,1:0:0:100:
128,192,69000,1,0,1:0:0:100:
256,192,69000,1,0,1:0:0:100:
0,192,69150,1,0,1:0:0:100:
384,192,69300,1,0,1:0:0:100:
256,192,69300,1,0,1:0:0:100:
0,192,69450,1,0,1:0:0:100:
384,192,69600,1,0,1:0:0:100:
256,192,69600,1,0,1:0:0:100:
128,192,69750,1,0,1:0:0:100:
256,192,69750,1,0,1:0:0:100:
128,192,69900,1,0,1:0:0:100:
0,192,69900,1,0,1:0:0:100:
128,192,70050,1,0,1:0:0:100:
256,192,70050,1,0,1:0:0:100:
384,192,70200,1,0,1:0:0:100:
256,192,70200,1,0,1:0:0:100:
256,192,70350,1,0,1:0:0:100:
128,192,70350,1,0,1:0:0:100:
256,192,70500,128,0,70650:1:0:0:100:
128,192,70500,128,0,70650:1:0:0:100:
0,192,70500,128,0,70650:1:0:0:100:
256,192,70800,1,0,1:0:0:100:
384,192,70800,1,0,1:0:0:100:
192,192,70800,1,0,0:0:0:0:
448,192,70950,1,0,0:0:0:0:
320,192,71100,1,0,0:0:0:0:
192,192,71100,1,0,0:0:0:0:
64,192,71100,1,0,0:0:0:0:
64,192,71250,1,0,0:0:0:0:
192,192,71400,1,0,0:0:0:0:
320,192,71400,1,0,0:0:0:0:
448,192,71400,1,0,0:0:0:0:
256,192,71550,1,0,1:0:0:100:
192,192,71700,1,0,0:0:0:0:
64,192,71700,1,0,0:0:0:0:
448,192,71700,1,0,0:0:0:0:
192,192,71850,1,0,0:0:0:0:
448,192,72000,1,0,0:0:0:0:
320,192,72000,1,0,0:0:0:0:
64,192,72000,1,0,0:0:0:0:
64,192,72150,1,0,0:0:0:0:
256,192,72300,1,0,1:0:0:100:
192,192,72300,1,0,0:0:0:0:
448,192,72300,1,0,0:0:0:0:
384,192,72450,1,0,1:0:0:100:
128,192,72600,1,0,1:0:0:100:
320,192,72600,1,0,0:0:0:0:
64,192,72600,1,0,0:0:0:0:
0,192,72750,1,0,1:0:0:100:
256,192,72900,1,0,1:0:0:100:
384,192,72900,1,0,1:0:0:100:
192,192,72900,1,0,0:0:0:0:
256,192,73050,1,0,1:0:0:100:
384,192,73050,1,0,1:0:0:100:
384,192,73200,1,0,1:0:0:100:
256,192,73200,1,0,1:0:0:100:
128,192,73350,1,0,1:0:0:100:
0,192,73500,1,0,1:0:0:100:
192,192,73500,1,0,0:0:0:0:
320,192,73500,1,0,0:0:0:0:
256,192,73650,1,0,1:0:0:100:
384,192,73800,1,0,1:0:0:100:
192,192,73800,1,0,0:0:0:0:
64,192,73800,1,0,0:0:0:0:
128,192,73950,1,0,1:0:0:100:
0,192,74100,1,0,1:0:0:100:
320,192,74100,1,0,0:0:0:0:
448,192,74100,1,0,0:0:0:0:
384,192,74250,1,0,1:0:0:100:
320,192,74400,1,0,0:0:0:0:
192,192,74400,1,0,0:0:0:0:
64,192,74400,1,0,0:0:0:0:
0,192,74550,1,0,1:0:0:100:
128,192,74550,1,0,1:0:0:100:
320,192,74700,128,0,74850:0:0:0:0:
192,192,74850,128,0,75000:0:0:0:0:
320,192,75000,1,0,0:0:0:0:
448,192,75000,1,0,0:0:0:0:
128,192,75150,1,0,1:0:0:100:
256,192,75150,1,0,1:0:0:100:
64,192,75150,1,0,0:0:0:0:
64,192,75300,1,0,0:0:0:0:
448,192,75300,1,0,0:0:0:0:
448,192,75600,1,0,0:0:0:0:
320,192,75600,1,0,0:0:0:0:
64,192,75750,1,0,0:0:0:0:
64,192,75900,1,0,0:0:0:0:
192,192,75900,1,0,0:0:0:0:
192,192,76050,1,0,0:0:0:0:
64,192,76050,1,0,0:0:0:0:
64,192,76200,1,0,0:0:0:0:
192,192,76200,1,0,0:0:0:0:
320,192,76200,1,0,0:0:0:0:
256,192,76350,1,0,1:0:0:100:
384,192,76500,1,0,1:0:0:100:
192,192,76500,1,0,0:0:0:0:
64,192,76500,1,0,0:0:0:0:
128,192,76650,1,0,1:0:0:100:
320,192,76800,1,0,0:0:0:0:
448,192,76800,1,0,0:0:0:0:
192,192,76800,1,0,0:0:0:0:
64,192,76950,1,0,0:0:0:0:
64,192,77100,1,0,0:0:0:0:
192,192,77100,1,0,0:0:0:0:
320,192,77100,1,0,0:0:0:0:
448,192,77250,1,0,0:0:0:0:
448,192,77400,1,0,0:0:0:0:
320,192,77400,1,0,0:0:0:0:
192,192,77400,1,0,0:0:0:0:
64,192,77550,1,0,0:0:0:0:
192,192,77700,1,0,0:0:0:0:
320,192,77700,1,0,0:0:0:0:
128,192,77850,1,0,1:0:0:100:
256,192,77850,1,0,1:0:0:100:
128,192,78000,1,0,1:0:0:100:
256,192,78000,1,0,1:0:0:100:
0,192,78000,1,0,1:0:0:100:
384,192,78000,128,0,78150:1:0:0:100:
0,192,78300,1,0,1:0:0:100:
128,192,78300,1,0,1:0:0:100:
448,192,78375,1,0,0:0:0:0:
320,192,78375,1,0,0:0:0:0:
128,192,78450,1,0,1:0:0:100:
64,192,78450,1,0,0:0:0:0:
128,192,78600,1,0,1:0:0:100:
0,192,78600,1,0,1:0:0:100:
320,192,78600,1,0,0:0:0:0:
448,192,78600,1,0,0:0:0:0:
256,192,78900,1,0,1:0:0:100:
448,192,78900,1,0,0:0:0:0:
192,192,78975,1,0,0:0:0:0:
64,192,78975,1,0,0:0:0:0:
256,192,79050,1,0,1:0:0:100:
384,192,79050,1,0,1:0:0:100:
128,192,79125,1,0,1:0:0:100:
64,192,79200,128,0,79350:0:0:0:0:
192,192,79350,128,0,79500:0:0:0:0:
384,192,79500,128,0,79650:1:0:0:100:
320,192,79650,128,0,79800:0:0:0:0:
192,192,79800,128,0,79950:0:0:0:0:
448,192,79950,128,0,80100:0:0:0:0:
0,192,80025,1,0,1:0:0:100:
256,192,80100,128,0,80175:1:0:0:100:
384,192,80400,1,0,1:0:0:100:
256,192,80400,1,0,1:0:0:100:
384,192,80550,128,0,80625:1:0:0:100:
384,192,80700,128,0,80775:1:0:0:100:
256,192,80700,1,0,1:0:0:100:
384,192,80850,128,0,80925:1:0:0:100:
256,192,80850,1,0,1:0:0:100:
128,192,80850,1,0,1:0:0:100:
256,192,81000,1,0,1:0:0:100:
128,192,81000,1,0,1:0:0:100:
0,192,81000,1,0,1:0:0:100:
384,192,81000,128,0,81300:1:0:0:100:
256,192,81300,1,0,1:0:0:100:
128,192,81300,1,0,1:0:0:100:
0,192,81450,1,0,1:0:0:100:
128,192,81600,1,0,1:0:0:100:
256,192,81600,128,0,81900:1:0:0:100:
384,192,81750,1,0,1:0:0:100:
0,192,81900,1,0,1:0:0:100:
128,192,81900,128,0,82200:1:0:0:100:
256,192,82200,1,0,1:0:0:100:
0,192,82200,128,0,82500:1:0:0:100:
128,192,82500,1,0,1:0:0:100:
384,192,82500,128,0,82800:1:0:0:100:
128,192,82800,1,0,1:0:0:100:
0,192,82800,1,0,1:0:0:100:
0,192,82950,128,0,83025:1:0:0:100:
0,192,83100,128,0,83175:1:0:0:100:
128,192,83100,1,0,1:0:0:100:
0,192,83250,128,0,83325:1:0:0:100:
128,192,83250,1,0,1:0:0:100:
256,192,83250,1,0,1:0:0:100:
0,192,83400,128,0,83700:1:0:0:100:
128,192,83400,1,0,1:0:0:100:
256,192,83400,1,0,1:0:0:100:
384,192,83400,1,0,1:0:0:100:
256,192,83700,1,0,1:0:0:100:
128,192,83700,1,0,1:0:0:100:
384,192,83850,1,0,1:0:0:100:
256,192,84000,1,0,1:0:0:100:
128,192,84000,128,0,84300:1:0:0:100:
0,192,84150,1,0,1:0:0:100:
384,192,84300,1,0,1:0:0:100:
256,192,84300,128,0,84600:1:0:0:100:
128,192,84600,1,0,1:0:0:100:
0,192,84675,1,0,1:0:0:100:
384,192,84750,1,0,1:0:0:100:
256,192,84900,1,0,1:0:0:100:
384,192,84975,1,0,1:0:0:100:
0,192,85050,1,0,1:0:0:100:
128,192,85200,1,0,1:0:0:100:
256,192,85200,1,0,1:0:0:100:
384,192,85200,1,0,1:0:0:100:
384,192,85350,1,0,1:0:0:100:
384,192,85500,1,0,1:0:0:100:
256,192,85500,1,0,1:0:0:100:
128,192,85500,1,0,1:0:0:100:
256,192,85800,1,0,1:0:0:100:
128,192,85800,1,0,1:0:0:100:
0,192,85800,1,0,1:0:0:100:
0,192,85950,1,0,1:0:0:100:
0,192,86100,1,0,1:0:0:100:
128,192,86100,1,0,1:0:0:100:
256,192,86100,1,0,1:0:0:100:
384,192,86400,1,0,1:0:0:100:
256,192,86400,1,0,1:0:0:100:
128,192,86400,1,0,1:0:0:100:
0,192,86550,1,0,1:0:0:100:
384,192,86625,1,0,1:0:0:100:
256,192,86700,1,0,1:0:0:100:
128,192,86700,1,0,1:0:0:100:
0,192,86700,1,0,1:0:0:100:
384,192,86850,1,0,1:0:0:100:
0,192,86925,1,0,1:0:0:100:
256,192,87000,1,0,1:0:0:100:
128,192,87000,1,0,1:0:0:100:
384,192,87000,1,0,1:0:0:100:
0,192,87100,1,0,1:0:0:100:
256,192,87200,1,0,1:0:0:100:
128,192,87300,1,0,1:0:0:100:
0,192,87300,1,0,1:0:0:100:
384,192,87300,1,0,1:0:0:100:
256,192,87450,1,0,1:0:0:100:
128,192,87600,1,0,1:0:0:100:
0,192,87600,1,0,1:0:0:100:
128,192,87750,1,0,1:0:0:100:
0,192,87750,1,0,1:0:0:100:
256,192,87825,1,0,1:0:0:100:
384,192,87825,1,0,1:0:0:100:
256,192,87975,1,0,1:0:0:100:
384,192,87975,1,0,1:0:0:100:
128,192,88050,1,0,1:0:0:100:
0,192,88050,1,0,1:0:0:100:
128,192,88200,1,0,1:0:0:100:
0,192,88200,1,0,1:0:0:100:
256,192,88275,1,0,1:0:0:100:
384,192,88275,1,0,1:0:0:100:
256,192,88425,1,0,1:0:0:100:
384,192,88425,1,0,1:0:0:100:
128,192,88500,1,0,1:0:0:100:
0,192,88500,1,0,1:0:0:100:
128,192,88650,1,0,1:0:0:100:
0,192,88650,1,0,1:0:0:100:
256,192,88800,1,0,1:0:0:100:
384,192,88800,1,0,1:0:0:100:
128,192,88875,1,0,1:0:0:100:
0,192,88875,1,0,1:0:0:100:
256,192,88950,1,0,1:0:0:100:
384,192,88950,1,0,1:0:0:100:
128,192,89025,1,0,1:0:0:100:
0,192,89025,1,0,1:0:0:100:
256,192,89100,1,0,1:0:0:100:
384,192,89100,1,0,1:0:0:100:
128,192,89175,1,0,1:0:0:100:
0,192,89175,1,0,1:0:0:100:
384,192,89250,1,0,1:0:0:100:
256,192,89250,1,0,1:0:0:100:
128,192,89325,1,0,1:0:0:100:
0,192,89325,1,0,1:0:0:100:
384,192,89400,1,0,1:0:0:100:
256,192,89475,1,0,1:0:0:100:
128,192,89550,1,0,1:0:0:100:
0,192,89625,1,0,1:0:0:100:
256,192,89700,1,0,1:0:0:100:
384,192,89700,128,0,90000:1:0:0:100:
0,192,90000,128,0,90150:1:0:0:100:
128,192,90150,1,0,1:0:0:100:
256,192,90150,1,0,1:0:0:100:
256,192,90300,1,0,1:0:0:100:
384,192,90300,1,0,1:0:0:100:
128,192,90375,1,0,1:0:0:100:
0,192,90450,1,0,1:0:0:100:
128,192,90525,1,0,1:0:0:100:
384,192,90600,1,0,1:0:0:100:
256,192,90600,1,0,1:0:0:100:
128,192,90675,1,0,1:0:0:100:
0,192,90750,1,0,1:0:0:100:
128,192,90825,1,0,1:0:0:100:
256,192,90900,1,0,1:0:0:100:
384,192,90900,1,0,1:0:0:100:
128,192,90975,1,0,1:0:0:100:
0,192,91050,1,0,1:0:0:100:
128,192,91125,1,0,1:0:0:100:
256,192,91200,1,0,1:0:0:100:
384,192,91200,1,0,1:0:0:100:
128,192,91275,1,0,1:0:0:100:
0,192,91350,1,0,1:0:0:100:
384,192,91500,1,0,1:0:0:100:
128,192,91500,1,0,1:0:0:100:
256,192,91575,1,0,1:0:0:100:
128,192,91650,1,0,1:0:0:100:
0,192,91725,1,0,1:0:0:100:
256,192,91800,1,0,1:0:0:100:
384,192,91875,1,0,1:0:0:100:
128,192,91950,1,0,1:0:0:100:
0,192,92025,1,0,1:0:0:100:
256,192,92100,1,0,1:0:0:100:
384,192,92175,1,0,1:0:0:100:
256,192,92250,1,0,1:0:0:100:
384,192,92325,1,0,1:0:0:100:
256,192,92400,1,0,1:0:0:100:
0,192,92400,1,0,1:0:0:100:
128,192,92400,1,0,1:0:0:100:
128,192,92550,1,0,1:0:0:100:
0,192,92625,1,0,1:0:0:100:
384,192,92700,1,0,1:0:0:100:
128,192,92700,1,0,1:0:0:100:
256,192,92700,1,0,1:0:0:100:
384,192,92850,1,0,1:0:0:100:
0,192,93000,1,0,1:0:0:100:
128,192,93000,1,0,1:0:0:100:
256,192,93000,1,0,1:0:0:100:
128,192,93150,1,0,1:0:0:100:
0,192,93225,1,0,1:0:0:100:
128,192,93300,1,0,1:0:0:100:
256,192,93300,1,0,1:0:0:100:
384,192,93300,1,0,1:0:0:100:
384,192,93450,1,0,1:0:0:100:
0,192,93525,1,0,1:0:0:100:
128,192,93600,1,0,1:0:0:100:
0,192,93675,1,0,1:0:0:100:
128,192,93750,1,0,1:0:0:100:
256,192,93825,1,0,1:0:0:100:
384,192,93900,1,0,1:0:0:100:
256,192,93975,1,0,1:0:0:100:
128,192,94050,1,0,1:0:0:100:
0,192,94125,1,0,1:0:0:100:
128,192,94200,1,0,1:0:0:100:
0,192,94275,1,0,1:0:0:100:
128,192,94350,1,0,1:0:0:100:
256,192,94425,1,0,1:0:0:100:
192,192,94500,1,0,0:0:0:0:
64,192,94500,1,0,0:0:0:0:
384,192,94575,1,0,1:0:0:100:
64,192,94650,1,0,0:0:0:0:
448,192,94725,1,0,0:0:0:0:
0,192,94800,1,0,1:0:0:100:
320,192,94800,1,0,0:0:0:0:
192,192,94800,1,0,0:0:0:0:
448,192,94875,1,0,0:0:0:0:
0,192,94950,1,0,1:0:0:100:
256,192,95025,1,0,1:0:0:100:
0,192,95100,1,0,1:0:0:100:
192,192,95100,1,0,0:0:0:0:
448,192,95100,1,0,0:0:0:0:
256,192,95175,1,0,1:0:0:100:
0,192,95250,1,0,1:0:0:100:
128,192,95325,1,0,1:0:0:100:
384,192,95400,1,0,1:0:0:100:
320,192,95400,1,0,0:0:0:0:
64,192,95400,1,0,0:0:0:0:
128,192,95475,1,0,1:0:0:100:
384,192,95550,1,0,1:0:0:100:
64,192,95625,1,0,0:0:0:0:
448,192,95700,1,0,0:0:0:0:
192,192,95700,1,0,0:0:0:0:
320,192,95700,1,0,0:0:0:0:
64,192,95775,1,0,0:0:0:0:
320,192,95850,1,0,0:0:0:0:
128,192,95925,1,0,1:0:0:100:
384,192,96000,1,0,1:0:0:100:
320,192,96000,1,0,0:0:0:0:
64,192,96000,1,0,0:0:0:0:
128,192,96075,1,0,1:0:0:100:
384,192,96150,1,0,1:0:0:100:
256,192,96225,1,0,1:0:0:100:
0,192,96300,1,0,1:0:0:100:
192,192,96300,1,0,0:0:0:0:
448,192,96300,1,0,0:0:0:0:
256,192,96375,1,0,1:0:0:100:
0,192,96450,1,0,1:0:0:100:
448,192,96525,1,0,0:0:0:0:
320,192,96600,1,0,0:0:0:0:
64,192,96600,1,0,0:0:0:0:
192,192,96600,1,0,0:0:0:0:
448,192,96675,1,0,0:0:0:0:
320,192,96750,1,0,0:0:0:0:
0,192,96825,1,0,1:0:0:100:
128,192,96900,128,0,96975:1:0:0:100:
384,192,96900,128,0,96975:1:0:0:100:
256,192,96975,128,0,97125:1:0:0:100:
64,192,97200,1,0,0:0:0:0:
192,192,97200,1,0,0:0:0:0:
192,192,97350,1,0,0:0:0:0:
320,192,97500,1,0,0:0:0:0:
448,192,97500,1,0,0:0:0:0:
192,192,97650,1,0,0:0:0:0:
64,192,97800,1,0,0:0:0:0:
320,192,97800,1,0,0:0:0:0:
128,192,97950,1,0,1:0:0:100:
128,192,98100,1,0,1:0:0:100:
384,192,98100,1,0,1:0:0:100:
320,192,98250,1,0,0:0:0:0:
128,192,98400,1,0,1:0:0:100:
64,192,98400,1,0,0:0:0:0:
256,192,98475,5,0,1:0:0:100:
448,192,98475,1,0,0:0:0:0:
128,192,98550,1,0,1:0:0:100:
64,192,98550,1,0,0:0:0:0:
256,192,98625,1,0,1:0:0:100:
448,192,98625,1,0,0:0:0:0:
128,192,98700,1,0,1:0:0:100:
64,192,98700,1,0,0:0:0:0:
256,192,98775,1,0,1:0:0:100:
448,192,98775,1,0,0:0:0:0:
128,192,98850,1,0,1:0:0:100:
64,192,98850,1,0,0:0:0:0:
256,192,98925,1,0,1:0:0:100:
448,192,98925,1,0,0:0:0:0:
128,192,99000,1,0,1:0:0:100:
64,192,99000,1,0,0:0:0:0:
256,192,99075,1,0,1:0:0:100:
448,192,99075,1,0,0:0:0:0:
128,192,99150,1,0,1:0:0:100:
64,192,99150,1,0,0:0:0:0:
256,192,99225,1,0,1:0:0:100:
448,192,99225,1,0,0:0:0:0:
128,192,99300,1,0,1:0:0:100:
64,192,99300,1,0,0:0:0:0:
256,192,99375,1,0,1:0:0:100:
448,192,99375,1,0,0:0:0:0:
128,192,99450,1,0,1:0:0:100:
64,192,99450,1,0,0:0:0:0:
256,192,99525,1,0,1:0:0:100:
384,192,99600,1,0,1:0:0:100:
256,192,99750,1,0,1:0:0:100:
128,192,99900,1,0,1:0:0:100:
0,192,100050,1,0,1:0:0:100:
128,192,100200,1,0,1:0:0:100:
384,192,100350,1,0,1:0:0:100:
256,192,100500,1,0,1:0:0:100:
128,192,100650,1,0,1:0:0:100:
384,192,100800,1,0,1:0:0:100:
0,192,100950,1,0,1:0:0:100:
128,192,101100,1,0,1:0:0:100:
256,192,101250,1,0,1:0:0:100:
384,192,101400,128,0,101700:1:0:0:100:
0,192,101700,128,0,102000:1:0:0:100:
128,192,102000,1,0,1:0:0:100:
384,192,102000,128,0,102075:1:0:0:100:
384,192,102150,128,0,102225:1:0:0:100:
128,192,102225,1,0,1:0:0:100:
256,192,102300,1,0,1:0:0:100:
384,192,102300,128,0,102375:1:0:0:100:
0,192,102450,1,0,1:0:0:100:
384,192,102450,128,0,102525:1:0:0:100:
128,192,102600,1,0,1:0:0:100:
384,192,102600,128,0,102675:1:0:0:100:
0,192,102675,1,0,1:0:0:100:
256,192,102750,1,0,1:0:0:100:
384,192,102750,128,0,102825:1:0:0:100:
0,192,102900,1,0,1:0:0:100:
384,192,102900,128,0,102975:1:0:0:100:
384,192,103050,128,0,103125:1:0:0:100:
256,192,103125,1,0,1:0:0:100:
0,192,103200,1,0,1:0:0:100:
0,192,103350,1,0,1:0:0:100:
128,192,103387,1,0,1:0:0:100:
256,192,103425,1,0,1:0:0:100:
384,192,103462,1,0,1:0:0:100:
256,192,103650,1,0,1:0:0:100:
384,192,103725,1,0,1:0:0:100:
0,192,103800,1,0,1:0:0:100:
128,192,103837,1,0,1:0:0:100:
256,192,103875,1,0,1:0:0:100:
384,192,103912,1,0,1:0:0:100:
128,192,103950,1,0,1:0:0:100:
384,192,104100,1,0,1:0:0:100:
256,192,104137,1,0,1:0:0:100:
128,192,104175,1,0,1:0:0:100:
0,192,104212,1,0,1:0:0:100:
384,192,104250,1,0,1:0:0:100:
256,192,104287,1,0,1:0:0:100:
128,192,104325,1,0,1:0:0:100:
0,192,104362,1,0,1:0:0:100:
384,192,104400,1,0,1:0:0:100:
256,192,104550,1,0,1:0:0:100:
128,192,104700,1,0,1:0:0:100:
0,192,104850,1,0,1:0:0:100:
128,192,105000,1,0,1:0:0:100:
384,192,105150,1,0,1:0:0:100:
256,192,105300,1,0,1:0:0:100:
128,192,105450,1,0,1:0:0:100:
384,192,105600,1,0,1:0:0:100:
0,192,105750,1,0,1:0:0:100:
128,192,105900,1,0,1:0:0:100:
256,192,106050,1,0,1:0:0:100:
0,192,106200,128,0,106350:1:0:0:100:
384,192,106500,128,0,106650:1:0:0:100:
0,192,106800,1,0,1:0:0:100:
192,192,106875,1,0,0:0:0:0:
448,192,106950,1,0,0:0:0:0:
64,192,107025,1,0,0:0:0:0:
192,192,107100,1,0,0:0:0:0:
256,192,107175,1,0,1:0:0:100:
448,192,107250,1,0,0:0:0:0:
192,192,107325,1,0,0:0:0:0:
64,192,107400,1,0,0:0:0:0:
320,192,107475,1,0,0:0:0:0:
192,192,107550,1,0,0:0:0:0:
0,192,107625,1,0,1:0:0:100:
256,192,107700,1,0,1:0:0:100:
128,192,107775,1,0,1:0:0:100:
256,192,107850,1,0,1:0:0:100:
128,192,107925,1,0,1:0:0:100:
0,192,108000,1,0,1:0:0:100:
384,192,108000,1,0,1:0:0:100:
384,192,108225,1,0,1:0:0:100:
256,192,108300,1,0,1:0:0:100:
0,192,108300,1,0,1:0:0:100:
128,192,108450,1,0,1:0:0:100:
384,192,108600,1,0,1:0:0:100:
256,192,108675,1,0,1:0:0:100:
384,192,108750,1,0,1:0:0:100:
256,192,108900,128,0,109050:1:0:0:100:
128,192,108900,128,0,109200:1:0:0:100:
0,192,108900,128,0,109050:1:0:0:100:
320,192,109200,1,0,0:0:0:0:
64,192,109200,1,0,0:0:0:0:
128,192,109350,1,0,1:0:0:100:
384,192,109500,1,0,1:0:0:100:
320,192,109500,1,0,0:0:0:0:
0,192,109650,1,0,1:0:0:100:
384,192,109800,1,0,1:0:0:100:
320,192,109800,1,0,0:0:0:0:
0,192,109950,1,0,1:0:0:100:
384,192,110100,1,0,1:0:0:100:
320,192,110100,1,0,0:0:0:0:
128,192,110250,1,0,1:0:0:100:
0,192,110250,1,0,1:0:0:100:
0,192,110400,1,0,1:0:0:100:
192,192,110400,1,0,0:0:0:0:
384,192,110550,1,0,1:0:0:100:
0,192,110700,1,0,1:0:0:100:
192,192,110700,1,0,0:0:0:0:
384,192,110850,1,0,1:0:0:100:
0,192,111000,1,0,1:0:0:100:
192,192,111000,1,0,0:0:0:0:
384,192,111150,1,0,1:0:0:100:
0,192,111300,1,0,1:0:0:100:
128,192,111300,1,0,1:0:0:100:
256,192,111300,1,0,1:0:0:100:
384,192,111300,1,0,1:0:0:100:
256,192,111600,1,0,1:0:0:100:
128,192,111600,1,0,1:0:0:100:
0,192,111600,1,0,1:0:0:100:
384,192,111750,1,0,1:0:0:100:
256,192,111900,1,0,1:0:0:100:
128,192,111900,1,0,1:0:0:100:
0,192,111900,1,0,1:0:0:100:
384,192,112050,1,0,1:0:0:100:
0,192,112200,1,0,1:0:0:100:
128,192,112200,1,0,1:0:0:100:
256,192,112200,1,0,1:0:0:100:
384,192,112350,1,0,1:0:0:100:
0,192,112500,1,0,1:0:0:100:
128,192,112500,1,0,1:0:0:100:
256,192,112500,1,0,1:0:0:100:
384,192,112650,1,0,1:0:0:100:
0,192,112800,1,0,1:0:0:100:
128,192,112800,1,0,1:0:0:100:
256,192,112800,1,0,1:0:0:100:
384,192,112950,1,0,1:0:0:100:
0,192,113100,1,0,1:0:0:100:
128,192,113100,1,0,1:0:0:100:
256,192,113100,1,0,1:0:0:100:
384,192,113250,1,0,1:0:0:100:
0,192,113400,128,0,113550:1:0:0:100:
128,192,113400,128,0,113550:1:0:0:100:
256,192,113400,128,0,113550:1:0:0:100:
384,192,113400,128,0,113550:1:0:0:100:
0,192,113700,1,0,1:0:0:100:
128,192,113700,1,0,1:0:0:100:
256,192,113700,1,0,1:0:0:100:
384,192,113700,1,0,1:0:0:100:
0,192,113850,1,0,1:0:0:100:
128,192,114000,1,0,1:0:0:100:
256,192,114000,1,0,1:0:0:100:
384,192,114150,1,0,1:0:0:100:
256,192,114300,1,0,1:0:0:100:
128,192,114300,1,0,1:0:0:100:
0,192,114450,1,0,1:0:0:100:
128,192,114600,1,0,1:0:0:100:
256,192,114600,1,0,1:0:0:100:
384,192,114750,1,0,1:0:0:100:
256,192,114900,1,0,1:0:0:100:
128,192,114900,1,0,1:0:0:100:
192,192,115050,1,0,0:0:0:0:
320,192,115050,1,0,0:0:0:0:
384,192,115350,1,0,1:0:0:100:
64,192,115350,1,0,0:0:0:0:
0,192,115650,1,0,1:0:0:100:
192,192,115650,1,0,0:0:0:0:
320,192,115725,1,0,0:0:0:0:
448,192,115725,1,0,0:0:0:0:
192,192,115800,1,0,0:0:0:0:
64,192,115800,1,0,0:0:0:0:
0,192,116100,1,0,1:0:0:100:
128,192,116100,1,0,1:0:0:100:
128,192,116400,1,0,1:0:0:100:
256,192,116400,1,0,1:0:0:100:
384,192,116475,1,0,1:0:0:100:
128,192,116550,1,0,1:0:0:100:
256,192,116550,1,0,1:0:0:100:
0,192,116625,1,0,1:0:0:100:
128,192,116700,1,0,1:0:0:100:
256,192,116700,1,0,1:0:0:100:
384,192,116775,1,0,1:0:0:100:
256,192,116850,1,0,1:0:0:100:
128,192,116850,1,0,1:0:0:100:
64,192,116925,1,0,0:0:0:0:
256,192,117000,1,0,1:0:0:100:
128,192,117000,1,0,1:0:0:100:
384,192,117075,1,0,1:0:0:100:
256,192,117150,1,0,1:0:0:100:
128,192,117150,1,0,1:0:0:100:
64,192,117225,1,0,0:0:0:0:
256,192,117300,1,0,1:0:0:100:
448,192,117300,1,0,0:0:0:0:
192,192,117375,1,0,0:0:0:0:
64,192,117375,1,0,0:0:0:0:
320,192,117450,1,0,0:0:0:0:
448,192,117450,1,0,0:0:0:0:
192,192,117525,1,0,0:0:0:0:
64,192,117525,1,0,0:0:0:0:
448,192,117600,1,0,0:0:0:0:
320,192,117600,1,0,0:0:0:0:
64,192,117900,1,0,0:0:0:0:
192,192,117937,1,0,0:0:0:0:
320,192,117975,1,0,0:0:0:0:
448,192,118200,1,0,0:0:0:0:
320,192,118237,1,0,0:0:0:0:
192,192,118275,1,0,0:0:0:0:
448,192,118500,1,0,0:0:0:0:
64,192,118500,1,0,0:0:0:0:
384,192,118800,128,0,118950:1:0:0:100:
128,192,118800,128,0,118950:1:0:0:100:
0,192,118800,1,0,1:0:0:100:
256,192,118950,128,0,119100:1:0:0:100:
384,192,119100,128,0,119175:1:0:0:100:
128,192,119100,128,0,119175:1:0:0:100:
0,192,119100,1,0,1:0:0:100:
128,192,119250,128,0,119325:1:0:0:100:
384,192,119250,128,0,119325:1:0:0:100:
256,192,119400,1,0,1:0:0:100:
0,192,119400,1,0,1:0:0:100:
0,192,119550,1,0,1:0:0:100:
256,192,119550,1,0,1:0:0:100:
384,192,119700,128,0,120000:1:0:0:100:
128,192,119700,128,0,119850:1:0:0:100:
128,192,120000,1,0,1:0:0:100:
256,192,120000,1,0,1:0:0:100:
128,192,120150,1,0,1:0:0:100:
256,192,120150,1,0,1:0:0:100:
384,192,120225,1,0,1:0:0:100:
0,192,120225,1,0,1:0:0:100:
128,192,120300,1,0,1:0:0:100:
256,192,120300,1,0,1:0:0:100:
256,192,120450,1,0,1:0:0:100:
128,192,120450,1,0,1:0:0:100:
0,192,120600,1,0,1:0:0:100:
128,192,120637,1,0,1:0:0:100:
256,192,120675,1,0,1:0:0:100:
384,192,120712,1,0,1:0:0:100:
384,192,120900,1,0,1:0:0:100:
256,192,120937,1,0,1:0:0:100:
128,192,120975,1,0,1:0:0:100:
0,192,121012,1,0,1:0:0:100:
384,192,121050,1,0,1:0:0:100:
384,192,121200,128,0,121500:1:0:0:100:
256,192,121200,128,0,121350:1:0:0:100:
128,192,121200,128,0,121350:1:0:0:100:
128,192,121500,1,0,1:0:0:100:
128,192,121650,1,0,1:0:0:100:
128,192,121800,1,0,1:0:0:100:
0,192,121800,1,0,1:0:0:100:
256,192,121800,1,0,1:0:0:100:
256,192,121950,1,0,1:0:0:100:
256,192,122100,1,0,1:0:0:100:
384,192,122100,1,0,1:0:0:100:
0,192,122400,1,0,1:0:0:100:
256,192,122400,128,0,122700:1:0:0:100:
0,192,122700,1,0,1:0:0:100:
128,192,122700,128,0,123000:1:0:0:100:
0,192,123000,1,0,1:0:0:100:
256,192,123000,128,0,123300:1:0:0:100:
384,192,123300,128,0,123600:1:0:0:100:
0,192,123300,128,0,123600:1:0:0:100:
256,192,123600,1,0,1:0:0:100:
128,192,123600,1,0,1:0:0:100:
128,192,123750,1,0,1:0:0:100:
0,192,123750,1,0,1:0:0:100:
384,192,123900,1,0,1:0:0:100:
256,192,123900,1,0,1:0:0:100:
128,192,124050,1,0,1:0:0:100:
0,192,124050,1,0,1:0:0:100:
128,192,124200,1,0,1:0:0:100:
256,192,124200,1,0,1:0:0:100:
384,192,124350,1,0,1:0:0:100:
0,192,124350,1,0,1:0:0:100:
128,192,124500,1,0,1:0:0:100:
256,192,124500,1,0,1:0:0:100:
384,192,124650,1,0,1:0:0:100:
256,192,124650,1,0,1:0:0:100:
128,192,124800,1,0,1:0:0:100:
0,192,124800,1,0,1:0:0:100:
0,192,124950,1,0,1:0:0:100:
384,192,124950,1,0,1:0:0:100:
256,192,125100,1,0,1:0:0:100:
384,192,125100,1,0,1:0:0:100:
0,192,125250,1,0,1:0:0:100:
256,192,125250,1,0,1:0:0:100:
384,192,125400,1,0,1:0:0:100:
256,192,125400,1,0,1:0:0:100:
0,192,125550,1,0,1:0:0:100:
256,192,125550,1,0,1:0:0:100:
128,192,125700,1,0,1:0:0:100:
0,192,125700,1,0,1:0:0:100:
384,192,125850,1,0,1:0:0:100:
128,192,125850,1,0,1:0:0:100:
0,192,126000,1,0,1:0:0:100:
128,192,126000,1,0,1:0:0:100:
256,192,126075,1,0,1:0:0:100:
384,192,126075,1,0,1:0:0:100:
0,192,126150,1,0,1:0:0:100:
128,192,126150,1,0,1:0:0:100:
256,192,126225,1,0,1:0:0:100:
384,192,126225,1,0,1:0:0:100:
0,192,126300,1,0,1:0:0:100:
256,192,126375,1,0,1:0:0:100:
128,192,126375,1,0,1:0:0:100:
0,192,126450,1,0,1:0:0:100:
384,192,126450,1,0,1:0:0:100:
128,192,126525,1,0,1:0:0:100:
256,192,126525,1,0,1:0:0:100:
384,192,126600,1,0,1:0:0:100:
128,192,126675,1,0,1:0:0:100:
0,192,126675,1,0,1:0:0:100:
256,192,126750,1,0,1:0:0:100:
384,192,126750,1,0,1:0:0:100:
128,192,126825,1,0,1:0:0:100:
0,192,126825,1,0,1:0:0:100:
256,192,126900,1,0,1:0:0:100:
384,192,126900,1,0,1:0:0:100:
128,192,126975,1,0,1:0:0:100:
0,192,127050,1,0,1:0:0:100:
384,192,127050,1,0,1:0:0:100:
128,192,127125,1,0,1:0:0:100:
256,192,127125,1,0,1:0:0:100:
384,192,127200,128,0,127300:1:0:0:100:
256,192,127300,128,0,127400:1:0:0:100:
128,192,127400,128,0,127900:1:0:0:100:
0,192,127500,1,0,1:0:0:100:
64,192,127800,1,0,0:0:0:0:
0,192,128100,128,0,128400:1:0:0:100:
128,192,128100,128,0,128400:1:0:0:100:
256,192,128100,128,0,128400:1:0:0:100:
384,192,128100,128,0,128400:1:0:0:100:
