osu file format v14

[General]
AudioFilename: audio.mp3
AudioLeadIn: 0
PreviewTime: -1
Countdown: 1
SampleSet: None
StackLeniency: 0.7
Mode: 0
LetterboxInBreaks: 0
WidescreenStoryboard: 0

[Editor]
DistanceSpacing: 0.7
BeatDivisor: 4
GridSize: 4
TimelineZoom: 1

[Metadata]
Title:Daya
TitleUnicode:Daya
Artist:HardL1ne
ArtistUnicode:HardL1ne
Creator:HardL1ne
Version:Mutual
Source:Mutual
Tags:Mutual
BeatmapID:1128329
BeatmapSetID:532488

[Difficulty]
HPDrainRate:5
CircleSize:5
OverallDifficulty:5
ApproachRate:1
SliderMultiplier:2.6
SliderTickRate:4

[Events]
//Background and Video events
//Break Periods
//Storyboard Layer 0 (Background)
//Storyboard Layer 1 (Fail)
//Storyboard Layer 2 (Pass)
//Storyboard Layer 3 (Foreground)
//Storyboard Sound Samples

[TimingPoints]
0,502.32,4,1,0,100,1,0

[HitObjects]
32,356,0,6,0,L|64:24,1,325
64,24,753,2,0,L|148:388,1,325
152,356,1506,2,0,L|256:8,1,325
260,24,2260,2,0,B|352:380|340:360,1,325
96,36,3139,2,0,L|92:368,1,325
120,372,3892,2,0,L|368:20,1,390
376,40,4772,2,0,L|392:392,1,325
44,20,5525,2,0,L|36:356,1,325
68,352,6279,2,0,B|488:352|280:356|252:16|252:-8,1,585
299,370,7534,2,0,B|526:367|423:4|427:-1,1,455
40,353,8539,2,0,L|235:6,1,390
249,17,9418,2,0,L|486:380,1,390
105,200,10297,2,0,L|392:195,1,260
85,373,10925,2,0,L|88:15,1,325
106,38,11678,2,0,L|481:37,1,325
168,20,12558,1,0,0:0:0:0:
131,53,12683,1,0,0:0:0:0:
112,87,12809,1,0,0:0:0:0:
90,131,12934,1,0,0:0:0:0:
84,179,13060,1,0,0:0:0:0:
92,220,13185,1,0,0:0:0:0:
115,246,13311,1,0,0:0:0:0:
152,257,13437,1,0,0:0:0:0:
195,261,13562,1,0,0:0:0:0:
227,258,13688,1,0,0:0:0:0:
256,251,13813,1,0,0:0:0:0:
283,239,13939,1,0,0:0:0:0:
318,215,14064,1,0,0:0:0:0:
345,191,14190,1,0,0:0:0:0:
368,151,14316,1,0,0:0:0:0:
381,103,14441,1,0,0:0:0:0:
365,65,14567,1,0,0:0:0:0:
338,38,14692,1,0,0:0:0:0:
294,21,14818,1,0,0:0:0:0:
255,11,14944,1,0,0:0:0:0:
221,12,15069,1,0,0:0:0:0:
172,13,15195,1,0,0:0:0:0:
61,357,15320,2,0,L|81:21,1,325
90,26,16074,2,0,L|233:382,1,325
228,349,16827,2,0,L|402:18,1,325
379,48,17581,2,0,L|463:382,1,325
88,29,18334,2,0,L|259:215,1,195
383,27,18837,2,0,L|104:380,1,390
26,18,19716,2,0,B|452:16|448:17,1,390
252,43,20595,2,0,L|256:384,1,325
107,53,21348,2,0,B|254:213|245:190,1,195
390,38,21850,2,0,L|126:355,1,390
103,333,22729,2,0,L|231:8,1,325
234,29,23357,2,0,L|364:368,1,325
75,191,24111,2,0,L|429:186,1,325
108,358,24864,2,0,B|246:3|258:15|368:382,1,585
