osu file format v14

[General]
AudioFilename: audio.mp3
AudioLeadIn: 0
PreviewTime: 225619
Countdown: 0
SampleSet: Soft
StackLeniency: 0.2
Mode: 0
LetterboxInBreaks: 0
EpilepsyWarning: 1
WidescreenStoryboard: 1

[Editor]
Bookmarks: 21590,31695,51906,72116,92326,102431,112537,122642,132747,150431,163063,173168,193379,203484,218643,226468,244152,271941,276994,285678
DistanceSpacing: 1.2
BeatDivisor: 4
GridSize: 16
TimelineZoom: 1.4

[Metadata]
Title:Trauma
TitleUnicode:トラウマ
Artist:Harano Oni
ArtistUnicode:波羅ノ鬼
Creator:Sparhten
Version:Torment
Source:
Tags:Enkrypton Bao j-pop Youtuber Amiya Japanese Rock Jrock jpop j-rock virtual pop Female Vocals Vtuber
BeatmapID:3961274
BeatmapSetID:1919476

[Difficulty]
HPDrainRate:4.8
CircleSize:4.2
OverallDifficulty:9
ApproachRate:9.3
SliderMultiplier:1.73
SliderTickRate:1

[Events]
//Background and Video events
0,0,"bg.jpg",0,0
//Break Periods
//Storyboard Layer 0 (Background)
Sprite,Background,Centre,"bg.jpg",320,240 F,0,0,,0
Sprite,Background,Centre,"sb\gs.jpg",320,240 F,0,0,,0 S,0,0,,0.7069219 F,0,0,11484,0,1 S,0,0,21589,0.7069219,0.7658321 F,0,11484,21589,1 F,0,21589,,0
Sprite,Background,Centre,"bg.jpg",320,240 F,0,0,,0 S,0,0,,0.7658321 F,0,21589,51905,0.6 S,0,31694,51905,0.7658321,0.8394698 R,0,31694,51905,0,0.07 F,0,51905,52063,0.6,0 R,0,52063,,0 F,0,152958,173168,1
Sprite,Background,Centre,"sb\gs.jpg",320,240 S,0,56010,,0.7069219 F,0,56010,56168,0,1 F,0,56168,56958,1 F,0,57273,,0 F,0,204115,204745,0,0.7 F,0,204745,246036,0.7 S,0,226457,244142,0.7069219,0.9394698 R,0,226457,244142,0,0.07
Sprite,Background,Centre,"bg.jpg",320,240 R,0,0,,0 S,0,56010,,0.7069219 F,0,56484,56642,0,0.3 F,0,56642,56958,0.3 F,0,57037,57116,0.7,1 F,0,71168,71484,1,0 F,0,71484,,0 S,0,244457,,0.9394698 R,0,244457,,0.07 F,0,244457,244614,0,0.3 F,0,244614,244931,0.3 F,0,244931,245088,0.7,1 F,0,245088,246668,1
Sprite,Background,Centre,"bg.jpg",0,0 S,0,72116,,0.9394698 F,0,72116,72431,0,1 M,5,72116,77168,320,240,300,221 R,5,72116,82220,-0.002760552,0.0174019 M,5,77168,82220,300,221,310,241 M,5,82220,87272,310,241,287,200 R,5,82220,92324,0.0174019,-0.006537402 M,5,87272,92324,287,200,287,221 M,5,92324,97376,287,221,325,216 R,5,92324,102428,-0.006537402,0.0009212721 M,5,97376,102428,325,216,302,217 M,5,102428,107480,302,217,303,210 R,5,102428,112532,0.0009212721,-0.02860927 F,0,102431,102746,1,0 M,5,107480,112532,303,210,295,207
Sprite,Background,Centre,"bg.jpg",0,0 S,0,112537,,0.9394698 F,0,112537,112852,0,1 M,5,112537,117589,320,240,284,216 M,5,117589,122641,284,216,294,236 M,5,122641,127693,294,236,315,238 M,5,127693,132745,315,238,299,254 M,5,132745,137797,299,254,282,200 F,0,132747,133062,1,0 M,5,137797,142849,282,200,271,234
Sprite,Background,Centre,"bg.jpg",0,0 S,0,132748,,0.9394698 M,5,132748,132826,320,240,326.645,249.54 F,0,132748,133063,0,1 M,5,132826,132905,326.645,249.54,327.185,249.495 M,5,132905,133063,327.185,249.495,329.06,246.33 M,5,133063,133221,329.06,246.33,326.675,247.11 M,5,133221,133379,326.675,247.11,328.355,250.2 M,5,133379,133458,328.355,250.2,328.805,249.9 M,5,133458,133537,328.805,249.9,328.94,249.375 M,5,133537,133616,328.94,249.375,328.685,248.88 M,5,133616,133694,328.685,248.88,328.82,248.355 M,5,133694,133852,328.82,248.355,331.835,249.81 M,5,133852,134010,331.835,249.81,330.275,248.37 M,5,134010,134089,330.275,248.37,330.365,248.595 M,5,134089,134168,330.365,248.595,330.455,248.82 M,5,134168,134326,330.455,248.82,332.48,247.41 M,5,134326,134405,332.48,247.41,332.63,247.005 M,5,134405,134484,332.63,247.005,332.78,246.615 M,5,134484,134642,332.78,246.615,328.04,245.655 M,5,134642,134800,328.04,245.655,330.185,246.885 M,5,134800,134958,330.185,246.885,332.105,245.31 M,5,134958,135273,332.105,245.31 M,5,135273,135431,332.105,245.31,330.245,244.665 M,5,135431,135589,330.245,244.665,327.02,247.17 M,5,135589,135747,327.02,247.17,328.775,244.695 M,5,135747,135826,328.775,244.695,329.105,245.01 M,5,135826,135905,329.105,245.01,329.24,245.445 M,5,135905,136063,329.24,245.445,329.42,249.345 M,5,136063,136221,329.42,249.345,328.61,247.62 M,5,136221,136379,328.61,247.62,326.195,249.21 M,5,136379,136537,326.195,249.21,327.17,245.385 M,5,136537,137010,327.17,245.385,327.995,249.18 M,5,137010,137089,327.995,249.18,327.59,249.375 M,5,137089,137168,327.59,249.375,327.335,249.765 M,5,137168,137326,327.335,249.765,330.845,249.96 M,5,137326,137484,330.845,249.96,330.605,246.45 M,5,137484,137642,330.605,246.45,331.265,248.58 M,5,137642,137800,331.265,248.58,327.935,247.35 M,5,137800,137958,327.935,247.35,329.675,248.325 M,5,137958,138116,329.675,248.325,331.01,245.085 M,5,138116,138273,331.01,245.085,329.375,246.915 M,5,138273,138431,329.375,246.915,328.43,245.43 M,5,138431,138510,328.43,245.43,327.905,244.965 M,5,138510,138589,327.905,244.965,327.215,245.07 M,5,138589,138747,327.215,245.07,330.71,245.01 M,5,138747,138905,330.71,245.01,327.575,246.45 M,5,138905,139063,327.575,246.45,328.655,249.48 M,5,139063,139221,328.655,249.48,328.205,247.845 M,5,139221,139379,328.205,247.845,330.38,248.91 M,5,139379,139537,330.38,248.91,330.905,247.41 M,5,139537,139616,330.905,247.41,330.725,247.245 M,5,139616,139773,330.725,247.245,331.79,246.105 M,5,139773,139852,331.79,246.105,331.88,245.925 M,5,139852,140010,331.88,245.925,330.995,245.16 M,5,140010,140484,330.995,245.16,333.275,247.77 M,5,140484,140800,333.275,247.77,329.6,247.05 M,5,140800,140879,329.6,247.05,329.54,246.705 M,5,140879,140958,329.54,246.705,329.78,246.45 M,5,140958,141116,329.78,246.45,332.27,245.07 M,5,141116,141273,332.27,245.07,330.83,247.11 M,5,141273,141431,330.83,247.11,327.26,245.205 M,5,141431,141747,327.26,245.205,327.755,247.305 M,5,141747,142063,327.755,247.305,328.19,249.24 M,5,142063,142142,328.19,249.24,328.505,248.82 M,5,142142,142221,328.505,248.82,329.06,248.745 M,5,142221,142379,329.06,248.745,332.48,248.55 M,5,142379,142458,332.48,248.55,332.18,248.055 M,5,142458,142537,332.18,248.055,331.685,247.875 M,5,142537,142616,331.685,247.875,331.175,248.085 M,5,142616,142694,331.175,248.085,330.68,247.95 M,5,142694,142773,330.68,247.95,330.305,247.53 M,5,142773,142852,330.305,247.53,330.275,246.99 M,5,142852,143010,330.275,246.99,332.36,245.175 M,5,143010,143168,332.36,245.175,328.055,245.115 M,5,143168,143326,328.055,245.115,331.46,246.555 M,5,143326,143484,331.46,246.555,329.18,246.435 M,5,143484,143563,329.18,246.435,329.375,246.015 M,5,143563,143642,329.375,246.015,329.81,245.85 M,5,143642,143721,329.81,245.85,330.2,245.595 M,5,143721,143800,330.2,245.595,330.29,245.13 M,5,143800,143958,330.29,245.13,328.01,247.77 M,5,143958,144116,328.01,247.77,326.39,247.005 M,5,144116,144194,326.39,247.005,326.48,246.78 M,5,144194,144352,326.48,246.78,329.195,248.445 M,5,144352,144430,329.195,248.445,328.97,248.58 M,5,144430,144589,328.97,248.58,326.225,249.735 M,5,144589,144668,326.225,249.735,326.06,249.285 M,5,144668,144747,326.06,249.285,326.165,248.82 M,5,144747,144826,326.165,248.82,326.48,248.475 M,5,144826,144905,326.48,248.475,326.9,248.295 M,5,144905,145063,326.9,248.295,330.26,248.865 M,5,145063,145379,330.26,248.865,327.575,245.07 M,5,145379,145484,327.575,245.07,328.7,245.04 M,5,145484,145589,328.7,245.04,329.69,245.58 M,5,145589,145694,329.69,245.58,330.815,245.715 M,5,145694,145905,330.815,245.715,333.245,244.965 M,5,145905,146010,333.245,244.965,333.11,245.13 M,5,146010,146221,333.11,245.13,332.315,247.68 M,5,146221,146326,332.315,247.68,331.175,247.68 M,5,146326,146431,331.175,247.68,330.74,248.73 M,5,146431,146537,330.74,248.73,329.615,248.97 M,5,146537,146642,329.615,248.97,328.4,248.37 M,5,146642,147116,328.4,248.37,326.6,249.255 M,5,147116,147273,326.6,249.255,329.045,247.035 M,5,147273,147352,329.045,247.035,328.385,247.005 M,5,147352,147431,328.385,247.005,327.77,247.215 M,5,147431,147589,327.77,247.215,326.615,245.1 M,5,147589,147747,326.615,245.1,330.14,245.985 M,5,147747,148063,330.14,245.985,333.425,245.385 M,5,148063,148221,333.425,245.385,332.465,247.755 M,5,148221,148379,332.465,247.755,331.91,245.415 M,5,148379,148537,331.91,245.415,329.48,249.18 M,5,148537,148616,329.48,249.18,329.81,248.745 M,5,148616,148694,329.81,248.745,330.335,248.625 M,5,148694,148852,330.335,248.625,331.715,249.465 M,5,148852,149010,331.715,249.465,328.22,246.945 M,5,149010,149168,328.22,246.945,326.495,248.535 M,5,149168,149484,326.495,248.535,328.025,248.595 M,5,149484,149642,328.025,248.595,325.835,247.23 M,5,149642,149721,325.835,247.23 M,5,149721,149800,325.835,247.23 M,5,149800,149958,325.835,247.23,328.175,245.43 M,5,149958,150116,328.175,245.43,329.645,247.53 M,5,150116,150431,329.645,247.53,330.65,246.315 F,0,150431,152951,1
Sprite,Background,Centre,"bg.jpg",0,0 S,0,173168,,0.9394698 F,0,173168,173483,0,1 M,5,173168,178220,320,240,289,223 R,5,173168,183272,-0.003205966,0.004361427 M,5,178220,183272,289,223,299,243 M,5,183272,188324,299,243,340,213 R,5,183272,193376,0.004361427,-0.02516265 M,5,188324,193376,340,213,329,236 M,5,193376,198428,329,236,297,211 R,5,193376,203480,-0.02516265,-0.001681772 M,5,198428,203480,297,211,316,227 M,5,203480,208532,316,227,303,230 R,5,203480,213584,-0.001681772,-0.03104302 F,0,203484,203799,1,0 M,5,208532,213584,303,230,309,237
Sprite,Background,Centre,"bg.jpg",0,0 S,0,246668,,0.9394698 F,0,246668,246983,1 M,5,246668,251720,320,240,308,200 R,5,246668,256772,-0.009344609,-0.002533284 M,5,251720,256772,308,200,318,220 M,5,256772,261824,318,220,299,236 R,5,256772,266876,-0.002533284,-0.01170223 M,5,261824,266876,299,236,307,236 M,5,266876,271928,307,236,322,227 R,5,266876,276980,-0.01170223,-0.009630594 M,5,271928,276980,322,227,319,243 F,0,271931,272246,1
Sprite,Background,Centre,"bg.jpg",0,0 S,0,246668,,0.9394698 F,0,246668,246983,1 M,5,246668,251720,320,240,291,236 R,5,246668,256772,-0.005347082,0.02268677 M,5,251720,256772,291,236,301,256 M,5,256772,261824,301,256,299,226 R,5,256772,266876,0.02268677,0.00835105 M,5,261824,266876,299,226,290,262 M,5,266876,271928,290,262,304,218 R,5,266876,276980,0.00835105,0.01083628 M,5,271928,276980,304,218,284,260 F,0,271931,285589,1 F,0,285589,285668,1,0
Sprite,Background,Centre,"sb\r.png",435,71 F,6,67063,67999,1,0 S,7,67063,67999,0.25,0.5
Sprite,Background,Centre,"sb\r.png",419,180 F,6,67379,68315,1,0 S,7,67379,68315,0.25,0.5
Sprite,Background,Centre,"sb\r.png",573,284 F,6,68326,69262,1,0 S,7,68326,69262,0.25,0.5
Sprite,Background,Centre,"sb\r.png",453,285 F,6,68642,69578,1,0 S,7,68642,69578,0.25,0.5
Sprite,Background,Centre,"sb\r.png",384,436 F,6,69589,70289,1,0 S,7,69589,70289,0.25,0.5
Sprite,Background,Centre,"sb\r.png",244,137 F,6,70852,71788,1,0 S,7,70852,71788,0.25,0.5
Sprite,Background,Centre,"sb\r.png",276,305 F,6,71168,72183,1,0 S,7,71168,72183,0.25,0.5
Sprite,Background,Centre,"sb\r.png",88,327 F,6,92326,93262,1,0 S,7,92326,93262,0.25,0.5
Sprite,Background,Centre,"sb\r.png",305,334 F,6,92642,93499,1,0 S,7,92642,93499,0.25,0.5
Sprite,Background,Centre,"sb\r.png",486,418 F,6,93589,94446,1,0 S,7,93589,94446,0.25,0.5
Sprite,Background,Centre,"sb\r.png",279,112 F,6,93905,94762,1,0 S,7,93905,94762,0.25,0.5
Sprite,Background,Centre,"sb\r.png",321,305 F,6,94852,95788,1,0 S,7,94852,95788,0.25,0.5
Sprite,Background,Centre,"sb\r.png",160,381 F,6,95168,96104,1,0 S,7,95168,96104,0.25,0.5
Sprite,Background,Centre,"sb\r.png",454,190 F,6,96116,96973,1,0 S,7,96116,96973,0.25,0.5
Sprite,Background,Centre,"sb\r.png",149,61 F,6,97379,98394,1,0 S,7,97379,98394,0.25,0.5
Sprite,Background,Centre,"sb\r.png",431,255 F,6,98642,99499,1,0 S,7,98642,99499,0.25,0.5
Sprite,Background,Centre,"sb\r.png",334,399 F,6,99905,100605,1,0 S,7,99905,100605,0.25,0.5
Sprite,Background,Centre,"sb\r.png",517,308 F,6,111116,111894,1,0 S,7,111116,111894,0.25,0.5
Sprite,Background,Centre,"sb\r.png",385,422 F,6,111589,112367,1,0 S,7,111589,112367,0.25,0.5
Sprite,Background,Centre,"sb\r.png",280,255 F,6,111905,112605,1,0 S,7,111905,112605,0.25,0.5
Sprite,Background,Centre,"sb\r.png",338,315 F,6,112063,112763,1,0 S,7,112063,112763,0.25,0.5
Sprite,Background,Centre,"sb\r.png",420,298 F,6,112221,112921,1,0 S,7,112221,112921,0.25,0.5
Sprite,Background,Centre,"sb\r.png",522,270 F,6,154537,155315,1,0 S,7,154537,155315,0.25,0.5
Sprite,Background,Centre,"sb\r.png",307,415 F,6,155010,155710,1,0 S,7,155010,155710,0.25,0.5
Sprite,Background,Centre,"sb\r.png",379,391 F,6,155484,156341,1,0 S,7,155484,156341,0.25,0.5
Sprite,Background,Centre,"sb\r.png",206,248 F,6,157063,157841,1,0 S,7,157063,157841,0.25,0.5
Sprite,Background,Centre,"sb\r.png",159,337 F,6,157537,158237,1,0 S,7,157537,158237,0.25,0.5
Sprite,Background,Centre,"sb\r.png",491,409 F,6,158010,159025,1,0 S,7,158010,159025,0.25,0.5
Sprite,Background,Centre,"sb\r.png",432,130 F,6,163063,163763,1,0 S,7,163063,163763,0.25,0.5
Sprite,Background,Centre,"sb\r.png",511,127 F,6,165590,166447,1,0 S,7,165590,166447,0.25,0.5
Sprite,Background,Centre,"sb\r.png",333,278 F,6,168116,169052,1,0 S,7,168116,169052,0.25,0.5
Sprite,Background,Centre,"sb\r.png",413,278 F,6,168431,169367,1,0 S,7,168431,169367,0.25,0.5
Sprite,Background,Centre,"sb\r.png",157,244 F,6,169379,170315,1,0 S,7,169379,170315,0.25,0.5
Sprite,Background,Centre,"sb\r.png",226,225 F,6,169694,170630,1,0 S,7,169694,170630,0.25,0.5
Sprite,Background,Centre,"sb\r.png",314,87 F,6,170642,171342,1,0 S,7,170642,171342,0.25,0.5
Sprite,Background,Centre,"sb\r.png",371,86 F,6,171905,172841,1,0 S,7,171905,172841,0.25,0.5
Sprite,Background,Centre,"sb\r.png",371,86 F,6,171905,172841,1,0 S,7,171905,172841,0.25,0.5
Sprite,Background,Centre,"sb\r.png",396,220 F,6,172221,173157,1,0 S,7,172221,173157,0.25,0.5
Sprite,Background,Centre,"sb\r.png",65,183 F,6,193379,194315,1,0 S,7,193379,194315,0.25,0.5
Sprite,Background,Centre,"sb\r.png",275,159 F,6,193694,194551,1,0 S,7,193694,194551,0.25,0.5
Sprite,Background,Centre,"sb\r.png",103,309 F,6,194642,195499,1,0 S,7,194642,195499,0.25,0.5
Sprite,Background,Centre,"sb\r.png",313,416 F,6,194958,195815,1,0 S,7,194958,195815,0.25,0.5
Sprite,Background,Centre,"sb\r.png",232,203 F,6,195905,196841,1,0 S,7,195905,196841,0.25,0.5
Sprite,Background,Centre,"sb\r.png",64,138 F,6,196221,197157,1,0 S,7,196221,197157,0.25,0.5
Sprite,Background,Centre,"sb\r.png",446,361 F,6,197169,198026,1,0 S,7,197169,198026,0.25,0.5
Sprite,Background,Centre,"sb\r.png",329,404 F,6,198432,199447,1,0 S,7,198432,199447,0.25,0.5
Sprite,Background,Centre,"sb\r.png",471,307 F,6,199695,200552,1,0 S,7,199695,200552,0.25,0.5
Sprite,Background,Centre,"sb\r.png",283,283 F,6,200958,201894,1,0 S,7,200958,201894,0.25,0.5
Sprite,Background,Centre,"sb\r.png",511,165 F,6,201273,202209,1,0 S,7,201273,202209,0.25,0.5
Sprite,Background,Centre,"sb\r.png",347,68 F,6,201589,202525,1,0 S,7,201589,202525,0.25,0.5
Sprite,Background,Centre,"sb\r.png",490,329 F,6,201905,202683,1,0 S,7,201905,202683,0.25,0.5
Sprite,Background,Centre,"sb\r.png",525,111 F,6,203484,204184,1,0 S,7,203484,204184,0.25,0.5
Sprite,Background,Centre,"sb\r.png",273,279 F,6,271941,272641,1,0 S,7,271941,272641,0.25,0.5
Sprite,Background,Centre,"sb\r.png",273,279 F,6,273204,273904,1,0 S,7,273204,273904,0.25,0.5
Sprite,Background,Centre,"sb\r.png",76,116 F,6,274468,275483,1,0 S,7,274468,275483,0.25,0.5
Sprite,Background,Centre,"sb\p.png",0,0 S,0,81273,,2 F,7,81273,82536,1,0 M,19,81322,82273,95,390,51.87156,313.2932
Sprite,Background,Centre,"sb\p.png",0,0 S,0,81273,,2 F,7,81273,82536,1,0 M,19,81337,82273,95,390,74.79668,490.9991
Sprite,Background,Centre,"sb\p.png",0,0 S,0,81273,,2 F,7,81273,82536,1,0 M,19,81328,82273,95,390,41.99468,400.3168
Sprite,Background,Centre,"sb\p.png",0,0 S,0,81273,,2 M,19,81273,82273,95,390,94.89689,363.0002 F,7,81273,82536,1,0
Sprite,Background,Centre,"sb\p.png",0,0 S,0,81273,,2 F,7,81273,82536,1,0 M,19,81280,82273,95,390,134.6268,423.6707
Sprite,Background,Centre,"sb\p.png",0,0 S,0,81273,,2 F,7,81273,82536,1,0 M,19,81325,82273,95,390,64.24933,386.0762
Sprite,Background,Centre,"sb\p.png",0,0 S,0,81273,,2 F,7,81273,82536,1,0 M,19,81342,82273,95,390,22.64779,476.7995
Sprite,Background,Centre,"sb\p.png",0,0 S,0,81273,,2 F,7,81273,82536,1,0 M,19,81365,82273,95,390,186.1508,451.5753
Sprite,Background,Centre,"sb\p.png",0,0 S,0,81273,,2 F,7,81273,82536,1,0 M,19,81301,82273,95,390,223.9693,346.8384
Sprite,Background,Centre,"sb\p.png",0,0 S,0,81273,,2 F,7,81273,82536,1,0 M,19,81276,82273,95,390,80.13184,368.6707
Sprite,Background,Centre,"sb\p.png",0,0 S,0,81273,,2 F,7,81273,82536,1,0 M,19,81354,82273,95,390,108.9395,408.2946
Sprite,Background,Centre,"sb\p.png",0,0 S,0,81273,,2 F,7,81273,82536,1,0 M,19,81292,82273,95,390,156.7069,451.3291
Sprite,Background,Centre,"sb\p.png",0,0 S,0,81273,,2 F,7,81273,82536,1,0 M,19,81305,82273,95,390,0.2136328,344.8276
Sprite,Background,Centre,"sb\p.png",0,0 S,0,81273,,2 F,7,81273,82536,1,0 M,19,81302,82273,95,390,118.6505,375.0116
Sprite,Background,Centre,"sb\p.png",0,0 S,0,81273,,2 F,7,81273,82536,1,0 M,19,81299,82273,95,390,137.1014,377.2145
Sprite,Background,Centre,"sb\p.png",0,0 S,0,81273,,2 F,7,81273,82536,1,0 M,19,81360,82273,95,390,65.18447,327.7743
Sprite,Background,Centre,"sb\p.png",0,0 S,0,81273,,2 F,7,81273,82536,1,0 M,19,81335,82273,95,390,90.26572,263.0883
Sprite,Background,Centre,"sb\p.png",0,0 S,0,81273,,2 F,7,81273,82536,1,0 M,19,81314,82273,95,390,109.9045,417.1819
Sprite,Background,Centre,"sb\p.png",0,0 S,0,81273,,2 F,7,81273,82536,1,0 M,19,81355,82273,95,390,1.490184,380.4128
Sprite,Background,Centre,"sb\p.png",0,0 S,0,81273,,2 F,7,81273,82536,1,0 M,19,81347,82273,95,390,39.0588,361.0245
Sprite,Background,Centre,"sb\p.png",0,0 S,0,81273,,2 F,7,81273,82536,1,0 M,19,81293,82273,95,390,12.52941,485.2607
Sprite,Background,Centre,"sb\p.png",0,0 S,0,81273,,2 F,7,81273,82536,1,0 M,19,81275,82273,95,390,-2.170426,377.2757
Sprite,Background,Centre,"sb\p.png",0,0 S,0,81273,,2 F,7,81273,82536,1,0 M,19,81346,82273,95,390,147.9165,528.2167
Sprite,Background,Centre,"sb\p.png",0,0 S,0,81273,,2 F,7,81273,82536,1,0 M,19,81316,82273,95,390,198.3242,291.141
Sprite,Background,Centre,"sb\p.png",0,0 S,0,81273,,2 F,7,81273,82536,1,0 M,19,81338,82273,95,390,118.393,464.4095
Sprite,Background,Centre,"sb\p.png",0,0 S,0,81589,,2 F,7,81589,82852,1,0 M,19,81640,82589,242,430,212.2509,453.6429
Sprite,Background,Centre,"sb\p.png",0,0 S,0,81589,,2 F,7,81589,82852,1,0 M,19,81639,82589,242,430,211.4322,384.2768
Sprite,Background,Centre,"sb\p.png",0,0 S,0,81589,,2 F,7,81589,82852,1,0 M,19,81611,82589,242,430,127.0711,506.3895
Sprite,Background,Centre,"sb\p.png",0,0 S,0,81589,,2 F,7,81589,82852,1,0 M,19,81682,82589,242,430,120.8286,511.4463
Sprite,Background,Centre,"sb\p.png",0,0 S,0,81589,,2 F,7,81589,82852,1,0 M,19,81683,82589,242,430,161.2765,487.3125
Sprite,Background,Centre,"sb\p.png",0,0 S,0,81589,,2 F,7,81589,82852,1,0 M,19,81621,82589,242,430,145.2742,543.3363
Sprite,Background,Centre,"sb\p.png",0,0 S,0,81589,,2 F,7,81589,82852,1,0 M,19,81614,82589,242,430,160.6654,389.1872
Sprite,Background,Centre,"sb\p.png",0,0 S,0,81589,,2 F,7,81589,82852,1,0 M,19,81647,82589,242,430,306.0437,470.9195
Sprite,Background,Centre,"sb\p.png",0,0 S,0,81589,,2 F,7,81589,82852,1,0 M,19,81628,82589,242,430,248.4497,512.749
Sprite,Background,Centre,"sb\p.png",0,0 S,0,81589,,2 F,7,81589,82852,1,0 M,19,81676,82589,242,430,323.9965,533.4436
Sprite,Background,Centre,"sb\p.png",0,0 S,0,81589,,2 F,7,81589,82852,1,0 M,19,81652,82589,242,430,294.7233,565.075
Sprite,Background,Centre,"sb\p.png",0,0 S,0,81589,,2 F,7,81589,82852,1,0 M,19,81632,82589,242,430,244.1768,394.0659
Sprite,Background,Centre,"sb\p.png",0,0 S,0,81589,,2 F,7,81589,82852,1,0 M,19,81595,82589,242,430,183.5342,556.1061
Sprite,Background,Centre,"sb\p.png",0,0 S,0,81589,,2 F,7,81589,82852,1,0 M,19,81679,82589,242,430,253.723,573.522
Sprite,Background,Centre,"sb\p.png",0,0 S,0,81589,,2 F,7,81589,82852,1,0 M,19,81651,82589,242,430,275.7825,426.1603
Sprite,Background,Centre,"sb\p.png",0,0 S,0,81589,,2 F,7,81589,82852,1,0 M,19,81626,82589,242,430,343.1077,498.2732
Sprite,Background,Centre,"sb\p.png",0,0 S,0,81589,,2 F,7,81589,82852,1,0 M,19,81684,82589,242,430,263.7572,345.7645
Sprite,Background,Centre,"sb\p.png",0,0 S,0,81589,,2 F,7,81589,82852,1,0 M,19,81679,82589,242,430,319.2876,495.0202
Sprite,Background,Centre,"sb\p.png",0,0 S,0,81589,,2 F,7,81589,82852,1,0 M,19,81659,82589,242,430,194.1694,464.5433
Sprite,Background,Centre,"sb\p.png",0,0 S,0,81589,,2 F,7,81589,82852,1,0 M,19,81667,82589,242,430,308.2255,396.9821
Sprite,Background,Centre,"sb\p.png",0,0 S,0,81589,,2 F,7,81589,82852,1,0 M,19,81593,82589,242,430,283.0915,465.0356
Sprite,Background,Centre,"sb\p.png",0,0 S,0,81589,,2 M,19,81589,82589,242,430,214.4352,468.0681 F,7,81589,82852,1,0
Sprite,Background,Centre,"sb\p.png",0,0 S,0,81589,,2 F,7,81589,82852,1,0 M,19,81637,82589,242,430,212.9935,528.8313
Sprite,Background,Centre,"sb\p.png",0,0 S,0,81589,,2 F,7,81589,82852,1,0 M,19,81596,82589,242,430,217.0573,428.3087
Sprite,Background,Centre,"sb\p.png",0,0 S,0,81589,,2 F,7,81589,82852,1,0 M,19,81647,82589,242,430,237.8579,492.8637
Sprite,Background,Centre,"sb\p.png",0,0 S,0,81905,,2 F,7,81905,83168,1,0 M,19,81936,82905,270,203,251.2352,231.3528
Sprite,Background,Centre,"sb\p.png",0,0 S,0,81905,,2 F,7,81905,83168,1,0 M,19,81974,82905,270,203,306.6554,192.981
Sprite,Background,Centre,"sb\p.png",0,0 S,0,81905,,2 F,7,81905,83168,1,0 M,19,81939,82905,270,203,334.6076,210.1317
Sprite,Background,Centre,"sb\p.png",0,0 S,0,81905,,2 F,7,81905,83168,1,0 M,19,81939,82905,270,203,296.5222,188.9795
Sprite,Background,Centre,"sb\p.png",0,0 S,0,81905,,2 F,7,81905,83168,1,0 M,19,81987,82905,270,203,264.1922,137.256
Sprite,Background,Centre,"sb\p.png",0,0 S,0,81905,,2 F,7,81905,83168,1,0 M,19,81955,82905,270,203,258.1521,132.9955
Sprite,Background,Centre,"sb\p.png",0,0 S,0,81905,,2 F,7,81905,83168,1,0 M,19,81974,82905,270,203,263.1508,238.3424
Sprite,Background,Centre,"sb\p.png",0,0 S,0,81905,,2 F,7,81905,83168,1,0 M,19,81994,82905,270,203,336.851,125.9614
Sprite,Background,Centre,"sb\p.png",0,0 S,0,81905,,2 F,7,81905,83168,1,0 M,19,81919,82905,270,203,179.9536,119.2107
Sprite,Background,Centre,"sb\p.png",0,0 S,0,81905,,2 F,7,81905,83168,1,0 M,19,81952,82905,270,203,314.0801,168.461
Sprite,Background,Centre,"sb\p.png",0,0 S,0,81905,,2 F,7,81905,83168,1,0 M,19,81934,82905,270,203,364.6731,113.9102
Sprite,Background,Centre,"sb\p.png",0,0 S,0,81905,,2 F,7,81905,83168,1,0 M,19,81924,82905,270,203,259.3773,227.8225
Sprite,Background,Centre,"sb\p.png",0,0 S,0,81905,,2 F,7,81905,83168,1,0 M,19,81932,82905,270,203,157.3035,294.2386
Sprite,Background,Centre,"sb\p.png",0,0 S,0,81905,,2 F,7,81905,83168,1,0 M,19,81996,82905,270,203,297.4791,219.3982
Sprite,Background,Centre,"sb\p.png",0,0 S,0,81905,,2 F,7,81905,83168,1,0 M,19,81918,82905,270,203,244.1596,132.5921
Sprite,Background,Centre,"sb\p.png",0,0 S,0,81905,,2 F,7,81905,83168,1,0 M,19,81933,82905,270,203,223.8639,123.4044
Sprite,Background,Centre,"sb\p.png",0,0 S,0,81905,,2 F,7,81905,83168,1,0 M,19,81970,82905,270,203,207.6398,98.142
Sprite,Background,Centre,"sb\p.png",0,0 S,0,81905,,2 F,7,81905,83168,1,0 M,19,81926,82905,270,203,138.4415,137.4153
Sprite,Background,Centre,"sb\p.png",0,0 S,0,81905,,2 F,7,81905,83168,1,0 M,19,81952,82905,270,203,335.1026,153.1437
Sprite,Background,Centre,"sb\p.png",0,0 S,0,81905,,2 F,7,81905,83168,1,0 M,19,81939,82905,270,203,215.2619,234.1888
Sprite,Background,Centre,"sb\p.png",0,0 S,0,81905,,2 F,7,81905,83168,1,0 M,19,81912,82905,270,203,235.6961,192.0801
Sprite,Background,Centre,"sb\p.png",0,0 S,0,81905,,2 F,7,81905,83168,1,0 M,19,81927,82905,270,203,287.8712,185.5181
Sprite,Background,Centre,"sb\p.png",0,0 S,0,81905,,2 F,7,81905,83168,1,0 M,19,81935,82905,270,203,340.2857,226.1498
Sprite,Background,Centre,"sb\p.png",0,0 S,0,81905,,2 F,7,81905,83168,1,0 M,19,81947,82905,270,203,225.8371,158.0708
Sprite,Background,Centre,"sb\p.png",0,0 S,0,81905,,2 F,7,81905,83168,1,0 M,19,81907,82905,270,203,276.8254,247.4794
Sprite,Background,Centre,"sb\p.png",0,0 S,0,96431,,2 F,7,96431,97694,1,0 M,19,96451,97431,117,125,125.7504,83.92166
Sprite,Background,Centre,"sb\p.png",0,0 S,0,96431,,2 F,7,96431,97694,1,0 M,19,96454,97431,117,125,129.8196,-17.42422
Sprite,Background,Centre,"sb\p.png",0,0 S,0,96431,,2 F,7,96431,97694,1,0 M,19,96480,97431,117,125,149.4105,88.25006
Sprite,Background,Centre,"sb\p.png",0,0 S,0,96431,,2 F,7,96431,97694,1,0 M,19,96518,97431,117,125,142.8165,71.94808
Sprite,Background,Centre,"sb\p.png",0,0 S,0,96431,,2 F,7,96431,97694,1,0 M,19,96488,97431,117,125,182.2492,159.9075
Sprite,Background,Centre,"sb\p.png",0,0 S,0,96431,,2 F,7,96431,97694,1,0 M,19,96494,97431,117,125,87.73165,-18.03623
Sprite,Background,Centre,"sb\p.png",0,0 S,0,96431,,2 F,7,96431,97694,1,0 M,19,96528,97431,117,125,197.8813,87.86224
Sprite,Background,Centre,"sb\p.png",0,0 S,0,96431,,2 F,7,96431,97694,1,0 M,19,96469,97431,117,125,182.2066,17.18486
Sprite,Background,Centre,"sb\p.png",0,0 S,0,96431,,2 F,7,96431,97694,1,0 M,19,96444,97431,117,125,200.3963,69.81802
Sprite,Background,Centre,"sb\p.png",0,0 S,0,96431,,2 F,7,96431,97694,1,0 M,19,96476,97431,117,125,140.832,122.1656
Sprite,Background,Centre,"sb\p.png",0,0 S,0,96431,,2 F,7,96431,97694,1,0 M,19,96509,97431,117,125,126.4424,189.3105
Sprite,Background,Centre,"sb\p.png",0,0 S,0,96431,,2 F,7,96431,97694,1,0 M,19,96461,97431,117,125,130.985,155.9906
Sprite,Background,Centre,"sb\p.png",0,0 S,0,96431,,2 F,7,96431,97694,1,0 M,19,96469,97431,117,125,103.2177,228.0827
Sprite,Background,Centre,"sb\p.png",0,0 S,0,96431,,2 F,7,96431,97694,1,0 M,19,96520,97431,117,125,202.5974,190.8566
Sprite,Background,Centre,"sb\p.png",0,0 S,0,96431,,2 F,7,96431,97694,1,0 M,19,96504,97431,117,125,93.47578,111.7482
Sprite,Background,Centre,"sb\p.png",0,0 S,0,96431,,2 M,19,96431,97431,117,125,25.51503,238.7827 F,7,96431,97694,1,0
Sprite,Background,Centre,"sb\p.png",0,0 S,0,96431,,2 F,7,96431,97694,1,0 M,19,96466,97431,117,125,94.27309,-11.11571
Sprite,Background,Centre,"sb\p.png",0,0 S,0,96431,,2 F,7,96431,97694,1,0 M,19,96496,97431,117,125,132.5697,69.12885
Sprite,Background,Centre,"sb\p.png",0,0 S,0,96431,,2 F,7,96431,97694,1,0 M,19,96466,97431,117,125,250.5441,176.1367
Sprite,Background,Centre,"sb\p.png",0,0 S,0,96431,,2 F,7,96431,97694,1,0 M,19,96464,97431,117,125,173.3227,6.725947
Sprite,Background,Centre,"sb\p.png",0,0 S,0,96431,,2 F,7,96431,97694,1,0 M,19,96450,97431,117,125,224.5137,204.9801
Sprite,Background,Centre,"sb\p.png",0,0 S,0,96431,,2 F,7,96431,97694,1,0 M,19,96526,97431,117,125,211.5062,146.8537
Sprite,Background,Centre,"sb\p.png",0,0 S,0,96431,,2 F,7,96431,97694,1,0 M,19,96461,97431,117,125,233.7697,194.7197
Sprite,Background,Centre,"sb\p.png",0,0 S,0,96431,,2 F,7,96431,97694,1,0 M,19,96463,97431,117,125,107.9358,202.4715
Sprite,Background,Centre,"sb\p.png",0,0 S,0,96431,,2 F,7,96431,97694,1,0 M,19,96516,97431,117,125,120.8215,251.9425
Sprite,Background,Centre,"sb\p.png",0,0 S,0,96747,,2 F,7,96747,98010,1,0 M,19,96823,97747,131,292,177.773,316.9257
Sprite,Background,Centre,"sb\p.png",0,0 S,0,96747,,2 F,7,96747,98010,1,0 M,19,96811,97747,131,292,76.51306,219.1153
Sprite,Background,Centre,"sb\p.png",0,0 S,0,96747,,2 F,7,96747,98010,1,0 M,19,96759,97747,131,292,166.152,331.6653
Sprite,Background,Centre,"sb\p.png",0,0 S,0,96747,,2 F,7,96747,98010,1,0 M,19,96752,97747,131,292,192.9571,336.015
Sprite,Background,Centre,"sb\p.png",0,0 S,0,96747,,2 F,7,96747,98010,1,0 M,19,96763,97747,131,292,156.1479,317.7601
Sprite,Background,Centre,"sb\p.png",0,0 S,0,96747,,2 F,7,96747,98010,1,0 M,19,96826,97747,131,292,206.1834,271.2285
Sprite,Background,Centre,"sb\p.png",0,0 S,0,96747,,2 F,7,96747,98010,1,0 M,19,96827,97747,131,292,150.0876,297.9719
Sprite,Background,Centre,"sb\p.png",0,0 S,0,96747,,2 F,7,96747,98010,1,0 M,19,96792,97747,131,292,104.426,206.0126
Sprite,Background,Centre,"sb\p.png",0,0 S,0,96747,,2 F,7,96747,98010,1,0 M,19,96754,97747,131,292,140.6758,237.8578
Sprite,Background,Centre,"sb\p.png",0,0 S,0,96747,,2 F,7,96747,98010,1,0 M,19,96793,97747,131,292,105.3913,217.2658
Sprite,Background,Centre,"sb\p.png",0,0 S,0,96747,,2 F,7,96747,98010,1,0 M,19,96793,97747,131,292,219.592,312.7954
Sprite,Background,Centre,"sb\p.png",0,0 S,0,96747,,2 F,7,96747,98010,1,0 M,19,96816,97747,131,292,181.3997,153.9099
Sprite,Background,Centre,"sb\p.png",0,0 S,0,96747,,2 F,7,96747,98010,1,0 M,19,96777,97747,131,292,95.52053,269.5232
Sprite,Background,Centre,"sb\p.png",0,0 S,0,96747,,2 F,7,96747,98010,1,0 M,19,96809,97747,131,292,80.87629,155.9389
Sprite,Background,Centre,"sb\p.png",0,0 S,0,96747,,2 F,7,96747,98010,1,0 M,19,96763,97747,131,292,261.5631,345.238
Sprite,Background,Centre,"sb\p.png",0,0 S,0,96747,,2 F,7,96747,98010,1,0 M,19,96824,97747,131,292,250.0139,210.934
Sprite,Background,Centre,"sb\p.png",0,0 S,0,96747,,2 F,7,96747,98010,1,0 M,19,96846,97747,131,292,169.2336,338.2406
Sprite,Background,Centre,"sb\p.png",0,0 S,0,96747,,2 F,7,96747,98010,1,0 M,19,96829,97747,131,292,86.54784,284.9996
Sprite,Background,Centre,"sb\p.png",0,0 S,0,96747,,2 F,7,96747,98010,1,0 M,19,96817,97747,131,292,195.3471,313.9875
Sprite,Background,Centre,"sb\p.png",0,0 S,0,96747,,2 F,7,96747,98010,1,0 M,19,96774,97747,131,292,87.36376,417.6379
Sprite,Background,Centre,"sb\p.png",0,0 S,0,96747,,2 F,7,96747,98010,1,0 M,19,96827,97747,131,292,61.53727,261.1629
Sprite,Background,Centre,"sb\p.png",0,0 S,0,96747,,2 F,7,96747,98010,1,0 M,19,96835,97747,131,292,117.2006,267.6366
Sprite,Background,Centre,"sb\p.png",0,0 S,0,96747,,2 F,7,96747,98010,1,0 M,19,96761,97747,131,292,78.77151,260.4851
Sprite,Background,Centre,"sb\p.png",0,0 S,0,96747,,2 F,7,96747,98010,1,0 M,19,96774,97747,131,292,64.90318,302.964
Sprite,Background,Centre,"sb\p.png",0,0 S,0,96747,,2 F,7,96747,98010,1,0 M,19,96750,97747,131,292,65.19276,297.0405
Sprite,Background,Centre,"sb\p.png",0,0 S,0,97063,,2 F,7,97063,98326,1,0 M,19,97123,98063,255,90,302.4641,181.412
Sprite,Background,Centre,"sb\p.png",0,0 S,0,97063,,2 F,7,97063,98326,1,0 M,19,97094,98063,255,90,215.7721,217.0833
Sprite,Background,Centre,"sb\p.png",0,0 S,0,97063,,2 F,7,97063,98326,1,0 M,19,97077,98063,255,90,223.5726,176.4657
Sprite,Background,Centre,"sb\p.png",0,0 S,0,97063,,2 F,7,97063,98326,1,0 M,19,97098,98063,255,90,171.0165,108.5143
Sprite,Background,Centre,"sb\p.png",0,0 S,0,97063,,2 F,7,97063,98326,1,0 M,19,97123,98063,255,90,181.9107,-1.361678
Sprite,Background,Centre,"sb\p.png",0,0 S,0,97063,,2 F,7,97063,98326,1,0 M,19,97093,98063,255,90,311.6546,83.73492
Sprite,Background,Centre,"sb\p.png",0,0 S,0,97063,,2 F,7,97063,98326,1,0 M,19,97116,98063,255,90,290.3168,96.98026
Sprite,Background,Centre,"sb\p.png",0,0 S,0,97063,,2 F,7,97063,98326,1,0 M,19,97150,98063,255,90,286.8425,26.54092
Sprite,Background,Centre,"sb\p.png",0,0 S,0,97063,,2 F,7,97063,98326,1,0 M,19,97126,98063,255,90,244.9884,150.1728
Sprite,Background,Centre,"sb\p.png",0,0 S,0,97063,,2 F,7,97063,98326,1,0 M,19,97157,98063,255,90,181.1209,13.9876
Sprite,Background,Centre,"sb\p.png",0,0 S,0,97063,,2 F,7,97063,98326,1,0 M,19,97147,98063,255,90,250.323,66.46012
Sprite,Background,Centre,"sb\p.png",0,0 S,0,97063,,2 F,7,97063,98326,1,0 M,19,97136,98063,255,90,287.6464,-39.96235
Sprite,Background,Centre,"sb\p.png",0,0 S,0,97063,,2 F,7,97063,98326,1,0 M,19,97162,98063,255,90,271.045,101.9398
Sprite,Background,Centre,"sb\p.png",0,0 S,0,97063,,2 F,7,97063,98326,1,0 M,19,97150,98063,255,90,306.6288,78.02198
Sprite,Background,Centre,"sb\p.png",0,0 S,0,97063,,2 F,7,97063,98326,1,0 M,19,97117,98063,255,90,230.0267,51.36926
Sprite,Background,Centre,"sb\p.png",0,0 S,0,97063,,2 F,7,97063,98326,1,0 M,19,97119,98063,255,90,116.3052,59.54119
Sprite,Background,Centre,"sb\p.png",0,0 S,0,97063,,2 F,7,97063,98326,1,0 M,19,97071,98063,255,90,174.5316,69.65714
Sprite,Background,Centre,"sb\p.png",0,0 S,0,97063,,2 F,7,97063,98326,1,0 M,19,97085,98063,255,90,332.9723,77.29865
Sprite,Background,Centre,"sb\p.png",0,0 S,0,97063,,2 F,7,97063,98326,1,0 M,19,97087,98063,255,90,190.036,87.83619
Sprite,Background,Centre,"sb\p.png",0,0 S,0,97063,,2 F,7,97063,98326,1,0 M,19,97118,98063,255,90,252.431,68.15051
Sprite,Background,Centre,"sb\p.png",0,0 S,0,97063,,2 F,7,97063,98326,1,0 M,19,97152,98063,255,90,206.4671,-6.480884
Sprite,Background,Centre,"sb\p.png",0,0 S,0,97063,,2 F,7,97063,98326,1,0 M,19,97110,98063,255,90,291.5171,201.1553
Sprite,Background,Centre,"sb\p.png",0,0 S,0,97063,,2 F,7,97063,98326,1,0 M,19,97150,98063,255,90,125.1887,82.99754
Sprite,Background,Centre,"sb\p.png",0,0 S,0,97063,,2 F,7,97063,98326,1,0 M,19,97091,98063,255,90,346.5387,-7.860435
Sprite,Background,Centre,"sb\p.png",0,0 S,0,97063,,2 F,7,97063,98326,1,0 M,19,97149,98063,255,90,245.2104,116.2329
Sprite,Background,Centre,"sb\p.png",0,0 S,0,99905,,2 F,7,99905,101168,1,0 M,19,99924,100905,334,399,309.9763,365.7755
Sprite,Background,Centre,"sb\p.png",0,0 S,0,99905,,2 F,7,99905,101168,1,0 M,19,99942,100905,334,399,280.3841,501.8656
Sprite,Background,Centre,"sb\p.png",0,0 S,0,99905,,2 F,7,99905,101168,1,0 M,19,99922,100905,334,399,362.0817,412.1307
Sprite,Background,Centre,"sb\p.png",0,0 S,0,99905,,2 F,7,99905,101168,1,0 M,19,99963,100905,334,399,409.9771,311.3446
Sprite,Background,Centre,"sb\p.png",0,0 S,0,99905,,2 F,7,99905,101168,1,0 M,19,99957,100905,334,399,292.0893,361.8585
Sprite,Background,Centre,"sb\p.png",0,0 S,0,99905,,2 F,7,99905,101168,1,0 M,19,100003,100905,334,399,266.1957,404.1556
Sprite,Background,Centre,"sb\p.png",0,0 S,0,99905,,2 F,7,99905,101168,1,0 M,19,99963,100905,334,399,280.8098,419.4891
Sprite,Background,Centre,"sb\p.png",0,0 S,0,99905,,2 F,7,99905,101168,1,0 M,19,99950,100905,334,399,412.7937,393.295
Sprite,Background,Centre,"sb\p.png",0,0 S,0,99905,,2 F,7,99905,101168,1,0 M,19,99914,100905,334,399,354.4951,409.4379
Sprite,Background,Centre,"sb\p.png",0,0 S,0,99905,,2 F,7,99905,101168,1,0 M,19,99966,100905,334,399,296.6542,298.7289
Sprite,Background,Centre,"sb\p.png",0,0 S,0,99905,,2 F,7,99905,101168,1,0 M,19,99943,100905,334,399,366.3961,298.0718
Sprite,Background,Centre,"sb\p.png",0,0 S,0,99905,,2 F,7,99905,101168,1,0 M,19,99923,100905,334,399,249.9989,499.5227
Sprite,Background,Centre,"sb\p.png",0,0 S,0,99905,,2 F,7,99905,101168,1,0 M,19,99932,100905,334,399,401.6034,423.7746
Sprite,Background,Centre,"sb\p.png",0,0 S,0,99905,,2 F,7,99905,101168,1,0 M,19,99964,100905,334,399,375.5795,487.742
Sprite,Background,Centre,"sb\p.png",0,0 S,0,99905,,2 M,19,99905,100905,334,399,320.7903,337.4005 F,7,99905,101168,1,0
Sprite,Background,Centre,"sb\p.png",0,0 S,0,99905,,2 F,7,99905,101168,1,0 M,19,99961,100905,334,399,441.2295,315.3469
Sprite,Background,Centre,"sb\p.png",0,0 S,0,99905,,2 F,7,99905,101168,1,0 M,19,99956,100905,334,399,294.9291,455.8724
Sprite,Background,Centre,"sb\p.png",0,0 S,0,99905,,2 F,7,99905,101168,1,0 M,19,99982,100905,334,399,295.5998,525.291
Sprite,Background,Centre,"sb\p.png",0,0 S,0,99905,,2 F,7,99905,101168,1,0 M,19,99975,100905,334,399,311.8347,502.6566
Sprite,Background,Centre,"sb\p.png",0,0 S,0,99905,,2 F,7,99905,101168,1,0 M,19,99976,100905,334,399,329.2025,347.2218
Sprite,Background,Centre,"sb\p.png",0,0 S,0,99905,,2 F,7,99905,101168,1,0 M,19,99946,100905,334,399,319.4695,465.4294
Sprite,Background,Centre,"sb\p.png",0,0 S,0,99905,,2 F,7,99905,101168,1,0 M,19,99912,100905,334,399,308.2419,388.0217
Sprite,Background,Centre,"sb\p.png",0,0 S,0,99905,,2 F,7,99905,101168,1,0 M,19,99947,100905,334,399,353.2592,448.377
Sprite,Background,Centre,"sb\p.png",0,0 S,0,99905,,2 F,7,99905,101168,1,0 M,19,100001,100905,334,399,291.495,462.0026
Sprite,Background,Centre,"sb\p.png",0,0 S,0,99905,,2 F,7,99905,101168,1,0 M,19,99973,100905,334,399,319.0742,348.1451
Sprite,Background,Centre,"sb\p.png",0,0 S,0,154537,,2 F,7,154537,155800,1,0 M,19,154549,155537,522,270,576.9377,267.3838
Sprite,Background,Centre,"sb\p.png",0,0 S,0,154537,,2 F,7,154537,155800,1,0 M,19,154550,155537,522,270,480.8117,282.3502
Sprite,Background,Centre,"sb\p.png",0,0 S,0,154537,,2 F,7,154537,155800,1,0 M,19,154565,155537,522,270,457.5533,261.5369
Sprite,Background,Centre,"sb\p.png",0,0 S,0,154537,,2 F,7,154537,155800,1,0 M,19,154617,155537,522,270,590.6069,320.1805
Sprite,Background,Centre,"sb\p.png",0,0 S,0,154537,,2 F,7,154537,155800,1,0 M,19,154556,155537,522,270,498.8839,250.8781
Sprite,Background,Centre,"sb\p.png",0,0 S,0,154537,,2 F,7,154537,155800,1,0 M,19,154552,155537,522,270,461.5697,278.3171
Sprite,Background,Centre,"sb\p.png",0,0 S,0,154537,,2 F,7,154537,155800,1,0 M,19,154559,155537,522,270,396.7056,217.1104
Sprite,Background,Centre,"sb\p.png",0,0 S,0,154537,,2 F,7,154537,155800,1,0 M,19,154564,155537,522,270,540.308,304.4357
Sprite,Background,Centre,"sb\p.png",0,0 S,0,154537,,2 F,7,154537,155800,1,0 M,19,154600,155537,522,270,620.954,219.7099
Sprite,Background,Centre,"sb\p.png",0,0 S,0,154537,,2 F,7,154537,155800,1,0 M,19,154631,155537,522,270,534.6865,285.4614
Sprite,Background,Centre,"sb\p.png",0,0 S,0,154537,,2 F,7,154537,155800,1,0 M,19,154597,155537,522,270,428.7944,243.1352
Sprite,Background,Centre,"sb\p.png",0,0 S,0,154537,,2 F,7,154537,155800,1,0 M,19,154575,155537,522,270,568.5809,302.8514
Sprite,Background,Centre,"sb\p.png",0,0 S,0,154537,,2 F,7,154537,155800,1,0 M,19,154544,155537,522,270,473.4112,242.1588
Sprite,Background,Centre,"sb\p.png",0,0 S,0,154537,,2 F,7,154537,155800,1,0 M,19,154539,155537,522,270,418.9468,210.4934
Sprite,Background,Centre,"sb\p.png",0,0 S,0,154537,,2 F,7,154537,155800,1,0 M,19,154593,155537,522,270,576.6964,328.3808
Sprite,Background,Centre,"sb\p.png",0,0 S,0,154537,,2 F,7,154537,155800,1,0 M,19,154554,155537,522,270,507.1725,363.8357
Sprite,Background,Centre,"sb\p.png",0,0 S,0,154537,,2 F,7,154537,155800,1,0 M,19,154548,155537,522,270,533.7105,401.4795
Sprite,Background,Centre,"sb\p.png",0,0 S,0,154537,,2 F,7,154537,155800,1,0 M,19,154573,155537,522,270,536.4633,234.8601
Sprite,Background,Centre,"sb\p.png",0,0 S,0,154537,,2 F,7,154537,155800,1,0 M,19,154548,155537,522,270,401.7273,307.5564
Sprite,Background,Centre,"sb\p.png",0,0 S,0,154537,,2 F,7,154537,155800,1,0 M,19,154584,155537,522,270,574.5125,199.3852
Sprite,Background,Centre,"sb\p.png",0,0 S,0,154537,,2 F,7,154537,155800,1,0 M,19,154571,155537,522,270,453.0471,272.55
Sprite,Background,Centre,"sb\p.png",0,0 S,0,154537,,2 F,7,154537,155800,1,0 M,19,154628,155537,522,270,473.5862,348.2311
Sprite,Background,Centre,"sb\p.png",0,0 S,0,154537,,2 F,7,154537,155800,1,0 M,19,154615,155537,522,270,549.6316,351.4401
Sprite,Background,Centre,"sb\p.png",0,0 S,0,154537,,2 F,7,154537,155800,1,0 M,19,154540,155537,522,270,566.7174,141.5619
Sprite,Background,Centre,"sb\p.png",0,0 S,0,154537,,2 F,7,154537,155800,1,0 M,19,154550,155537,522,270,649.7757,342.68
Sprite,Background,Centre,"sb\p.png",0,0 S,0,155010,,2 F,7,155010,156273,1,0 M,19,155078,156010,307,415,314.5829,438.8222
Sprite,Background,Centre,"sb\p.png",0,0 S,0,155010,,2 F,7,155010,156273,1,0 M,19,155022,156010,307,415,281.0213,314.2969
Sprite,Background,Centre,"sb\p.png",0,0 S,0,155010,,2 F,7,155010,156273,1,0 M,19,155023,156010,307,415,174.0546,448.0834
Sprite,Background,Centre,"sb\p.png",0,0 S,0,155010,,2 F,7,155010,156273,1,0 M,19,155055,156010,307,415,367.6094,317.2682
Sprite,Background,Centre,"sb\p.png",0,0 S,0,155010,,2 F,7,155010,156273,1,0 M,19,155057,156010,307,415,314.1643,517.7505
Sprite,Background,Centre,"sb\p.png",0,0 S,0,155010,,2 F,7,155010,156273,1,0 M,19,155085,156010,307,415,292.6671,529.1033
Sprite,Background,Centre,"sb\p.png",0,0 S,0,155010,,2 F,7,155010,156273,1,0 M,19,155048,156010,307,415,281.2979,397.6678
Sprite,Background,Centre,"sb\p.png",0,0 S,0,155010,,2 F,7,155010,156273,1,0 M,19,155100,156010,307,415,256.9975,303.7177
Sprite,Background,Centre,"sb\p.png",0,0 S,0,155010,,2 F,7,155010,156273,1,0 M,19,155016,156010,307,415,289.6323,390.5385
Sprite,Background,Centre,"sb\p.png",0,0 S,0,155010,,2 F,7,155010,156273,1,0 M,19,155107,156010,307,415,248.0764,463.0001
Sprite,Background,Centre,"sb\p.png",0,0 S,0,155010,,2 F,7,155010,156273,1,0 M,19,155026,156010,307,415,409.39,465.1228
Sprite,Background,Centre,"sb\p.png",0,0 S,0,155010,,2 F,7,155010,156273,1,0 M,19,155087,156010,307,415,312.6319,466.6941
Sprite,Background,Centre,"sb\p.png",0,0 S,0,155010,,2 F,7,155010,156273,1,0 M,19,155097,156010,307,415,272.4937,430.9158
Sprite,Background,Centre,"sb\p.png",0,0 S,0,155010,,2 F,7,155010,156273,1,0 M,19,155057,156010,307,415,292.4417,434.0803
Sprite,Background,Centre,"sb\p.png",0,0 S,0,155010,,2 F,7,155010,156273,1,0 M,19,155092,156010,307,415,327.3787,496.4905
Sprite,Background,Centre,"sb\p.png",0,0 S,0,155010,,2 F,7,155010,156273,1,0 M,19,155096,156010,307,415,167.8407,452.0227
Sprite,Background,Centre,"sb\p.png",0,0 S,0,155010,,2 F,7,155010,156273,1,0 M,19,155026,156010,307,415,271.5225,496.6232
Sprite,Background,Centre,"sb\p.png",0,0 S,0,155010,,2 F,7,155010,156273,1,0 M,19,155099,156010,307,415,288.5069,495.9136
Sprite,Background,Centre,"sb\p.png",0,0 S,0,155010,,2 F,7,155010,156273,1,0 M,19,155035,156010,307,415,306.5343,328.0013
Sprite,Background,Centre,"sb\p.png",0,0 S,0,155010,,2 F,7,155010,156273,1,0 M,19,155067,156010,307,415,312.2042,388.5063
Sprite,Background,Centre,"sb\p.png",0,0 S,0,155010,,2 F,7,155010,156273,1,0 M,19,155057,156010,307,415,334.3255,424.7116
Sprite,Background,Centre,"sb\p.png",0,0 S,0,155010,,2 M,19,155010,156010,307,415,368.0234,517.1624 F,7,155010,156273,1,0
Sprite,Background,Centre,"sb\p.png",0,0 S,0,155010,,2 F,7,155010,156273,1,0 M,19,155049,156010,307,415,301.9462,434.351
Sprite,Background,Centre,"sb\p.png",0,0 S,0,155010,,2 F,7,155010,156273,1,0 M,19,155068,156010,307,415,261.5908,294.2564
Sprite,Background,Centre,"sb\p.png",0,0 S,0,155010,,2 F,7,155010,156273,1,0 M,19,155015,156010,307,415,343.0494,378.9245
Sprite,Background,Centre,"sb\p.png",0,0 S,0,155484,,2 F,7,155484,156747,1,0 M,19,155513,156484,379,391,446.8359,346.7362
Sprite,Background,Centre,"sb\p.png",0,0 S,0,155484,,2 F,7,155484,156747,1,0 M,19,155495,156484,379,391,417.8128,413.7721
Sprite,Background,Centre,"sb\p.png",0,0 S,0,155484,,2 F,7,155484,156747,1,0 M,19,155573,156484,379,391,387.5656,418.7061
Sprite,Background,Centre,"sb\p.png",0,0 S,0,155484,,2 F,7,155484,156747,1,0 M,19,155508,156484,379,391,421.3596,276.5899
Sprite,Background,Centre,"sb\p.png",0,0 S,0,155484,,2 F,7,155484,156747,1,0 M,19,155557,156484,379,391,368.8434,472.3686
Sprite,Background,Centre,"sb\p.png",0,0 S,0,155484,,2 F,7,155484,156747,1,0 M,19,155492,156484,379,391,276.6161,372.7369
Sprite,Background,Centre,"sb\p.png",0,0 S,0,155484,,2 F,7,155484,156747,1,0 M,19,155580,156484,379,391,359.344,445.5678
Sprite,Background,Centre,"sb\p.png",0,0 S,0,155484,,2 F,7,155484,156747,1,0 M,19,155557,156484,379,391,404.995,391.5105
Sprite,Background,Centre,"sb\p.png",0,0 S,0,155484,,2 F,7,155484,156747,1,0 M,19,155579,156484,379,391,396.6057,353.9724
Sprite,Background,Centre,"sb\p.png",0,0 S,0,155484,,2 F,7,155484,156747,1,0 M,19,155553,156484,379,391,280.6273,408.9671
Sprite,Background,Centre,"sb\p.png",0,0 S,0,155484,,2 F,7,155484,156747,1,0 M,19,155508,156484,379,391,314.0144,357.7454
Sprite,Background,Centre,"sb\p.png",0,0 S,0,155484,,2 F,7,155484,156747,1,0 M,19,155488,156484,379,391,444.4628,279.8441
Sprite,Background,Centre,"sb\p.png",0,0 S,0,155484,,2 F,7,155484,156747,1,0 M,19,155570,156484,379,391,485.1783,362.2569
Sprite,Background,Centre,"sb\p.png",0,0 S,0,155484,,2 F,7,155484,156747,1,0 M,19,155583,156484,379,391,254.1077,427.0821
Sprite,Background,Centre,"sb\p.png",0,0 S,0,155484,,2 F,7,155484,156747,1,0 M,19,155581,156484,379,391,319.8465,361.7278
Sprite,Background,Centre,"sb\p.png",0,0 S,0,155484,,2 F,7,155484,156747,1,0 M,19,155536,156484,379,391,380.4828,369.05
Sprite,Background,Centre,"sb\p.png",0,0 S,0,155484,,2 F,7,155484,156747,1,0 M,19,155502,156484,379,391,357.543,356.0629
Sprite,Background,Centre,"sb\p.png",0,0 S,0,155484,,2 F,7,155484,156747,1,0 M,19,155578,156484,379,391,285.0508,387.9119
Sprite,Background,Centre,"sb\p.png",0,0 S,0,155484,,2 F,7,155484,156747,1,0 M,19,155526,156484,379,391,493.1079,466.8181
Sprite,Background,Centre,"sb\p.png",0,0 S,0,155484,,2 F,7,155484,156747,1,0 M,19,155486,156484,379,391,328.5681,371.6964
Sprite,Background,Centre,"sb\p.png",0,0 S,0,155484,,2 F,7,155484,156747,1,0 M,19,155529,156484,379,391,437.4435,490.0422
Sprite,Background,Centre,"sb\p.png",0,0 S,0,155484,,2 F,7,155484,156747,1,0 M,19,155521,156484,379,391,393.1492,438.9562
Sprite,Background,Centre,"sb\p.png",0,0 S,0,155484,,2 F,7,155484,156747,1,0 M,19,155548,156484,379,391,454.9588,388.4989
Sprite,Background,Centre,"sb\p.png",0,0 S,0,155484,,2 F,7,155484,156747,1,0 M,19,155579,156484,379,391,342.395,304.4201
Sprite,Background,Centre,"sb\p.png",0,0 S,0,155484,,2 F,7,155484,156747,1,0 M,19,155528,156484,379,391,404.2372,518.5268
Sprite,Background,Centre,"sb\p.png",0,0 S,0,157063,,2 F,7,157063,158326,1,0 M,19,157131,158063,206,248,279.5747,233.4478
Sprite,Background,Centre,"sb\p.png",0,0 S,0,157063,,2 F,7,157063,158326,1,0 M,19,157077,158063,206,248,206.8057,221.012
Sprite,Background,Centre,"sb\p.png",0,0 S,0,157063,,2 F,7,157063,158326,1,0 M,19,157108,158063,206,248,92.82439,301.0686
Sprite,Background,Centre,"sb\p.png",0,0 S,0,157063,,2 F,7,157063,158326,1,0 M,19,157147,158063,206,248,177.0238,246.8258
Sprite,Background,Centre,"sb\p.png",0,0 S,0,157063,,2 F,7,157063,158326,1,0 M,19,157156,158063,206,248,166.1042,356.9235
Sprite,Background,Centre,"sb\p.png",0,0 S,0,157063,,2 F,7,157063,158326,1,0 M,19,157106,158063,206,248,154.6355,198.9827
Sprite,Background,Centre,"sb\p.png",0,0 S,0,157063,,2 F,7,157063,158326,1,0 M,19,157075,158063,206,248,236.4816,199.835
Sprite,Background,Centre,"sb\p.png",0,0 S,0,157063,,2 F,7,157063,158326,1,0 M,19,157075,158063,206,248,141.1673,231.0966
Sprite,Background,Centre,"sb\p.png",0,0 S,0,157063,,2 F,7,157063,158326,1,0 M,19,157121,158063,206,248,111.2119,176.054
Sprite,Background,Centre,"sb\p.png",0,0 S,0,157063,,2 F,7,157063,158326,1,0 M,19,157122,158063,206,248,312.5503,148.185
Sprite,Background,Centre,"sb\p.png",0,0 S,0,157063,,2 F,7,157063,158326,1,0 M,19,157135,158063,206,248,211.5799,304.7262
Sprite,Background,Centre,"sb\p.png",0,0 S,0,157063,,2 F,7,157063,158326,1,0 M,19,157110,158063,206,248,170.0256,249.3579
Sprite,Background,Centre,"sb\p.png",0,0 S,0,157063,,2 F,7,157063,158326,1,0 M,19,157083,158063,206,248,195.3139,124.4613
Sprite,Background,Centre,"sb\p.png",0,0 S,0,157063,,2 F,7,157063,158326,1,0 M,19,157155,158063,206,248,288.8838,168.28
Sprite,Background,Centre,"sb\p.png",0,0 S,0,157063,,2 F,7,157063,158326,1,0 M,19,157079,158063,206,248,315.9578,244.9517
Sprite,Background,Centre,"sb\p.png",0,0 S,0,157063,,2 F,7,157063,158326,1,0 M,19,157132,158063,206,248,99.62059,224.2424
Sprite,Background,Centre,"sb\p.png",0,0 S,0,157063,,2 F,7,157063,158326,1,0 M,19,157080,158063,206,248,198.3773,221.0576
Sprite,Background,Centre,"sb\p.png",0,0 S,0,157063,,2 F,7,157063,158326,1,0 M,19,157118,158063,206,248,137.6176,238.7886
Sprite,Background,Centre,"sb\p.png",0,0 S,0,157063,,2 F,7,157063,158326,1,0 M,19,157069,158063,206,248,171.4162,314.5504
Sprite,Background,Centre,"sb\p.png",0,0 S,0,157063,,2 F,7,157063,158326,1,0 M,19,157092,158063,206,248,169.9329,233.1622
Sprite,Background,Centre,"sb\p.png",0,0 S,0,157063,,2 F,7,157063,158326,1,0 M,19,157146,158063,206,248,121.6511,213.8493
Sprite,Background,Centre,"sb\p.png",0,0 S,0,157063,,2 F,7,157063,158326,1,0 M,19,157141,158063,206,248,241.9469,206.3728
Sprite,Background,Centre,"sb\p.png",0,0 S,0,157063,,2 F,7,157063,158326,1,0 M,19,157124,158063,206,248,296.7028,334.0117
Sprite,Background,Centre,"sb\p.png",0,0 S,0,157063,,2 F,7,157063,158326,1,0 M,19,157122,158063,206,248,74.94482,280.3966
Sprite,Background,Centre,"sb\p.png",0,0 S,0,157063,,2 F,7,157063,158326,1,0 M,19,157118,158063,206,248,225.339,391.7046
Sprite,Background,Centre,"sb\p.png",0,0 S,0,157537,,2 F,7,157537,158800,1,0 M,19,157604,158537,159,337,187.3949,422.4033
Sprite,Background,Centre,"sb\p.png",0,0 S,0,157537,,2 F,7,157537,158800,1,0 M,19,157544,158537,159,337,186.3485,330.9951
Sprite,Background,Centre,"sb\p.png",0,0 S,0,157537,,2 F,7,157537,158800,1,0 M,19,157628,158537,159,337,191.7207,310.6684
Sprite,Background,Centre,"sb\p.png",0,0 S,0,157537,,2 F,7,157537,158800,1,0 M,19,157627,158537,159,337,59.50982,388.4364
Sprite,Background,Centre,"sb\p.png",0,0 S,0,157537,,2 F,7,157537,158800,1,0 M,19,157606,158537,159,337,180.8772,371.6755
Sprite,Background,Centre,"sb\p.png",0,0 S,0,157537,,2 F,7,157537,158800,1,0 M,19,157602,158537,159,337,123.0278,358.6795
Sprite,Background,Centre,"sb\p.png",0,0 S,0,157537,,2 F,7,157537,158800,1,0 M,19,157555,158537,159,337,210.4991,304.3069
Sprite,Background,Centre,"sb\p.png",0,0 S,0,157537,,2 F,7,157537,158800,1,0 M,19,157579,158537,159,337,190.3365,356.6729
Sprite,Background,Centre,"sb\p.png",0,0 S,0,157537,,2 F,7,157537,158800,1,0 M,19,157624,158537,159,337,106.613,387.839
Sprite,Background,Centre,"sb\p.png",0,0 S,0,157537,,2 F,7,157537,158800,1,0 M,19,157555,158537,159,337,204.1868,360.6464
Sprite,Background,Centre,"sb\p.png",0,0 S,0,157537,,2 F,7,157537,158800,1,0 M,19,157578,158537,159,337,107.1758,310.9567
Sprite,Background,Centre,"sb\p.png",0,0 S,0,157537,,2 F,7,157537,158800,1,0 M,19,157625,158537,159,337,194.9852,338.0315
Sprite,Background,Centre,"sb\p.png",0,0 S,0,157537,,2 F,7,157537,158800,1,0 M,19,157545,158537,159,337,84.14806,398.6943
Sprite,Background,Centre,"sb\p.png",0,0 S,0,157537,,2 F,7,157537,158800,1,0 M,19,157574,158537,159,337,180.9274,440.7072
Sprite,Background,Centre,"sb\p.png",0,0 S,0,157537,,2 F,7,157537,158800,1,0 M,19,157592,158537,159,337,226.9266,300.7374
Sprite,Background,Centre,"sb\p.png",0,0 S,0,157537,,2 F,7,157537,158800,1,0 M,19,157601,158537,159,337,261.7817,236.144
Sprite,Background,Centre,"sb\p.png",0,0 S,0,157537,,2 F,7,157537,158800,1,0 M,19,157608,158537,159,337,181.852,324.5989
Sprite,Background,Centre,"sb\p.png",0,0 S,0,157537,,2 F,7,157537,158800,1,0 M,19,157601,158537,159,337,216.3024,316.0851
Sprite,Background,Centre,"sb\p.png",0,0 S,0,157537,,2 F,7,157537,158800,1,0 M,19,157578,158537,159,337,135.6896,361.7513
Sprite,Background,Centre,"sb\p.png",0,0 S,0,157537,,2 F,7,157537,158800,1,0 M,19,157602,158537,159,337,161.9772,432.9538
Sprite,Background,Centre,"sb\p.png",0,0 S,0,157537,,2 F,7,157537,158800,1,0 M,19,157629,158537,159,337,197.8661,456.8559
Sprite,Background,Centre,"sb\p.png",0,0 S,0,157537,,2 F,7,157537,158800,1,0 M,19,157579,158537,159,337,143.434,207.9353
Sprite,Background,Centre,"sb\p.png",0,0 S,0,157537,,2 F,7,157537,158800,1,0 M,19,157541,158537,159,337,119.0818,339.5576
Sprite,Background,Centre,"sb\p.png",0,0 S,0,157537,,2 F,7,157537,158800,1,0 M,19,157594,158537,159,337,167.8361,315.765
Sprite,Background,Centre,"sb\p.png",0,0 S,0,157537,,2 F,7,157537,158800,1,0 M,19,157601,158537,159,337,59.16333,290.8195
Sprite,Background,Centre,"sb\p.png",0,0 S,0,158010,,2 F,7,158010,159273,1,0 M,19,158079,159010,491,409,505.8451,370.7819
Sprite,Background,Centre,"sb\p.png",0,0 S,0,158010,,2 F,7,158010,159273,1,0 M,19,158055,159010,491,409,547.9585,345.907
Sprite,Background,Centre,"sb\p.png",0,0 S,0,158010,,2 F,7,158010,159273,1,0 M,19,158029,159010,491,409,495.3058,448.7676
Sprite,Background,Centre,"sb\p.png",0,0 S,0,158010,,2 F,7,158010,159273,1,0 M,19,158107,159010,491,409,391.8871,428.4325
Sprite,Background,Centre,"sb\p.png",0,0 S,0,158010,,2 F,7,158010,159273,1,0 M,19,158011,159010,491,409,505.4146,308.0237
Sprite,Background,Centre,"sb\p.png",0,0 S,0,158010,,2 M,19,158010,159010,491,409,453.6488,415.9921 F,7,158010,159273,1,0
Sprite,Background,Centre,"sb\p.png",0,0 S,0,158010,,2 F,7,158010,159273,1,0 M,19,158095,159010,491,409,471.1596,418.5056
Sprite,Background,Centre,"sb\p.png",0,0 S,0,158010,,2 F,7,158010,159273,1,0 M,19,158068,159010,491,409,449.457,423.4976
Sprite,Background,Centre,"sb\p.png",0,0 S,0,158010,,2 F,7,158010,159273,1,0 M,19,158090,159010,491,409,536.1315,462.5084
Sprite,Background,Centre,"sb\p.png",0,0 S,0,158010,,2 F,7,158010,159273,1,0 M,19,158012,159010,491,409,463.9792,388.3632
Sprite,Background,Centre,"sb\p.png",0,0 S,0,158010,,2 F,7,158010,159273,1,0 M,19,158072,159010,491,409,536.5346,459.5034
Sprite,Background,Centre,"sb\p.png",0,0 S,0,158010,,2 F,7,158010,159273,1,0 M,19,158104,159010,491,409,582.9841,407.2888
Sprite,Background,Centre,"sb\p.png",0,0 S,0,158010,,2 F,7,158010,159273,1,0 M,19,158018,159010,491,409,478.0139,341.233
Sprite,Background,Centre,"sb\p.png",0,0 S,0,158010,,2 F,7,158010,159273,1,0 M,19,158075,159010,491,409,535.5234,546.9952
Sprite,Background,Centre,"sb\p.png",0,0 S,0,158010,,2 F,7,158010,159273,1,0 M,19,158032,159010,491,409,485.0586,355.3279
Sprite,Background,Centre,"sb\p.png",0,0 S,0,158010,,2 F,7,158010,159273,1,0 M,19,158062,159010,491,409,384.2974,446.1961
Sprite,Background,Centre,"sb\p.png",0,0 S,0,158010,,2 F,7,158010,159273,1,0 M,19,158097,159010,491,409,554.3509,418.092
Sprite,Background,Centre,"sb\p.png",0,0 S,0,158010,,2 F,7,158010,159273,1,0 M,19,158077,159010,491,409,456.5489,392.965
Sprite,Background,Centre,"sb\p.png",0,0 S,0,158010,,2 F,7,158010,159273,1,0 M,19,158107,159010,491,409,509.3455,344.5605
Sprite,Background,Centre,"sb\p.png",0,0 S,0,158010,,2 F,7,158010,159273,1,0 M,19,158021,159010,491,409,581.7103,478.0481
Sprite,Background,Centre,"sb\p.png",0,0 S,0,158010,,2 F,7,158010,159273,1,0 M,19,158014,159010,491,409,431.298,327.5342
Sprite,Background,Centre,"sb\p.png",0,0 S,0,158010,,2 F,7,158010,159273,1,0 M,19,158035,159010,491,409,520.4556,464.6899
Sprite,Background,Centre,"sb\p.png",0,0 S,0,158010,,2 F,7,158010,159273,1,0 M,19,158017,159010,491,409,421.5236,506.8418
Sprite,Background,Centre,"sb\p.png",0,0 S,0,158010,,2 F,7,158010,159273,1,0 M,19,158086,159010,491,409,595.1653,462.2784
Sprite,Background,Centre,"sb\p.png",0,0 S,0,158010,,2 F,7,158010,159273,1,0 M,19,158014,159010,491,409,534.0822,385.6564
Sprite,Background,Centre,"sb\p.png",0,0 S,0,170642,,2 F,7,170642,171905,1,0 M,19,170734,171642,314,87,352.5385,192.1608
Sprite,Background,Centre,"sb\p.png",0,0 S,0,170642,,2 F,7,170642,171905,1,0 M,19,170708,171642,314,87,239.7688,166.8169
Sprite,Background,Centre,"sb\p.png",0,0 S,0,170642,,2 F,7,170642,171905,1,0 M,19,170718,171642,314,87,294.4637,179.9695
Sprite,Background,Centre,"sb\p.png",0,0 S,0,170642,,2 F,7,170642,171905,1,0 M,19,170665,171642,314,87,370.4431,160.9133
Sprite,Background,Centre,"sb\p.png",0,0 S,0,170642,,2 F,7,170642,171905,1,0 M,19,170661,171642,314,87,357.6766,72.56557
Sprite,Background,Centre,"sb\p.png",0,0 S,0,170642,,2 F,7,170642,171905,1,0 M,19,170706,171642,314,87,411.7557,65.93291
Sprite,Background,Centre,"sb\p.png",0,0 S,0,170642,,2 F,7,170642,171905,1,0 M,19,170675,171642,314,87,403.707,71.71429
Sprite,Background,Centre,"sb\p.png",0,0 S,0,170642,,2 F,7,170642,171905,1,0 M,19,170734,171642,314,87,243.7835,27.55556
Sprite,Background,Centre,"sb\p.png",0,0 S,0,170642,,2 F,7,170642,171905,1,0 M,19,170736,171642,314,87,345.2583,80.1502
Sprite,Background,Centre,"sb\p.png",0,0 S,0,170642,,2 F,7,170642,171905,1,0 M,19,170701,171642,314,87,178.4321,132.5011
Sprite,Background,Centre,"sb\p.png",0,0 S,0,170642,,2 F,7,170642,171905,1,0 M,19,170733,171642,314,87,393.6625,153.8572
Sprite,Background,Centre,"sb\p.png",0,0 S,0,170642,,2 F,7,170642,171905,1,0 M,19,170706,171642,314,87,245.5397,16.87736
Sprite,Background,Centre,"sb\p.png",0,0 S,0,170642,,2 F,7,170642,171905,1,0 M,19,170645,171642,314,87,424.0517,120.371
Sprite,Background,Centre,"sb\p.png",0,0 S,0,170642,,2 F,7,170642,171905,1,0 M,19,170646,171642,314,87,250.996,109.7926
Sprite,Background,Centre,"sb\p.png",0,0 S,0,170642,,2 F,7,170642,171905,1,0 M,19,170719,171642,314,87,309.4278,109.541
Sprite,Background,Centre,"sb\p.png",0,0 S,0,170642,,2 F,7,170642,171905,1,0 M,19,170699,171642,314,87,384.485,95.53642
Sprite,Background,Centre,"sb\p.png",0,0 S,0,170642,,2 F,7,170642,171905,1,0 M,19,170655,171642,314,87,337.9216,62.83892
Sprite,Background,Centre,"sb\p.png",0,0 S,0,170642,,2 F,7,170642,171905,1,0 M,19,170709,171642,314,87,419.9255,183.0666
Sprite,Background,Centre,"sb\p.png",0,0 S,0,170642,,2 F,7,170642,171905,1,0 M,19,170657,171642,314,87,291.1004,-5.198741
Sprite,Background,Centre,"sb\p.png",0,0 S,0,170642,,2 F,7,170642,171905,1,0 M,19,170701,171642,314,87,385.9816,88.62707
Sprite,Background,Centre,"sb\p.png",0,0 S,0,170642,,2 F,7,170642,171905,1,0 M,19,170705,171642,314,87,296.1375,-39.74751
Sprite,Background,Centre,"sb\p.png",0,0 S,0,170642,,2 F,7,170642,171905,1,0 M,19,170733,171642,314,87,324.9803,108.3409
Sprite,Background,Centre,"sb\p.png",0,0 S,0,170642,,2 F,7,170642,171905,1,0 M,19,170702,171642,314,87,286.7228,141.5615
Sprite,Background,Centre,"sb\p.png",0,0 S,0,170642,,2 F,7,170642,171905,1,0 M,19,170730,171642,314,87,181.956,43.57889
Sprite,Background,Centre,"sb\p.png",0,0 S,0,170642,,2 F,7,170642,171905,1,0 M,19,170660,171642,314,87,247.3638,29.52294
Sprite,Background,Centre,"sb\p.png",0,0 S,0,171905,,2 F,7,171905,173168,1,0 M,19,171958,172905,371,86,355.4593,146.0207
Sprite,Background,Centre,"sb\p.png",0,0 S,0,171905,,2 F,7,171905,173168,1,0 M,19,171974,172905,371,86,452.3499,203.6061
Sprite,Background,Centre,"sb\p.png",0,0 S,0,171905,,2 F,7,171905,173168,1,0 M,19,171988,172905,371,86,307.045,154.8895
Sprite,Background,Centre,"sb\p.png",0,0 S,0,171905,,2 F,7,171905,173168,1,0 M,19,171975,172905,371,86,227.364,125.6193
Sprite,Background,Centre,"sb\p.png",0,0 S,0,171905,,2 F,7,171905,173168,1,0 M,19,171906,172905,371,86,385.0199,224.2912
Sprite,Background,Centre,"sb\p.png",0,0 S,0,171905,,2 F,7,171905,173168,1,0 M,19,171938,172905,371,86,346.0173,86.93078
Sprite,Background,Centre,"sb\p.png",0,0 S,0,171905,,2 F,7,171905,173168,1,0 M,19,171958,172905,371,86,265.1705,125.6121
Sprite,Background,Centre,"sb\p.png",0,0 S,0,171905,,2 F,7,171905,173168,1,0 M,19,172004,172905,371,86,342.6773,102.9359
Sprite,Background,Centre,"sb\p.png",0,0 S,0,171905,,2 F,7,171905,173168,1,0 M,19,171912,172905,371,86,439.2513,-0.2656465
Sprite,Background,Centre,"sb\p.png",0,0 S,0,171905,,2 F,7,171905,173168,1,0 M,19,171923,172905,371,86,431.8859,74.29944
Sprite,Background,Centre,"sb\p.png",0,0 S,0,171905,,2 F,7,171905,173168,1,0 M,19,171946,172905,371,86,369.7356,170.9906
Sprite,Background,Centre,"sb\p.png",0,0 S,0,171905,,2 F,7,171905,173168,1,0 M,19,171930,172905,371,86,297.072,89.2636
Sprite,Background,Centre,"sb\p.png",0,0 S,0,171905,,2 F,7,171905,173168,1,0 M,19,171950,172905,371,86,276.6281,-3.408909
Sprite,Background,Centre,"sb\p.png",0,0 S,0,171905,,2 F,7,171905,173168,1,0 M,19,171931,172905,371,86,422.9601,45.30428
Sprite,Background,Centre,"sb\p.png",0,0 S,0,171905,,2 F,7,171905,173168,1,0 M,19,171909,172905,371,86,402.7089,-22.45988
Sprite,Background,Centre,"sb\p.png",0,0 S,0,171905,,2 F,7,171905,173168,1,0 M,19,171945,172905,371,86,377.7612,116.2537
Sprite,Background,Centre,"sb\p.png",0,0 S,0,171905,,2 F,7,171905,173168,1,0 M,19,171992,172905,371,86,347.7672,72.24373
Sprite,Background,Centre,"sb\p.png",0,0 S,0,171905,,2 F,7,171905,173168,1,0 M,19,171986,172905,371,86,331.1583,72.70956
Sprite,Background,Centre,"sb\p.png",0,0 S,0,171905,,2 F,7,171905,173168,1,0 M,19,171927,172905,371,86,294.677,-22.92105
Sprite,Background,Centre,"sb\p.png",0,0 S,0,171905,,2 F,7,171905,173168,1,0 M,19,171930,172905,371,86,315.03,70.78938
Sprite,Background,Centre,"sb\p.png",0,0 S,0,171905,,2 F,7,171905,173168,1,0 M,19,171930,172905,371,86,320.0098,36.59354
Sprite,Background,Centre,"sb\p.png",0,0 S,0,171905,,2 F,7,171905,173168,1,0 M,19,171953,172905,371,86,343.6685,49.00014
Sprite,Background,Centre,"sb\p.png",0,0 S,0,171905,,2 F,7,171905,173168,1,0 M,19,171954,172905,371,86,348.4909,199.7952
Sprite,Background,Centre,"sb\p.png",0,0 S,0,171905,,2 F,7,171905,173168,1,0 M,19,171924,172905,371,86,383.879,-46.37496
Sprite,Background,Centre,"sb\p.png",0,0 S,0,171905,,2 F,7,171905,173168,1,0 M,19,171940,172905,371,86,434.8078,21.11881
Sprite,Background,Centre,"sb\p.png",0,0 S,0,172221,,2 F,7,172221,173484,1,0 M,19,172260,173221,396,220,382.4501,319.0777
Sprite,Background,Centre,"sb\p.png",0,0 S,0,172221,,2 F,7,172221,173484,1,0 M,19,172281,173221,396,220,493.9783,188.2311
Sprite,Background,Centre,"sb\p.png",0,0 S,0,172221,,2 F,7,172221,173484,1,0 M,19,172247,173221,396,220,362.3329,158.6279
Sprite,Background,Centre,"sb\p.png",0,0 S,0,172221,,2 F,7,172221,173484,1,0 M,19,172254,173221,396,220,352.833,322.2625
Sprite,Background,Centre,"sb\p.png",0,0 S,0,172221,,2 F,7,172221,173484,1,0 M,19,172275,173221,396,220,295.6302,138.9635
Sprite,Background,Centre,"sb\p.png",0,0 S,0,172221,,2 F,7,172221,173484,1,0 M,19,172276,173221,396,220,425.4738,225.594
Sprite,Background,Centre,"sb\p.png",0,0 S,0,172221,,2 F,7,172221,173484,1,0 M,19,172316,173221,396,220,411.0141,272.911
Sprite,Background,Centre,"sb\p.png",0,0 S,0,172221,,2 F,7,172221,173484,1,0 M,19,172272,173221,396,220,434.9286,222.3596
Sprite,Background,Centre,"sb\p.png",0,0 S,0,172221,,2 F,7,172221,173484,1,0 M,19,172255,173221,396,220,262.2514,175.3646
Sprite,Background,Centre,"sb\p.png",0,0 S,0,172221,,2 F,7,172221,173484,1,0 M,19,172239,173221,396,220,503.1892,153.7695
Sprite,Background,Centre,"sb\p.png",0,0 S,0,172221,,2 F,7,172221,173484,1,0 M,19,172283,173221,396,220,351.7086,121.4999
Sprite,Background,Centre,"sb\p.png",0,0 S,0,172221,,2 F,7,172221,173484,1,0 M,19,172246,173221,396,220,329.9951,240.1085
Sprite,Background,Centre,"sb\p.png",0,0 S,0,172221,,2 F,7,172221,173484,1,0 M,19,172286,173221,396,220,443.4074,136.5222
Sprite,Background,Centre,"sb\p.png",0,0 S,0,172221,,2 F,7,172221,173484,1,0 M,19,172222,173221,396,220,308.7465,106.7047
Sprite,Background,Centre,"sb\p.png",0,0 S,0,172221,,2 F,7,172221,173484,1,0 M,19,172271,173221,396,220,458.66,213.4638
Sprite,Background,Centre,"sb\p.png",0,0 S,0,172221,,2 F,7,172221,173484,1,0 M,19,172311,173221,396,220,455.4503,308.9644
Sprite,Background,Centre,"sb\p.png",0,0 S,0,172221,,2 F,7,172221,173484,1,0 M,19,172300,173221,396,220,505.3463,184.3856
Sprite,Background,Centre,"sb\p.png",0,0 S,0,172221,,2 F,7,172221,173484,1,0 M,19,172248,173221,396,220,328.7435,138.0698
Sprite,Background,Centre,"sb\p.png",0,0 S,0,172221,,2 F,7,172221,173484,1,0 M,19,172268,173221,396,220,352.4947,251.9889
Sprite,Background,Centre,"sb\p.png",0,0 S,0,172221,,2 F,7,172221,173484,1,0 M,19,172291,173221,396,220,447.1009,170.708
Sprite,Background,Centre,"sb\p.png",0,0 S,0,172221,,2 F,7,172221,173484,1,0 M,19,172277,173221,396,220,391.0991,337.8982
Sprite,Background,Centre,"sb\p.png",0,0 S,0,172221,,2 F,7,172221,173484,1,0 M,19,172223,173221,396,220,484.1095,271.3879
Sprite,Background,Centre,"sb\p.png",0,0 S,0,172221,,2 F,7,172221,173484,1,0 M,19,172266,173221,396,220,386.576,181.126
Sprite,Background,Centre,"sb\p.png",0,0 S,0,172221,,2 F,7,172221,173484,1,0 M,19,172269,173221,396,220,385.4396,263.7433
Sprite,Background,Centre,"sb\p.png",0,0 S,0,172221,,2 F,7,172221,173484,1,0 M,19,172252,173221,396,220,469.4355,164.5813
Sprite,Background,Centre,"sb\p.png",0,0 S,0,182326,,2 F,7,182326,183589,1,0 M,19,182407,183326,64,181,85.62608,173.1698
Sprite,Background,Centre,"sb\p.png",0,0 S,0,182326,,2 F,7,182326,183589,1,0 M,19,182352,183326,64,181,134.8931,184.8943
Sprite,Background,Centre,"sb\p.png",0,0 S,0,182326,,2 F,7,182326,183589,1,0 M,19,182334,183326,64,181,-73.39822,227.3328
Sprite,Background,Centre,"sb\p.png",0,0 S,0,182326,,2 M,19,182326,183326,64,181,44.91651,197.1499 F,7,182326,183589,1,0
Sprite,Background,Centre,"sb\p.png",0,0 S,0,182326,,2 F,7,182326,183589,1,0 M,19,182337,183326,64,181,49.44564,202.5446
Sprite,Background,Centre,"sb\p.png",0,0 S,0,182326,,2 F,7,182326,183589,1,0 M,19,182345,183326,64,181,95.14898,40.40931
Sprite,Background,Centre,"sb\p.png",0,0 S,0,182326,,2 F,7,182326,183589,1,0 M,19,182345,183326,64,181,130.303,158.552
Sprite,Background,Centre,"sb\p.png",0,0 S,0,182326,,2 F,7,182326,183589,1,0 M,19,182396,183326,64,181,-65.22564,223.3879
Sprite,Background,Centre,"sb\p.png",0,0 S,0,182326,,2 F,7,182326,183589,1,0 M,19,182377,183326,64,181,-12.40015,190.5926
Sprite,Background,Centre,"sb\p.png",0,0 S,0,182326,,2 F,7,182326,183589,1,0 M,19,182379,183326,64,181,-34.92492,219.077
Sprite,Background,Centre,"sb\p.png",0,0 S,0,182326,,2 F,7,182326,183589,1,0 M,19,182336,183326,64,181,22.27225,289.2349
Sprite,Background,Centre,"sb\p.png",0,0 S,0,182326,,2 F,7,182326,183589,1,0 M,19,182349,183326,64,181,140.2077,160.1819
Sprite,Background,Centre,"sb\p.png",0,0 S,0,182326,,2 M,19,182326,183326,64,181,-5.973003,69.07244 F,7,182326,183589,1,0
Sprite,Background,Centre,"sb\p.png",0,0 S,0,182326,,2 F,7,182326,183589,1,0 M,19,182405,183326,64,181,-54.04193,222.123
Sprite,Background,Centre,"sb\p.png",0,0 S,0,182326,,2 F,7,182326,183589,1,0 M,19,182384,183326,64,181,-45.21621,194.108
Sprite,Background,Centre,"sb\p.png",0,0 S,0,182326,,2 F,7,182326,183589,1,0 M,19,182336,183326,64,181,130.7534,186.7431
Sprite,Background,Centre,"sb\p.png",0,0 S,0,182326,,2 F,7,182326,183589,1,0 M,19,182350,183326,64,181,18.42337,252.748
Sprite,Background,Centre,"sb\p.png",0,0 S,0,182326,,2 F,7,182326,183589,1,0 M,19,182343,183326,64,181,25.80462,318.8046
Sprite,Background,Centre,"sb\p.png",0,0 S,0,182326,,2 F,7,182326,183589,1,0 M,19,182338,183326,64,181,123.2826,240.5111
Sprite,Background,Centre,"sb\p.png",0,0 S,0,182326,,2 F,7,182326,183589,1,0 M,19,182421,183326,64,181,132.8468,235.8098
Sprite,Background,Centre,"sb\p.png",0,0 S,0,182326,,2 F,7,182326,183589,1,0 M,19,182355,183326,64,181,63.13782,161.0186
Sprite,Background,Centre,"sb\p.png",0,0 S,0,182326,,2 F,7,182326,183589,1,0 M,19,182355,183326,64,181,35.25135,172.4259
Sprite,Background,Centre,"sb\p.png",0,0 S,0,182326,,2 F,7,182326,183589,1,0 M,19,182385,183326,64,181,121.3106,140.8068
Sprite,Background,Centre,"sb\p.png",0,0 S,0,182326,,2 F,7,182326,183589,1,0 M,19,182334,183326,64,181,90.74442,156.9015
Sprite,Background,Centre,"sb\p.png",0,0 S,0,182326,,2 F,7,182326,183589,1,0 M,19,182384,183326,64,181,95.54283,259.9307
Sprite,Background,Centre,"sb\p.png",0,0 S,0,182642,,2 F,7,182642,183905,1,0 M,19,182662,183642,442,77,325.8228,163.7633
Sprite,Background,Centre,"sb\p.png",0,0 S,0,182642,,2 F,7,182642,183905,1,0 M,19,182649,183642,442,77,501.7883,130.1541
Sprite,Background,Centre,"sb\p.png",0,0 S,0,182642,,2 F,7,182642,183905,1,0 M,19,182657,183642,442,77,413.4399,93.53236
Sprite,Background,Centre,"sb\p.png",0,0 S,0,182642,,2 F,7,182642,183905,1,0 M,19,182721,183642,442,77,435.9131,98.14119
Sprite,Background,Centre,"sb\p.png",0,0 S,0,182642,,2 F,7,182642,183905,1,0 M,19,182737,183642,442,77,559.7049,26.70531
Sprite,Background,Centre,"sb\p.png",0,0 S,0,182642,,2 F,7,182642,183905,1,0 M,19,182676,183642,442,77,513.2299,135.2264
Sprite,Background,Centre,"sb\p.png",0,0 S,0,182642,,2 F,7,182642,183905,1,0 M,19,182722,183642,442,77,546.9285,113.2079
Sprite,Background,Centre,"sb\p.png",0,0 S,0,182642,,2 F,7,182642,183905,1,0 M,19,182703,183642,442,77,301.0368,80.21953
Sprite,Background,Centre,"sb\p.png",0,0 S,0,182642,,2 F,7,182642,183905,1,0 M,19,182740,183642,442,77,433.5372,109.9299
Sprite,Background,Centre,"sb\p.png",0,0 S,0,182642,,2 F,7,182642,183905,1,0 M,19,182679,183642,442,77,363.0054,76.07447
Sprite,Background,Centre,"sb\p.png",0,0 S,0,182642,,2 F,7,182642,183905,1,0 M,19,182686,183642,442,77,460.0108,104.6516
Sprite,Background,Centre,"sb\p.png",0,0 S,0,182642,,2 F,7,182642,183905,1,0 M,19,182694,183642,442,77,346.1089,15.34856
Sprite,Background,Centre,"sb\p.png",0,0 S,0,182642,,2 F,7,182642,183905,1,0 M,19,182648,183642,442,77,573.0748,8.272979
Sprite,Background,Centre,"sb\p.png",0,0 S,0,182642,,2 F,7,182642,183905,1,0 M,19,182732,183642,442,77,485.681,33.00038
Sprite,Background,Centre,"sb\p.png",0,0 S,0,182642,,2 F,7,182642,183905,1,0 M,19,182648,183642,442,77,474.9811,117.2025
Sprite,Background,Centre,"sb\p.png",0,0 S,0,182642,,2 F,7,182642,183905,1,0 M,19,182697,183642,442,77,297.051,73.15506
Sprite,Background,Centre,"sb\p.png",0,0 S,0,182642,,2 F,7,182642,183905,1,0 M,19,182698,183642,442,77,365.6456,-15.57431
Sprite,Background,Centre,"sb\p.png",0,0 S,0,182642,,2 F,7,182642,183905,1,0 M,19,182721,183642,442,77,440.7635,40.02067
Sprite,Background,Centre,"sb\p.png",0,0 S,0,182642,,2 F,7,182642,183905,1,0 M,19,182645,183642,442,77,466.7427,-57.74716
Sprite,Background,Centre,"sb\p.png",0,0 S,0,182642,,2 F,7,182642,183905,1,0 M,19,182677,183642,442,77,333.6967,10.67213
Sprite,Background,Centre,"sb\p.png",0,0 S,0,182642,,2 F,7,182642,183905,1,0 M,19,182706,183642,442,77,555.6892,155.2225
Sprite,Background,Centre,"sb\p.png",0,0 S,0,182642,,2 F,7,182642,183905,1,0 M,19,182733,183642,442,77,448.8897,40.64713
Sprite,Background,Centre,"sb\p.png",0,0 S,0,182642,,2 F,7,182642,183905,1,0 M,19,182652,183642,442,77,405.4445,129.5328
Sprite,Background,Centre,"sb\p.png",0,0 S,0,182642,,2 F,7,182642,183905,1,0 M,19,182698,183642,442,77,401.8829,95.07262
Sprite,Background,Centre,"sb\p.png",0,0 S,0,182642,,2 F,7,182642,183905,1,0 M,19,182679,183642,442,77,434.3758,119.3187
Sprite,Background,Centre,"sb\p.png",0,0 S,0,182958,,2 F,7,182958,184221,1,0 M,19,183026,183958,107,103,159.5038,63.0081
Sprite,Background,Centre,"sb\p.png",0,0 S,0,182958,,2 F,7,182958,184221,1,0 M,19,182972,183958,107,103,-8.538468,63.82268
Sprite,Background,Centre,"sb\p.png",0,0 S,0,182958,,2 F,7,182958,184221,1,0 M,19,183026,183958,107,103,-10.92852,162.3031
Sprite,Background,Centre,"sb\p.png",0,0 S,0,182958,,2 F,7,182958,184221,1,0 M,19,183054,183958,107,103,133.7958,35.09578
Sprite,Background,Centre,"sb\p.png",0,0 S,0,182958,,2 F,7,182958,184221,1,0 M,19,183040,183958,107,103,33.38941,1.972871
Sprite,Background,Centre,"sb\p.png",0,0 S,0,182958,,2 F,7,182958,184221,1,0 M,19,182974,183958,107,103,44.06296,105.8158
Sprite,Background,Centre,"sb\p.png",0,0 S,0,182958,,2 F,7,182958,184221,1,0 M,19,182999,183958,107,103,74.47779,-13.54744
Sprite,Background,Centre,"sb\p.png",0,0 S,0,182958,,2 F,7,182958,184221,1,0 M,19,182969,183958,107,103,102.6058,168.8536
Sprite,Background,Centre,"sb\p.png",0,0 S,0,182958,,2 F,7,182958,184221,1,0 M,19,183020,183958,107,103,130.0752,135.6731
Sprite,Background,Centre,"sb\p.png",0,0 S,0,182958,,2 F,7,182958,184221,1,0 M,19,183016,183958,107,103,63.26094,117.2441
Sprite,Background,Centre,"sb\p.png",0,0 S,0,182958,,2 F,7,182958,184221,1,0 M,19,183053,183958,107,103,186.9262,106.4363
Sprite,Background,Centre,"sb\p.png",0,0 S,0,182958,,2 F,7,182958,184221,1,0 M,19,183012,183958,107,103,-10.83925,166.7959
Sprite,Background,Centre,"sb\p.png",0,0 S,0,182958,,2 F,7,182958,184221,1,0 M,19,182961,183958,107,103,92.84916,122.3844
Sprite,Background,Centre,"sb\p.png",0,0 S,0,182958,,2 F,7,182958,184221,1,0 M,19,182963,183958,107,103,132.7048,206.8666
Sprite,Background,Centre,"sb\p.png",0,0 S,0,182958,,2 F,7,182958,184221,1,0 M,19,183030,183958,107,103,248.8739,68.53546
Sprite,Background,Centre,"sb\p.png",0,0 S,0,182958,,2 F,7,182958,184221,1,0 M,19,183011,183958,107,103,210.5103,65.77608
Sprite,Background,Centre,"sb\p.png",0,0 S,0,182958,,2 F,7,182958,184221,1,0 M,19,183043,183958,107,103,81.26991,242.6494
Sprite,Background,Centre,"sb\p.png",0,0 S,0,182958,,2 F,7,182958,184221,1,0 M,19,182997,183958,107,103,32.00838,159.6768
Sprite,Background,Centre,"sb\p.png",0,0 S,0,182958,,2 F,7,182958,184221,1,0 M,19,183057,183958,107,103,206.5198,80.6435
Sprite,Background,Centre,"sb\p.png",0,0 S,0,182958,,2 F,7,182958,184221,1,0 M,19,183020,183958,107,103,42.44395,73.44469
Sprite,Background,Centre,"sb\p.png",0,0 S,0,182958,,2 F,7,182958,184221,1,0 M,19,183023,183958,107,103,-37.61532,82.93989
Sprite,Background,Centre,"sb\p.png",0,0 S,0,182958,,2 F,7,182958,184221,1,0 M,19,183052,183958,107,103,209.8618,172.2493
Sprite,Background,Centre,"sb\p.png",0,0 S,0,182958,,2 F,7,182958,184221,1,0 M,19,183050,183958,107,103,155.9253,105.7039
Sprite,Background,Centre,"sb\p.png",0,0 S,0,182958,,2 F,7,182958,184221,1,0 M,19,182988,183958,107,103,99.87374,140.3258
Sprite,Background,Centre,"sb\p.png",0,0 S,0,182958,,2 F,7,182958,184221,1,0 M,19,182968,183958,107,103,166.0566,162.7354
Sprite,Background,Centre,"sb\p.png",0,0 S,0,197484,,2 F,7,197484,198747,1,0 M,19,197523,198484,329,404,292.3005,448.9127
Sprite,Background,Centre,"sb\p.png",0,0 S,0,197484,,2 F,7,197484,198747,1,0 M,19,197530,198484,329,404,293.1998,432.8851
Sprite,Background,Centre,"sb\p.png",0,0 S,0,197484,,2 F,7,197484,198747,1,0 M,19,197510,198484,329,404,364.549,426.3667
Sprite,Background,Centre,"sb\p.png",0,0 S,0,197484,,2 F,7,197484,198747,1,0 M,19,197573,198484,329,404,321.5664,305.2795
Sprite,Background,Centre,"sb\p.png",0,0 S,0,197484,,2 F,7,197484,198747,1,0 M,19,197508,198484,329,404,255.2218,375.7551
Sprite,Background,Centre,"sb\p.png",0,0 S,0,197484,,2 F,7,197484,198747,1,0 M,19,197547,198484,329,404,214.1505,365.9135
Sprite,Background,Centre,"sb\p.png",0,0 S,0,197484,,2 F,7,197484,198747,1,0 M,19,197553,198484,329,404,236.4359,461.5577
Sprite,Background,Centre,"sb\p.png",0,0 S,0,197484,,2 F,7,197484,198747,1,0 M,19,197500,198484,329,404,222.7182,482.2827
Sprite,Background,Centre,"sb\p.png",0,0 S,0,197484,,2 F,7,197484,198747,1,0 M,19,197530,198484,329,404,351.8781,264.8684
Sprite,Background,Centre,"sb\p.png",0,0 S,0,197484,,2 F,7,197484,198747,1,0 M,19,197563,198484,329,404,210.2536,313.9983
Sprite,Background,Centre,"sb\p.png",0,0 S,0,197484,,2 F,7,197484,198747,1,0 M,19,197491,198484,329,404,276.6904,387.0086
Sprite,Background,Centre,"sb\p.png",0,0 S,0,197484,,2 F,7,197484,198747,1,0 M,19,197517,198484,329,404,303.7222,498.6838
Sprite,Background,Centre,"sb\p.png",0,0 S,0,197484,,2 F,7,197484,198747,1,0 M,19,197503,198484,329,404,295.6549,378.4637
Sprite,Background,Centre,"sb\p.png",0,0 S,0,197484,,2 F,7,197484,198747,1,0 M,19,197564,198484,329,404,366.5052,470.1011
Sprite,Background,Centre,"sb\p.png",0,0 S,0,197484,,2 F,7,197484,198747,1,0 M,19,197503,198484,329,404,279.1702,447.278
Sprite,Background,Centre,"sb\p.png",0,0 S,0,197484,,2 F,7,197484,198747,1,0 M,19,197561,198484,329,404,402.7957,429.2627
Sprite,Background,Centre,"sb\p.png",0,0 S,0,197484,,2 F,7,197484,198747,1,0 M,19,197520,198484,329,404,282.2993,300.0046
Sprite,Background,Centre,"sb\p.png",0,0 S,0,197484,,2 F,7,197484,198747,1,0 M,19,197564,198484,329,404,271.822,307.6949
Sprite,Background,Centre,"sb\p.png",0,0 S,0,197484,,2 F,7,197484,198747,1,0 M,19,197527,198484,329,404,205.3716,477.8378
Sprite,Background,Centre,"sb\p.png",0,0 S,0,197484,,2 F,7,197484,198747,1,0 M,19,197511,198484,329,404,345.3618,502.6524
Sprite,Background,Centre,"sb\p.png",0,0 S,0,197484,,2 F,7,197484,198747,1,0 M,19,197501,198484,329,404,411.9022,399.9721
Sprite,Background,Centre,"sb\p.png",0,0 S,0,197484,,2 F,7,197484,198747,1,0 M,19,197517,198484,329,404,285.7475,412.0759
Sprite,Background,Centre,"sb\p.png",0,0 S,0,197484,,2 F,7,197484,198747,1,0 M,19,197569,198484,329,404,351.4547,354.8901
Sprite,Background,Centre,"sb\p.png",0,0 S,0,197484,,2 F,7,197484,198747,1,0 M,19,197544,198484,329,404,449.4715,326.957
Sprite,Background,Centre,"sb\p.png",0,0 S,0,197484,,2 F,7,197484,198747,1,0 M,19,197509,198484,329,404,281.2684,421.9636
Sprite,Background,Centre,"sb\p.png",0,0 S,0,197800,,2 F,7,197800,199063,1,0 M,19,197851,198800,336,185,352.1021,171.5196
Sprite,Background,Centre,"sb\p.png",0,0 S,0,197800,,2 F,7,197800,199063,1,0 M,19,197848,198800,336,185,448.4672,166.3685
Sprite,Background,Centre,"sb\p.png",0,0 S,0,197800,,2 F,7,197800,199063,1,0 M,19,197826,198800,336,185,289.4556,54.02436
Sprite,Background,Centre,"sb\p.png",0,0 S,0,197800,,2 F,7,197800,199063,1,0 M,19,197855,198800,336,185,211.5267,237.2627
Sprite,Background,Centre,"sb\p.png",0,0 S,0,197800,,2 F,7,197800,199063,1,0 M,19,197864,198800,336,185,318.7652,317.887
Sprite,Background,Centre,"sb\p.png",0,0 S,0,197800,,2 F,7,197800,199063,1,0 M,19,197856,198800,336,185,393.4312,146.7553
Sprite,Background,Centre,"sb\p.png",0,0 S,0,197800,,2 F,7,197800,199063,1,0 M,19,197894,198800,336,185,373.0576,165.233
Sprite,Background,Centre,"sb\p.png",0,0 S,0,197800,,2 F,7,197800,199063,1,0 M,19,197816,198800,336,185,242.8618,81.81918
Sprite,Background,Centre,"sb\p.png",0,0 S,0,197800,,2 F,7,197800,199063,1,0 M,19,197818,198800,336,185,366.4926,145.3742
Sprite,Background,Centre,"sb\p.png",0,0 S,0,197800,,2 F,7,197800,199063,1,0 M,19,197878,198800,336,185,441.9308,128.6203
Sprite,Background,Centre,"sb\p.png",0,0 S,0,197800,,2 F,7,197800,199063,1,0 M,19,197847,198800,336,185,337.4616,137.0223
Sprite,Background,Centre,"sb\p.png",0,0 S,0,197800,,2 F,7,197800,199063,1,0 M,19,197894,198800,336,185,252.1302,158.3568
Sprite,Background,Centre,"sb\p.png",0,0 S,0,197800,,2 F,7,197800,199063,1,0 M,19,197889,198800,336,185,381.4513,159.7377
Sprite,Background,Centre,"sb\p.png",0,0 S,0,197800,,2 F,7,197800,199063,1,0 M,19,197856,198800,336,185,348.6997,128.4074
Sprite,Background,Centre,"sb\p.png",0,0 S,0,197800,,2 F,7,197800,199063,1,0 M,19,197830,198800,336,185,355.5929,171.1393
Sprite,Background,Centre,"sb\p.png",0,0 S,0,197800,,2 F,7,197800,199063,1,0 M,19,197838,198800,336,185,354.2378,95.8463
Sprite,Background,Centre,"sb\p.png",0,0 S,0,197800,,2 F,7,197800,199063,1,0 M,19,197856,198800,336,185,341.6179,204.1948
Sprite,Background,Centre,"sb\p.png",0,0 S,0,197800,,2 F,7,197800,199063,1,0 M,19,197806,198800,336,185,419.5033,209.4173
Sprite,Background,Centre,"sb\p.png",0,0 S,0,197800,,2 F,7,197800,199063,1,0 M,19,197809,198800,336,185,316.3346,234.2166
Sprite,Background,Centre,"sb\p.png",0,0 S,0,197800,,2 F,7,197800,199063,1,0 M,19,197848,198800,336,185,316.6395,214.1577
Sprite,Background,Centre,"sb\p.png",0,0 S,0,197800,,2 F,7,197800,199063,1,0 M,19,197814,198800,336,185,297.6676,298.7129
Sprite,Background,Centre,"sb\p.png",0,0 S,0,197800,,2 F,7,197800,199063,1,0 M,19,197866,198800,336,185,228.3173,193.2721
Sprite,Background,Centre,"sb\p.png",0,0 S,0,197800,,2 F,7,197800,199063,1,0 M,19,197835,198800,336,185,432.9765,243.0048
Sprite,Background,Centre,"sb\p.png",0,0 S,0,197800,,2 F,7,197800,199063,1,0 M,19,197813,198800,336,185,288.8741,44.70335
Sprite,Background,Centre,"sb\p.png",0,0 S,0,197800,,2 F,7,197800,199063,1,0 M,19,197887,198800,336,185,317.7295,152.8257
Sprite,Background,Centre,"sb\p.png",0,0 S,0,198116,,2 F,7,198116,199379,1,0 M,19,198204,199116,237,414,152.8566,492.3893
Sprite,Background,Centre,"sb\p.png",0,0 S,0,198116,,2 F,7,198116,199379,1,0 M,19,198184,199116,237,414,256.2355,392.2975
Sprite,Background,Centre,"sb\p.png",0,0 S,0,198116,,2 F,7,198116,199379,1,0 M,19,198193,199116,237,414,268.1632,305.382
Sprite,Background,Centre,"sb\p.png",0,0 S,0,198116,,2 F,7,198116,199379,1,0 M,19,198186,199116,237,414,261.1978,523.3547
Sprite,Background,Centre,"sb\p.png",0,0 S,0,198116,,2 F,7,198116,199379,1,0 M,19,198142,199116,237,414,196.0323,442.6644
Sprite,Background,Centre,"sb\p.png",0,0 S,0,198116,,2 F,7,198116,199379,1,0 M,19,198129,199116,237,414,292.2866,337.9777
Sprite,Background,Centre,"sb\p.png",0,0 S,0,198116,,2 F,7,198116,199379,1,0 M,19,198168,199116,237,414,169.6575,460.7866
Sprite,Background,Centre,"sb\p.png",0,0 S,0,198116,,2 F,7,198116,199379,1,0 M,19,198151,199116,237,414,173.3089,449.6713
Sprite,Background,Centre,"sb\p.png",0,0 S,0,198116,,2 F,7,198116,199379,1,0 M,19,198198,199116,237,414,166.6431,329.4428
Sprite,Background,Centre,"sb\p.png",0,0 S,0,198116,,2 F,7,198116,199379,1,0 M,19,198117,199116,237,414,319.6525,433.8385
Sprite,Background,Centre,"sb\p.png",0,0 S,0,198116,,2 F,7,198116,199379,1,0 M,19,198154,199116,237,414,173.4077,440.7772
Sprite,Background,Centre,"sb\p.png",0,0 S,0,198116,,2 F,7,198116,199379,1,0 M,19,198168,199116,237,414,289.3192,543.8564
Sprite,Background,Centre,"sb\p.png",0,0 S,0,198116,,2 F,7,198116,199379,1,0 M,19,198120,199116,237,414,254.6105,494.0866
Sprite,Background,Centre,"sb\p.png",0,0 S,0,198116,,2 F,7,198116,199379,1,0 M,19,198121,199116,237,414,264.6303,333.6161
Sprite,Background,Centre,"sb\p.png",0,0 S,0,198116,,2 F,7,198116,199379,1,0 M,19,198213,199116,237,414,197.7232,452.5011
Sprite,Background,Centre,"sb\p.png",0,0 S,0,198116,,2 F,7,198116,199379,1,0 M,19,198164,199116,237,414,341.9251,388.4126
Sprite,Background,Centre,"sb\p.png",0,0 S,0,198116,,2 F,7,198116,199379,1,0 M,19,198157,199116,237,414,349.858,478.5218
Sprite,Background,Centre,"sb\p.png",0,0 S,0,198116,,2 F,7,198116,199379,1,0 M,19,198181,199116,237,414,290.9999,413.9048
Sprite,Background,Centre,"sb\p.png",0,0 S,0,198116,,2 F,7,198116,199379,1,0 M,19,198147,199116,237,414,147.5153,528.0942
Sprite,Background,Centre,"sb\p.png",0,0 S,0,198116,,2 F,7,198116,199379,1,0 M,19,198153,199116,237,414,188.8489,404.9188
Sprite,Background,Centre,"sb\p.png",0,0 S,0,198116,,2 F,7,198116,199379,1,0 M,19,198137,199116,237,414,312.4201,323.2487
Sprite,Background,Centre,"sb\p.png",0,0 S,0,198116,,2 F,7,198116,199379,1,0 M,19,198149,199116,237,414,240.5882,293.0532
Sprite,Background,Centre,"sb\p.png",0,0 S,0,198116,,2 F,7,198116,199379,1,0 M,19,198146,199116,237,414,217.6615,456.8372
Sprite,Background,Centre,"sb\p.png",0,0 S,0,198116,,2 F,7,198116,199379,1,0 M,19,198125,199116,237,414,233.477,312.0609
Sprite,Background,Centre,"sb\p.png",0,0 S,0,198116,,2 F,7,198116,199379,1,0 M,19,198213,199116,237,414,321.8903,462.9657
Sprite,Background,Centre,"sb\p.png",0,0 S,0,200958,,2 F,7,200958,202221,1,0 M,19,200972,201958,283,283,258.5325,288.1326
Sprite,Background,Centre,"sb\p.png",0,0 S,0,200958,,2 F,7,200958,202221,1,0 M,19,200959,201958,283,283,204.4168,357.0856
Sprite,Background,Centre,"sb\p.png",0,0 S,0,200958,,2 F,7,200958,202221,1,0 M,19,201023,201958,283,283,203.535,403.0888
Sprite,Background,Centre,"sb\p.png",0,0 S,0,200958,,2 F,7,200958,202221,1,0 M,19,200969,201958,283,283,222.7867,236.6281
Sprite,Background,Centre,"sb\p.png",0,0 S,0,200958,,2 F,7,200958,202221,1,0 M,19,201054,201958,283,283,267.2226,155.9761
Sprite,Background,Centre,"sb\p.png",0,0 S,0,200958,,2 F,7,200958,202221,1,0 M,19,200983,201958,283,283,311.5035,388.2072
Sprite,Background,Centre,"sb\p.png",0,0 S,0,200958,,2 F,7,200958,202221,1,0 M,19,201033,201958,283,283,215.584,158.0237
Sprite,Background,Centre,"sb\p.png",0,0 S,0,200958,,2 F,7,200958,202221,1,0 M,19,201007,201958,283,283,339.1111,200.2259
Sprite,Background,Centre,"sb\p.png",0,0 S,0,200958,,2 F,7,200958,202221,1,0 M,19,201004,201958,283,283,217.4537,203.5476
Sprite,Background,Centre,"sb\p.png",0,0 S,0,200958,,2 F,7,200958,202221,1,0 M,19,200979,201958,283,283,311.7666,339.0489
Sprite,Background,Centre,"sb\p.png",0,0 S,0,200958,,2 F,7,200958,202221,1,0 M,19,201024,201958,283,283,229.2759,411.198
Sprite,Background,Centre,"sb\p.png",0,0 S,0,200958,,2 F,7,200958,202221,1,0 M,19,201049,201958,283,283,223.5195,161.8098
Sprite,Background,Centre,"sb\p.png",0,0 S,0,200958,,2 F,7,200958,202221,1,0 M,19,201012,201958,283,283,300.6701,317.7673
Sprite,Background,Centre,"sb\p.png",0,0 S,0,200958,,2 F,7,200958,202221,1,0 M,19,201038,201958,283,283,226.4637,349.1259
Sprite,Background,Centre,"sb\p.png",0,0 S,0,200958,,2 F,7,200958,202221,1,0 M,19,200992,201958,283,283,246.167,270.1808
Sprite,Background,Centre,"sb\p.png",0,0 S,0,200958,,2 F,7,200958,202221,1,0 M,19,200996,201958,283,283,301.5403,377.1927
Sprite,Background,Centre,"sb\p.png",0,0 S,0,200958,,2 F,7,200958,202221,1,0 M,19,201052,201958,283,283,235.0258,357.9632
Sprite,Background,Centre,"sb\p.png",0,0 S,0,200958,,2 F,7,200958,202221,1,0 M,19,201023,201958,283,283,324.4518,222.9105
Sprite,Background,Centre,"sb\p.png",0,0 S,0,200958,,2 F,7,200958,202221,1,0 M,19,201000,201958,283,283,298.1434,381.8467
Sprite,Background,Centre,"sb\p.png",0,0 S,0,200958,,2 F,7,200958,202221,1,0 M,19,200961,201958,283,283,213.6825,189.9888
Sprite,Background,Centre,"sb\p.png",0,0 S,0,200958,,2 F,7,200958,202221,1,0 M,19,201019,201958,283,283,243.5709,271.7598
Sprite,Background,Centre,"sb\p.png",0,0 S,0,200958,,2 F,7,200958,202221,1,0 M,19,201010,201958,283,283,229.4825,302.6182
Sprite,Background,Centre,"sb\p.png",0,0 S,0,200958,,2 F,7,200958,202221,1,0 M,19,201052,201958,283,283,258.3104,291.15
Sprite,Background,Centre,"sb\p.png",0,0 S,0,200958,,2 F,7,200958,202221,1,0 M,19,201011,201958,283,283,305.9055,290.1652
Sprite,Background,Centre,"sb\p.png",0,0 S,0,200958,,2 F,7,200958,202221,1,0 M,19,201000,201958,283,283,265.8053,225.5166
Sprite,Background,Centre,"sb\p.png",0,0 S,0,201273,,2 F,7,201273,202536,1,0 M,19,201320,202273,511,165,565.0029,146.7602
Sprite,Background,Centre,"sb\p.png",0,0 S,0,201273,,2 F,7,201273,202536,1,0 M,19,201278,202273,511,165,553.8292,225.3461
Sprite,Background,Centre,"sb\p.png",0,0 S,0,201273,,2 F,7,201273,202536,1,0 M,19,201353,202273,511,165,619.688,232.6086
Sprite,Background,Centre,"sb\p.png",0,0 S,0,201273,,2 F,7,201273,202536,1,0 M,19,201323,202273,511,165,503.3754,244.6358
Sprite,Background,Centre,"sb\p.png",0,0 S,0,201273,,2 F,7,201273,202536,1,0 M,19,201299,202273,511,165,588.9544,167.6658
Sprite,Background,Centre,"sb\p.png",0,0 S,0,201273,,2 F,7,201273,202536,1,0 M,19,201314,202273,511,165,423.0005,165.3104
Sprite,Background,Centre,"sb\p.png",0,0 S,0,201273,,2 F,7,201273,202536,1,0 M,19,201307,202273,511,165,385.565,153.0806
Sprite,Background,Centre,"sb\p.png",0,0 S,0,201273,,2 F,7,201273,202536,1,0 M,19,201358,202273,511,165,524.4116,196.2431
Sprite,Background,Centre,"sb\p.png",0,0 S,0,201273,,2 F,7,201273,202536,1,0 M,19,201326,202273,511,165,563.128,56.91359
Sprite,Background,Centre,"sb\p.png",0,0 S,0,201273,,2 F,7,201273,202536,1,0 M,19,201323,202273,511,165,457.6016,187.6409
Sprite,Background,Centre,"sb\p.png",0,0 S,0,201273,,2 F,7,201273,202536,1,0 M,19,201283,202273,511,165,478.5704,184.8071
Sprite,Background,Centre,"sb\p.png",0,0 S,0,201273,,2 F,7,201273,202536,1,0 M,19,201306,202273,511,165,516.8586,220.6927
Sprite,Background,Centre,"sb\p.png",0,0 S,0,201273,,2 F,7,201273,202536,1,0 M,19,201304,202273,511,165,590.6736,138.3896
Sprite,Background,Centre,"sb\p.png",0,0 S,0,201273,,2 F,7,201273,202536,1,0 M,19,201306,202273,511,165,589.0955,153.0798
Sprite,Background,Centre,"sb\p.png",0,0 S,0,201273,,2 F,7,201273,202536,1,0 M,19,201355,202273,511,165,528.1099,125.5506
Sprite,Background,Centre,"sb\p.png",0,0 S,0,201273,,2 F,7,201273,202536,1,0 M,19,201333,202273,511,165,587.6136,172.7047
Sprite,Background,Centre,"sb\p.png",0,0 S,0,201273,,2 F,7,201273,202536,1,0 M,19,201323,202273,511,165,471.1924,83.16875
Sprite,Background,Centre,"sb\p.png",0,0 S,0,201273,,2 F,7,201273,202536,1,0 M,19,201322,202273,511,165,542.0358,196.1894
Sprite,Background,Centre,"sb\p.png",0,0 S,0,201273,,2 F,7,201273,202536,1,0 M,19,201291,202273,511,165,616.6194,219.8227
Sprite,Background,Centre,"sb\p.png",0,0 S,0,201273,,2 F,7,201273,202536,1,0 M,19,201338,202273,511,165,463.8821,124.7023
Sprite,Background,Centre,"sb\p.png",0,0 S,0,201273,,2 F,7,201273,202536,1,0 M,19,201327,202273,511,165,408.0911,149.9747
Sprite,Background,Centre,"sb\p.png",0,0 S,0,201273,,2 F,7,201273,202536,1,0 M,19,201305,202273,511,165,472.6463,289.2135
Sprite,Background,Centre,"sb\p.png",0,0 S,0,201273,,2 F,7,201273,202536,1,0 M,19,201290,202273,511,165,413.4189,234.8422
Sprite,Background,Centre,"sb\p.png",0,0 S,0,201273,,2 F,7,201273,202536,1,0 M,19,201276,202273,511,165,594.6772,129.2352
Sprite,Background,Centre,"sb\p.png",0,0 S,0,201273,,2 F,7,201273,202536,1,0 M,19,201309,202273,511,165,586.319,214.265
Sprite,Background,Centre,"sb\p.png",0,0 S,0,201589,,2 F,7,201589,202852,1,0 M,19,201682,202589,347,68,414.7282,74.07359
Sprite,Background,Centre,"sb\p.png",0,0 S,0,201589,,2 F,7,201589,202852,1,0 M,19,201621,202589,347,68,468.0565,94.85769
Sprite,Background,Centre,"sb\p.png",0,0 S,0,201589,,2 F,7,201589,202852,1,0 M,19,201663,202589,347,68,454.6484,19.66973
Sprite,Background,Centre,"sb\p.png",0,0 S,0,201589,,2 F,7,201589,202852,1,0 M,19,201684,202589,347,68,403.9966,67.37237
Sprite,Background,Centre,"sb\p.png",0,0 S,0,201589,,2 F,7,201589,202852,1,0 M,19,201640,202589,347,68,316.6682,41.9235
Sprite,Background,Centre,"sb\p.png",0,0 S,0,201589,,2 F,7,201589,202852,1,0 M,19,201605,202589,347,68,384.513,118.6139
Sprite,Background,Centre,"sb\p.png",0,0 S,0,201589,,2 F,7,201589,202852,1,0 M,19,201669,202589,347,68,308.1351,0.3721807
Sprite,Background,Centre,"sb\p.png",0,0 S,0,201589,,2 F,7,201589,202852,1,0 M,19,201621,202589,347,68,370.2252,-15.84266
Sprite,Background,Centre,"sb\p.png",0,0 S,0,201589,,2 F,7,201589,202852,1,0 M,19,201656,202589,347,68,248.0004,68.27593
Sprite,Background,Centre,"sb\p.png",0,0 S,0,201589,,2 F,7,201589,202852,1,0 M,19,201688,202589,347,68,242.8483,119.0726
Sprite,Background,Centre,"sb\p.png",0,0 S,0,201589,,2 F,7,201589,202852,1,0 M,19,201653,202589,347,68,323.2993,71.77815
Sprite,Background,Centre,"sb\p.png",0,0 S,0,201589,,2 F,7,201589,202852,1,0 M,19,201628,202589,347,68,366.4792,88.11367
Sprite,Background,Centre,"sb\p.png",0,0 S,0,201589,,2 F,7,201589,202852,1,0 M,19,201641,202589,347,68,345.8405,162.9929
Sprite,Background,Centre,"sb\p.png",0,0 S,0,201589,,2 F,7,201589,202852,1,0 M,19,201678,202589,347,68,303.2347,153.4436
Sprite,Background,Centre,"sb\p.png",0,0 S,0,201589,,2 F,7,201589,202852,1,0 M,19,201645,202589,347,68,364.2389,12.62113
Sprite,Background,Centre,"sb\p.png",0,0 S,0,201589,,2 F,7,201589,202852,1,0 M,19,201650,202589,347,68,262.9411,156.42
Sprite,Background,Centre,"sb\p.png",0,0 S,0,201589,,2 F,7,201589,202852,1,0 M,19,201610,202589,347,68,280.9691,-34.58614
Sprite,Background,Centre,"sb\p.png",0,0 S,0,201589,,2 F,7,201589,202852,1,0 M,19,201597,202589,347,68,396.5056,11.65995
Sprite,Background,Centre,"sb\p.png",0,0 S,0,201589,,2 F,7,201589,202852,1,0 M,19,201674,202589,347,68,302.3162,50.46849
Sprite,Background,Centre,"sb\p.png",0,0 S,0,201589,,2 F,7,201589,202852,1,0 M,19,201608,202589,347,68,276.304,13.93445
Sprite,Background,Centre,"sb\p.png",0,0 S,0,201589,,2 F,7,201589,202852,1,0 M,19,201590,202589,347,68,298.9156,-2.092008
Sprite,Background,Centre,"sb\p.png",0,0 S,0,201589,,2 F,7,201589,202852,1,0 M,19,201614,202589,347,68,344.4953,-19.96435
Sprite,Background,Centre,"sb\p.png",0,0 S,0,201589,,2 F,7,201589,202852,1,0 M,19,201598,202589,347,68,319.2641,146.2286
Sprite,Background,Centre,"sb\p.png",0,0 S,0,201589,,2 F,7,201589,202852,1,0 M,19,201664,202589,347,68,444.6082,162.7029
Sprite,Background,Centre,"sb\p.png",0,0 S,0,201589,,2 F,7,201589,202852,1,0 M,19,201675,202589,347,68,306.6333,18.33586
Sprite,Background,Centre,"sb\p.png",0,0 S,0,201905,,2 F,7,201905,203168,1,0 M,19,201926,202905,490,329,615.3452,248.4421
Sprite,Background,Centre,"sb\p.png",0,0 S,0,201905,,2 F,7,201905,203168,1,0 M,19,201987,202905,490,329,492.5573,293.0909
Sprite,Background,Centre,"sb\p.png",0,0 S,0,201905,,2 F,7,201905,203168,1,0 M,19,202000,202905,490,329,601.53,370.4975
Sprite,Background,Centre,"sb\p.png",0,0 S,0,201905,,2 F,7,201905,203168,1,0 M,19,201965,202905,490,329,510.6362,232.1747
Sprite,Background,Centre,"sb\p.png",0,0 S,0,201905,,2 F,7,201905,203168,1,0 M,19,201989,202905,490,329,404.2165,293.0808
Sprite,Background,Centre,"sb\p.png",0,0 S,0,201905,,2 F,7,201905,203168,1,0 M,19,201909,202905,490,329,389.1848,303.4597
Sprite,Background,Centre,"sb\p.png",0,0 S,0,201905,,2 F,7,201905,203168,1,0 M,19,201913,202905,490,329,436.1528,421.4634
Sprite,Background,Centre,"sb\p.png",0,0 S,0,201905,,2 F,7,201905,203168,1,0 M,19,201982,202905,490,329,508.7449,310.9825
Sprite,Background,Centre,"sb\p.png",0,0 S,0,201905,,2 F,7,201905,203168,1,0 M,19,201935,202905,490,329,479.533,354.97
Sprite,Background,Centre,"sb\p.png",0,0 S,0,201905,,2 F,7,201905,203168,1,0 M,19,201994,202905,490,329,401.6913,317.9292
Sprite,Background,Centre,"sb\p.png",0,0 S,0,201905,,2 F,7,201905,203168,1,0 M,19,201913,202905,490,329,442.8254,342.2497
Sprite,Background,Centre,"sb\p.png",0,0 S,0,201905,,2 F,7,201905,203168,1,0 M,19,201927,202905,490,329,507.0533,431.5923
Sprite,Background,Centre,"sb\p.png",0,0 S,0,201905,,2 F,7,201905,203168,1,0 M,19,201945,202905,490,329,404.5809,232.3326
Sprite,Background,Centre,"sb\p.png",0,0 S,0,201905,,2 F,7,201905,203168,1,0 M,19,201978,202905,490,329,426.2917,402.1454
Sprite,Background,Centre,"sb\p.png",0,0 S,0,201905,,2 F,7,201905,203168,1,0 M,19,201996,202905,490,329,624.4767,383.2311
Sprite,Background,Centre,"sb\p.png",0,0 S,0,201905,,2 F,7,201905,203168,1,0 M,19,201996,202905,490,329,419.5606,236.8355
Sprite,Background,Centre,"sb\p.png",0,0 S,0,201905,,2 F,7,201905,203168,1,0 M,19,201929,202905,490,329,487.3661,423.9635
Sprite,Background,Centre,"sb\p.png",0,0 S,0,201905,,2 F,7,201905,203168,1,0 M,19,201972,202905,490,329,477.3324,271.3759
Sprite,Background,Centre,"sb\p.png",0,0 S,0,201905,,2 F,7,201905,203168,1,0 M,19,201999,202905,490,329,494.1625,305.3637
Sprite,Background,Centre,"sb\p.png",0,0 S,0,201905,,2 F,7,201905,203168,1,0 M,19,201911,202905,490,329,417.1155,356.7822
Sprite,Background,Centre,"sb\p.png",0,0 S,0,201905,,2 F,7,201905,203168,1,0 M,19,201928,202905,490,329,402.0148,315.5985
Sprite,Background,Centre,"sb\p.png",0,0 S,0,201905,,2 F,7,201905,203168,1,0 M,19,201943,202905,490,329,547.0059,353.3787
Sprite,Background,Centre,"sb\p.png",0,0 S,0,201905,,2 F,7,201905,203168,1,0 M,19,201996,202905,490,329,426.7532,319.2104
Sprite,Background,Centre,"sb\p.png",0,0 S,0,201905,,2 F,7,201905,203168,1,0 M,19,201985,202905,490,329,386.947,238.7278
Sprite,Background,Centre,"sb\p.png",0,0 S,0,201905,,2 F,7,201905,203168,1,0 M,19,201912,202905,490,329,394.1785,218.8445
Sprite,Background,Centre,"sb\p.png",0,0 S,0,203484,,2 F,7,203484,204747,1,0 M,19,203493,204484,525,111,452.29,213.9041
Sprite,Background,Centre,"sb\p.png",0,0 S,0,203484,,2 F,7,203484,204747,1,0 M,19,203516,204484,525,111,593.946,30.48636
Sprite,Background,Centre,"sb\p.png",0,0 S,0,203484,,2 F,7,203484,204747,1,0 M,19,203579,204484,525,111,484.4434,146.6534
Sprite,Background,Centre,"sb\p.png",0,0 S,0,203484,,2 F,7,203484,204747,1,0 M,19,203575,204484,525,111,452.2844,20.6206
Sprite,Background,Centre,"sb\p.png",0,0 S,0,203484,,2 F,7,203484,204747,1,0 M,19,203545,204484,525,111,459.2335,151.0471
Sprite,Background,Centre,"sb\p.png",0,0 S,0,203484,,2 F,7,203484,204747,1,0 M,19,203523,204484,525,111,515.507,154.9873
Sprite,Background,Centre,"sb\p.png",0,0 S,0,203484,,2 F,7,203484,204747,1,0 M,19,203490,204484,525,111,452.6384,217.7932
Sprite,Background,Centre,"sb\p.png",0,0 S,0,203484,,2 F,7,203484,204747,1,0 M,19,203547,204484,525,111,376.0694,106.4524
Sprite,Background,Centre,"sb\p.png",0,0 S,0,203484,,2 F,7,203484,204747,1,0 M,19,203524,204484,525,111,490.4862,105.1861
Sprite,Background,Centre,"sb\p.png",0,0 S,0,203484,,2 F,7,203484,204747,1,0 M,19,203551,204484,525,111,627.9999,110.8692
Sprite,Background,Centre,"sb\p.png",0,0 S,0,203484,,2 F,7,203484,204747,1,0 M,19,203517,204484,525,111,496.8987,121.5032
Sprite,Background,Centre,"sb\p.png",0,0 S,0,203484,,2 F,7,203484,204747,1,0 M,19,203505,204484,525,111,463.5537,67.99593
Sprite,Background,Centre,"sb\p.png",0,0 S,0,203484,,2 F,7,203484,204747,1,0 M,19,203562,204484,525,111,581.7561,34.8177
Sprite,Background,Centre,"sb\p.png",0,0 S,0,203484,,2 F,7,203484,204747,1,0 M,19,203511,204484,525,111,521.7087,73.1428
Sprite,Background,Centre,"sb\p.png",0,0 S,0,203484,,2 F,7,203484,204747,1,0 M,19,203542,204484,525,111,511.6807,183.7915
Sprite,Background,Centre,"sb\p.png",0,0 S,0,203484,,2 F,7,203484,204747,1,0 M,19,203573,204484,525,111,491.5694,117.1965
Sprite,Background,Centre,"sb\p.png",0,0 S,0,203484,,2 F,7,203484,204747,1,0 M,19,203555,204484,525,111,506.5293,170.1848
Sprite,Background,Centre,"sb\p.png",0,0 S,0,203484,,2 F,7,203484,204747,1,0 M,19,203496,204484,525,111,476.272,140.5733
Sprite,Background,Centre,"sb\p.png",0,0 S,0,203484,,2 F,7,203484,204747,1,0 M,19,203566,204484,525,111,653.5924,121.2467
Sprite,Background,Centre,"sb\p.png",0,0 S,0,203484,,2 F,7,203484,204747,1,0 M,19,203538,204484,525,111,464.4508,128.4011
Sprite,Background,Centre,"sb\p.png",0,0 S,0,203484,,2 F,7,203484,204747,1,0 M,19,203546,204484,525,111,587.1377,78.76797
Sprite,Background,Centre,"sb\p.png",0,0 S,0,203484,,2 F,7,203484,204747,1,0 M,19,203550,204484,525,111,518.0054,155.4531
Sprite,Background,Centre,"sb\p.png",0,0 S,0,203484,,2 F,7,203484,204747,1,0 M,19,203485,204484,525,111,413.9631,51.4449
Sprite,Background,Centre,"sb\p.png",0,0 S,0,203484,,2 F,7,203484,204747,1,0 M,19,203545,204484,525,111,461.9597,153.4491
Sprite,Background,Centre,"sb\p.png",0,0 S,0,203484,,2 F,7,203484,204747,1,0 M,19,203554,204484,525,111,447.4479,49.464
Sprite,Background,Centre,"sb\p.png",0,0 S,0,255836,,2 F,7,255836,257099,1,0 M,19,255893,256836,143,79,154.9954,31.49095
Sprite,Background,Centre,"sb\p.png",0,0 S,0,255836,,2 F,7,255836,257099,1,0 M,19,255837,256836,143,79,168.7349,87.16791
Sprite,Background,Centre,"sb\p.png",0,0 S,0,255836,,2 F,7,255836,257099,1,0 M,19,255866,256836,143,79,32.1584,73.07208
Sprite,Background,Centre,"sb\p.png",0,0 S,0,255836,,2 F,7,255836,257099,1,0 M,19,255914,256836,143,79,165.4938,74.20112
Sprite,Background,Centre,"sb\p.png",0,0 S,0,255836,,2 F,7,255836,257099,1,0 M,19,255894,256836,143,79,167.9774,170.6577
Sprite,Background,Centre,"sb\p.png",0,0 S,0,255836,,2 F,7,255836,257099,1,0 M,19,255860,256836,143,79,87.35316,123.0957
Sprite,Background,Centre,"sb\p.png",0,0 S,0,255836,,2 F,7,255836,257099,1,0 M,19,255911,256836,143,79,148.996,203.8561
Sprite,Background,Centre,"sb\p.png",0,0 S,0,255836,,2 F,7,255836,257099,1,0 M,19,255858,256836,143,79,130.8305,63.12852
Sprite,Background,Centre,"sb\p.png",0,0 S,0,255836,,2 F,7,255836,257099,1,0 M,19,255865,256836,143,79,264.0909,17.08874
Sprite,Background,Centre,"sb\p.png",0,0 S,0,255836,,2 F,7,255836,257099,1,0 M,19,255925,256836,143,79,240.4205,-15.89597
Sprite,Background,Centre,"sb\p.png",0,0 S,0,255836,,2 F,7,255836,257099,1,0 M,19,255904,256836,143,79,244.0266,150.9001
Sprite,Background,Centre,"sb\p.png",0,0 S,0,255836,,2 F,7,255836,257099,1,0 M,19,255897,256836,143,79,98.82899,100.2114
Sprite,Background,Centre,"sb\p.png",0,0 S,0,255836,,2 F,7,255836,257099,1,0 M,19,255864,256836,143,79,144.8527,150.9762
Sprite,Background,Centre,"sb\p.png",0,0 S,0,255836,,2 F,7,255836,257099,1,0 M,19,255904,256836,143,79,71.55724,64.00224
Sprite,Background,Centre,"sb\p.png",0,0 S,0,255836,,2 F,7,255836,257099,1,0 M,19,255852,256836,143,79,118.7356,133.8748
Sprite,Background,Centre,"sb\p.png",0,0 S,0,255836,,2 F,7,255836,257099,1,0 M,19,255859,256836,143,79,190.5161,30.35614
Sprite,Background,Centre,"sb\p.png",0,0 S,0,255836,,2 F,7,255836,257099,1,0 M,19,255839,256836,143,79,124.0327,88.01337
Sprite,Background,Centre,"sb\p.png",0,0 S,0,255836,,2 F,7,255836,257099,1,0 M,19,255915,256836,143,79,97.05536,127.7657
Sprite,Background,Centre,"sb\p.png",0,0 S,0,255836,,2 F,7,255836,257099,1,0 M,19,255858,256836,143,79,178.9706,66.74791
Sprite,Background,Centre,"sb\p.png",0,0 S,0,255836,,2 F,7,255836,257099,1,0 M,19,255852,256836,143,79,121.5671,107.9245
Sprite,Background,Centre,"sb\p.png",0,0 S,0,255836,,2 F,7,255836,257099,1,0 M,19,255916,256836,143,79,120.4226,-20.4699
Sprite,Background,Centre,"sb\p.png",0,0 S,0,255836,,2 F,7,255836,257099,1,0 M,19,255858,256836,143,79,31.32141,149.3697
Sprite,Background,Centre,"sb\p.png",0,0 S,0,255836,,2 F,7,255836,257099,1,0 M,19,255872,256836,143,79,238.3609,153.4801
Sprite,Background,Centre,"sb\p.png",0,0 S,0,255836,,2 F,7,255836,257099,1,0 M,19,255934,256836,143,79,181.3006,71.6472
Sprite,Background,Centre,"sb\p.png",0,0 S,0,255836,,2 F,7,255836,257099,1,0 M,19,255875,256836,143,79,251.9496,53.03876
Sprite,Background,Centre,"sb\p.png",0,0 S,0,256152,,2 F,7,256152,257415,1,0 M,19,256221,257152,321,81,377.1608,107.2671
Sprite,Background,Centre,"sb\p.png",0,0 S,0,256152,,2 F,7,256152,257415,1,0 M,19,256204,257152,321,81,345.5264,89.62889
Sprite,Background,Centre,"sb\p.png",0,0 S,0,256152,,2 F,7,256152,257415,1,0 M,19,256240,257152,321,81,392.6826,111.7506
Sprite,Background,Centre,"sb\p.png",0,0 S,0,256152,,2 F,7,256152,257415,1,0 M,19,256196,257152,321,81,395.4528,-5.329519
Sprite,Background,Centre,"sb\p.png",0,0 S,0,256152,,2 F,7,256152,257415,1,0 M,19,256159,257152,321,81,383.0065,27.34188
Sprite,Background,Centre,"sb\p.png",0,0 S,0,256152,,2 F,7,256152,257415,1,0 M,19,256180,257152,321,81,213.593,164.425
Sprite,Background,Centre,"sb\p.png",0,0 S,0,256152,,2 F,7,256152,257415,1,0 M,19,256230,257152,321,81,414.3717,165.6034
Sprite,Background,Centre,"sb\p.png",0,0 S,0,256152,,2 F,7,256152,257415,1,0 M,19,256196,257152,321,81,417.6222,-16.1244
Sprite,Background,Centre,"sb\p.png",0,0 S,0,256152,,2 F,7,256152,257415,1,0 M,19,256211,257152,321,81,433.1533,41.2176
Sprite,Background,Centre,"sb\p.png",0,0 S,0,256152,,2 F,7,256152,257415,1,0 M,19,256238,257152,321,81,375.0779,23.41022
Sprite,Background,Centre,"sb\p.png",0,0 S,0,256152,,2 F,7,256152,257415,1,0 M,19,256217,257152,321,81,390.0674,101.3394
Sprite,Background,Centre,"sb\p.png",0,0 S,0,256152,,2 F,7,256152,257415,1,0 M,19,256233,257152,321,81,212.9837,160.2999
Sprite,Background,Centre,"sb\p.png",0,0 S,0,256152,,2 F,7,256152,257415,1,0 M,19,256159,257152,321,81,263.7972,71.41671
Sprite,Background,Centre,"sb\p.png",0,0 S,0,256152,,2 F,7,256152,257415,1,0 M,19,256170,257152,321,81,255.4505,0.2580073
Sprite,Background,Centre,"sb\p.png",0,0 S,0,256152,,2 F,7,256152,257415,1,0 M,19,256165,257152,321,81,403.1075,41.76534
Sprite,Background,Centre,"sb\p.png",0,0 S,0,256152,,2 F,7,256152,257415,1,0 M,19,256181,257152,321,81,330.4145,33.93231
Sprite,Background,Centre,"sb\p.png",0,0 S,0,256152,,2 F,7,256152,257415,1,0 M,19,256177,257152,321,81,302.5664,173.1748
Sprite,Background,Centre,"sb\p.png",0,0 S,0,256152,,2 F,7,256152,257415,1,0 M,19,256241,257152,321,81,286.9476,-43.4244
Sprite,Background,Centre,"sb\p.png",0,0 S,0,256152,,2 F,7,256152,257415,1,0 M,19,256194,257152,321,81,286.8907,51.64777
Sprite,Background,Centre,"sb\p.png",0,0 S,0,256152,,2 F,7,256152,257415,1,0 M,19,256180,257152,321,81,319.8285,114.9798
Sprite,Background,Centre,"sb\p.png",0,0 S,0,256152,,2 F,7,256152,257415,1,0 M,19,256250,257152,321,81,361.7167,61.83882
Sprite,Background,Centre,"sb\p.png",0,0 S,0,256152,,2 F,7,256152,257415,1,0 M,19,256184,257152,321,81,446.4221,93.05373
Sprite,Background,Centre,"sb\p.png",0,0 S,0,256152,,2 F,7,256152,257415,1,0 M,19,256212,257152,321,81,340.1622,0.2422806
Sprite,Background,Centre,"sb\p.png",0,0 S,0,256152,,2 F,7,256152,257415,1,0 M,19,256211,257152,321,81,307.7675,212.3351
Sprite,Background,Centre,"sb\p.png",0,0 S,0,256152,,2 F,7,256152,257415,1,0 M,19,256168,257152,321,81,341.1814,159.4456
Sprite,Background,Centre,"sb\p.png",0,0 S,0,256468,,2 F,7,256468,257731,1,0 M,19,256503,257468,518,298,403.226,214.3883
Sprite,Background,Centre,"sb\p.png",0,0 S,0,256468,,2 F,7,256468,257731,1,0 M,19,256522,257468,518,298,505.2656,336.9722
Sprite,Background,Centre,"sb\p.png",0,0 S,0,256468,,2 F,7,256468,257731,1,0 M,19,256556,257468,518,298,491.87,390.3754
Sprite,Background,Centre,"sb\p.png",0,0 S,0,256468,,2 F,7,256468,257731,1,0 M,19,256524,257468,518,298,469.9273,257.2813
Sprite,Background,Centre,"sb\p.png",0,0 S,0,256468,,2 F,7,256468,257731,1,0 M,19,256536,257468,518,298,528.7072,176.4708
Sprite,Background,Centre,"sb\p.png",0,0 S,0,256468,,2 F,7,256468,257731,1,0 M,19,256486,257468,518,298,475.6308,333.0692
Sprite,Background,Centre,"sb\p.png",0,0 S,0,256468,,2 F,7,256468,257731,1,0 M,19,256513,257468,518,298,544.7936,189.2521
Sprite,Background,Centre,"sb\p.png",0,0 S,0,256468,,2 F,7,256468,257731,1,0 M,19,256540,257468,518,298,564.2462,428.0204
Sprite,Background,Centre,"sb\p.png",0,0 S,0,256468,,2 F,7,256468,257731,1,0 M,19,256541,257468,518,298,580.7902,162.8764
Sprite,Background,Centre,"sb\p.png",0,0 S,0,256468,,2 F,7,256468,257731,1,0 M,19,256538,257468,518,298,510.5529,277.2988
Sprite,Background,Centre,"sb\p.png",0,0 S,0,256468,,2 F,7,256468,257731,1,0 M,19,256504,257468,518,298,471.3459,228.1474
Sprite,Background,Centre,"sb\p.png",0,0 S,0,256468,,2 F,7,256468,257731,1,0 M,19,256492,257468,518,298,514.3896,277.3127
Sprite,Background,Centre,"sb\p.png",0,0 S,0,256468,,2 F,7,256468,257731,1,0 M,19,256562,257468,518,298,650.0192,355.506
Sprite,Background,Centre,"sb\p.png",0,0 S,0,256468,,2 F,7,256468,257731,1,0 M,19,256528,257468,518,298,508.7217,196.4229
Sprite,Background,Centre,"sb\p.png",0,0 S,0,256468,,2 F,7,256468,257731,1,0 M,19,256515,257468,518,298,575.3201,341.5707
Sprite,Background,Centre,"sb\p.png",0,0 S,0,256468,,2 F,7,256468,257731,1,0 M,19,256538,257468,518,298,519.2717,275.0352
Sprite,Background,Centre,"sb\p.png",0,0 S,0,256468,,2 F,7,256468,257731,1,0 M,19,256527,257468,518,298,634.4644,233.7734
Sprite,Background,Centre,"sb\p.png",0,0 S,0,256468,,2 F,7,256468,257731,1,0 M,19,256544,257468,518,298,456.2284,338.7465
Sprite,Background,Centre,"sb\p.png",0,0 S,0,256468,,2 F,7,256468,257731,1,0 M,19,256471,257468,518,298,501.4084,227.9378
Sprite,Background,Centre,"sb\p.png",0,0 S,0,256468,,2 F,7,256468,257731,1,0 M,19,256484,257468,518,298,461.469,238.601
Sprite,Background,Centre,"sb\p.png",0,0 S,0,256468,,2 F,7,256468,257731,1,0 M,19,256525,257468,518,298,557.4905,209.4026
Sprite,Background,Centre,"sb\p.png",0,0 S,0,256468,,2 F,7,256468,257731,1,0 M,19,256552,257468,518,298,580.7586,427.6046
Sprite,Background,Centre,"sb\p.png",0,0 S,0,256468,,2 F,7,256468,257731,1,0 M,19,256545,257468,518,298,526.9136,321.357
Sprite,Background,Centre,"sb\p.png",0,0 S,0,256468,,2 F,7,256468,257731,1,0 M,19,256499,257468,518,298,461.3218,323.1314
Sprite,Background,Centre,"sb\p.png",0,0 S,0,256468,,2 F,7,256468,257731,1,0 M,19,256475,257468,518,298,518.6863,323.9909
Sprite,Background,Centre,"sb\p.png",0,0 S,0,270678,,2 F,7,270678,271941,1,0 M,19,270729,271678,449,361,467.1526,335.8707
Sprite,Background,Centre,"sb\p.png",0,0 S,0,270678,,2 F,7,270678,271941,1,0 M,19,270775,271678,449,361,449.0041,388
Sprite,Background,Centre,"sb\p.png",0,0 S,0,270678,,2 F,7,270678,271941,1,0 M,19,270691,271678,449,361,566.779,383.9805
Sprite,Background,Centre,"sb\p.png",0,0 S,0,270678,,2 F,7,270678,271941,1,0 M,19,270685,271678,449,361,489.2964,393.8664
Sprite,Background,Centre,"sb\p.png",0,0 S,0,270678,,2 F,7,270678,271941,1,0 M,19,270738,271678,449,361,432.4624,348.0575
Sprite,Background,Centre,"sb\p.png",0,0 S,0,270678,,2 F,7,270678,271941,1,0 M,19,270725,271678,449,361,464.2815,435.4478
Sprite,Background,Centre,"sb\p.png",0,0 S,0,270678,,2 F,7,270678,271941,1,0 M,19,270681,271678,449,361,469.6866,223.548
Sprite,Background,Centre,"sb\p.png",0,0 S,0,270678,,2 F,7,270678,271941,1,0 M,19,270722,271678,449,361,586.0432,389.6212
Sprite,Background,Centre,"sb\p.png",0,0 S,0,270678,,2 F,7,270678,271941,1,0 M,19,270776,271678,449,361,389.2932,289.6972
Sprite,Background,Centre,"sb\p.png",0,0 S,0,270678,,2 F,7,270678,271941,1,0 M,19,270733,271678,449,361,523.6298,324.6766
Sprite,Background,Centre,"sb\p.png",0,0 S,0,270678,,2 F,7,270678,271941,1,0 M,19,270714,271678,449,361,441.0526,400.2025
Sprite,Background,Centre,"sb\p.png",0,0 S,0,270678,,2 F,7,270678,271941,1,0 M,19,270709,271678,449,361,399.5377,238.6175
Sprite,Background,Centre,"sb\p.png",0,0 S,0,270678,,2 F,7,270678,271941,1,0 M,19,270720,271678,449,361,380.6184,351.783
Sprite,Background,Centre,"sb\p.png",0,0 S,0,270678,,2 F,7,270678,271941,1,0 M,19,270760,271678,449,361,487.6174,476.7268
Sprite,Background,Centre,"sb\p.png",0,0 S,0,270678,,2 F,7,270678,271941,1,0 M,19,270748,271678,449,361,422.4772,372.7278
Sprite,Background,Centre,"sb\p.png",0,0 S,0,270678,,2 F,7,270678,271941,1,0 M,19,270681,271678,449,361,457.7065,265.3956
Sprite,Background,Centre,"sb\p.png",0,0 S,0,270678,,2 F,7,270678,271941,1,0 M,19,270766,271678,449,361,473.452,402.305
Sprite,Background,Centre,"sb\p.png",0,0 S,0,270678,,2 F,7,270678,271941,1,0 M,19,270691,271678,449,361,493.0545,293.028
Sprite,Background,Centre,"sb\p.png",0,0 S,0,270678,,2 F,7,270678,271941,1,0 M,19,270694,271678,449,361,571.4137,390.8478
Sprite,Background,Centre,"sb\p.png",0,0 S,0,270678,,2 F,7,270678,271941,1,0 M,19,270727,271678,449,361,540.4471,398.9266
Sprite,Background,Centre,"sb\p.png",0,0 S,0,270678,,2 F,7,270678,271941,1,0 M,19,270706,271678,449,361,481.9301,358.8536
Sprite,Background,Centre,"sb\p.png",0,0 S,0,270678,,2 F,7,270678,271941,1,0 M,19,270686,271678,449,361,340.9092,294.3263
Sprite,Background,Centre,"sb\p.png",0,0 S,0,270678,,2 F,7,270678,271941,1,0 M,19,270692,271678,449,361,412.3644,226.9148
Sprite,Background,Centre,"sb\p.png",0,0 S,0,270678,,2 F,7,270678,271941,1,0 M,19,270683,271678,449,361,417.7294,466.4616
Sprite,Background,Centre,"sb\p.png",0,0 S,0,270678,,2 F,7,270678,271941,1,0 M,19,270691,271678,449,361,537.7222,392.0542
Sprite,Background,Centre,"sb\p.png",0,0 S,0,270994,,2 F,7,270994,272257,1,0 M,19,271079,271994,530,279,551.9305,373.4884
Sprite,Background,Centre,"sb\p.png",0,0 S,0,270994,,2 F,7,270994,272257,1,0 M,19,271092,271994,530,279,522.7781,146.1962
Sprite,Background,Centre,"sb\p.png",0,0 S,0,270994,,2 F,7,270994,272257,1,0 M,19,271021,271994,530,279,643.0903,241.965
Sprite,Background,Centre,"sb\p.png",0,0 S,0,270994,,2 F,7,270994,272257,1,0 M,19,271062,271994,530,279,490.1032,213.1422
Sprite,Background,Centre,"sb\p.png",0,0 S,0,270994,,2 F,7,270994,272257,1,0 M,19,270998,271994,530,279,540.2054,382.4981
Sprite,Background,Centre,"sb\p.png",0,0 S,0,270994,,2 F,7,270994,272257,1,0 M,19,271070,271994,530,279,578.2361,341.5642
Sprite,Background,Centre,"sb\p.png",0,0 S,0,270994,,2 F,7,270994,272257,1,0 M,19,271062,271994,530,279,572.1423,258.1906
Sprite,Background,Centre,"sb\p.png",0,0 S,0,270994,,2 F,7,270994,272257,1,0 M,19,271018,271994,530,279,404.0278,251.2152
Sprite,Background,Centre,"sb\p.png",0,0 S,0,270994,,2 F,7,270994,272257,1,0 M,19,271060,271994,530,279,510.1778,260.6675
Sprite,Background,Centre,"sb\p.png",0,0 S,0,270994,,2 F,7,270994,272257,1,0 M,19,271045,271994,530,279,629.5037,192.2646
Sprite,Background,Centre,"sb\p.png",0,0 S,0,270994,,2 F,7,270994,272257,1,0 M,19,271083,271994,530,279,589.2089,172.3309
Sprite,Background,Centre,"sb\p.png",0,0 S,0,270994,,2 F,7,270994,272257,1,0 M,19,271015,271994,530,279,656.9946,280.1736
Sprite,Background,Centre,"sb\p.png",0,0 S,0,270994,,2 F,7,270994,272257,1,0 M,19,271067,271994,530,279,507.1616,335.5633
Sprite,Background,Centre,"sb\p.png",0,0 S,0,270994,,2 F,7,270994,272257,1,0 M,19,271027,271994,530,279,505.0842,276.9496
Sprite,Background,Centre,"sb\p.png",0,0 S,0,270994,,2 F,7,270994,272257,1,0 M,19,271032,271994,530,279,669.0433,295.3387
Sprite,Background,Centre,"sb\p.png",0,0 S,0,270994,,2 F,7,270994,272257,1,0 M,19,271020,271994,530,279,464.9762,327.3002
Sprite,Background,Centre,"sb\p.png",0,0 S,0,270994,,2 F,7,270994,272257,1,0 M,19,271017,271994,530,279,561.6306,301.8146
Sprite,Background,Centre,"sb\p.png",0,0 S,0,270994,,2 F,7,270994,272257,1,0 M,19,271030,271994,530,279,521.1678,313.8997
Sprite,Background,Centre,"sb\p.png",0,0 S,0,270994,,2 F,7,270994,272257,1,0 M,19,271069,271994,530,279,427.4127,312.7616
Sprite,Background,Centre,"sb\p.png",0,0 S,0,270994,,2 F,7,270994,272257,1,0 M,19,271075,271994,530,279,503.5437,256.0857
Sprite,Background,Centre,"sb\p.png",0,0 S,0,270994,,2 F,7,270994,272257,1,0 M,19,271083,271994,530,279,519.5194,304.9645
Sprite,Background,Centre,"sb\p.png",0,0 S,0,270994,,2 F,7,270994,272257,1,0 M,19,271059,271994,530,279,530.8651,151.0029
Sprite,Background,Centre,"sb\p.png",0,0 S,0,270994,,2 F,7,270994,272257,1,0 M,19,271076,271994,530,279,543.1583,230.7625
Sprite,Background,Centre,"sb\p.png",0,0 S,0,270994,,2 F,7,270994,272257,1,0 M,19,271007,271994,530,279,590.8622,166.3954
Sprite,Background,Centre,"sb\p.png",0,0 S,0,270994,,2 F,7,270994,272257,1,0 M,19,271010,271994,530,279,601.5562,293.4467
Sprite,Background,Centre,"sb\p.png",0,0 S,0,271310,,2 F,7,271310,272573,1,0 M,19,271402,272310,576,361,527.7682,433.4064
Sprite,Background,Centre,"sb\p.png",0,0 S,0,271310,,2 F,7,271310,272573,1,0 M,19,271368,272310,576,361,605.5453,323.1704
Sprite,Background,Centre,"sb\p.png",0,0 S,0,271310,,2 F,7,271310,272573,1,0 M,19,271381,272310,576,361,475.7619,430.5437
Sprite,Background,Centre,"sb\p.png",0,0 S,0,271310,,2 F,7,271310,272573,1,0 M,19,271376,272310,576,361,558.2259,449.2274
Sprite,Background,Centre,"sb\p.png",0,0 S,0,271310,,2 F,7,271310,272573,1,0 M,19,271324,272310,576,361,486.7267,343.3567
Sprite,Background,Centre,"sb\p.png",0,0 S,0,271310,,2 F,7,271310,272573,1,0 M,19,271329,272310,576,361,468.7233,385.325
Sprite,Background,Centre,"sb\p.png",0,0 S,0,271310,,2 F,7,271310,272573,1,0 M,19,271407,272310,576,361,616.1187,338.4947
Sprite,Background,Centre,"sb\p.png",0,0 S,0,271310,,2 F,7,271310,272573,1,0 M,19,271319,272310,576,361,525.0947,379.0179
Sprite,Background,Centre,"sb\p.png",0,0 S,0,271310,,2 F,7,271310,272573,1,0 M,19,271334,272310,576,361,566.3951,263.4718
Sprite,Background,Centre,"sb\p.png",0,0 S,0,271310,,2 F,7,271310,272573,1,0 M,19,271341,272310,576,361,524.9181,381.3872
Sprite,Background,Centre,"sb\p.png",0,0 S,0,271310,,2 F,7,271310,272573,1,0 M,19,271381,272310,576,361,618.8451,392.1978
Sprite,Background,Centre,"sb\p.png",0,0 S,0,271310,,2 F,7,271310,272573,1,0 M,19,271326,272310,576,361,586.8176,392.1766
Sprite,Background,Centre,"sb\p.png",0,0 S,0,271310,,2 F,7,271310,272573,1,0 M,19,271400,272310,576,361,634.2289,258.3677
Sprite,Background,Centre,"sb\p.png",0,0 S,0,271310,,2 F,7,271310,272573,1,0 M,19,271337,272310,576,361,589.7637,497.3069
Sprite,Background,Centre,"sb\p.png",0,0 S,0,271310,,2 F,7,271310,272573,1,0 M,19,271339,272310,576,361,612.6462,433.2361
Sprite,Background,Centre,"sb\p.png",0,0 S,0,271310,,2 F,7,271310,272573,1,0 M,19,271378,272310,576,361,628.9156,358.0111
Sprite,Background,Centre,"sb\p.png",0,0 S,0,271310,,2 F,7,271310,272573,1,0 M,19,271323,272310,576,361,547.9456,300.1564
Sprite,Background,Centre,"sb\p.png",0,0 S,0,271310,,2 F,7,271310,272573,1,0 M,19,271331,272310,576,361,607.5237,348.2621
Sprite,Background,Centre,"sb\p.png",0,0 S,0,271310,,2 F,7,271310,272573,1,0 M,19,271334,272310,576,361,623.8188,488.316
Sprite,Background,Centre,"sb\p.png",0,0 S,0,271310,,2 F,7,271310,272573,1,0 M,19,271371,272310,576,361,592.6937,330.2377
Sprite,Background,Centre,"sb\p.png",0,0 S,0,271310,,2 F,7,271310,272573,1,0 M,19,271361,272310,576,361,495.7058,481.7387
Sprite,Background,Centre,"sb\p.png",0,0 S,0,271310,,2 F,7,271310,272573,1,0 M,19,271338,272310,576,361,540.7999,385.6972
Sprite,Background,Centre,"sb\p.png",0,0 S,0,271310,,2 F,7,271310,272573,1,0 M,19,271354,272310,576,361,635.7557,341.0437
Sprite,Background,Centre,"sb\p.png",0,0 S,0,271310,,2 F,7,271310,272573,1,0 M,19,271403,272310,576,361,677.3475,349.4814
Sprite,Background,Centre,"sb\p.png",0,0 S,0,271310,,2 F,7,271310,272573,1,0 M,19,271339,272310,576,361,544.5671,465.3694
Sprite,Background,Centre,"sb\p.png",0,0 S,0,271625,,2 F,7,271625,272888,1,0 M,19,271704,272625,402,297,384.6689,244.802
Sprite,Background,Centre,"sb\p.png",0,0 S,0,271625,,2 F,7,271625,272888,1,0 M,19,271659,272625,402,297,438.2091,186.7961
Sprite,Background,Centre,"sb\p.png",0,0 S,0,271625,,2 F,7,271625,272888,1,0 M,19,271715,272625,402,297,292.1485,253.9112
Sprite,Background,Centre,"sb\p.png",0,0 S,0,271625,,2 F,7,271625,272888,1,0 M,19,271639,272625,402,297,419.2356,333.0962
Sprite,Background,Centre,"sb\p.png",0,0 S,0,271625,,2 F,7,271625,272888,1,0 M,19,271645,272625,402,297,382.0002,296.9088
Sprite,Background,Centre,"sb\p.png",0,0 S,0,271625,,2 F,7,271625,272888,1,0 M,19,271688,272625,402,297,419.2037,286.8004
Sprite,Background,Centre,"sb\p.png",0,0 S,0,271625,,2 F,7,271625,272888,1,0 M,19,271719,272625,402,297,370.4349,428.2579
Sprite,Background,Centre,"sb\p.png",0,0 S,0,271625,,2 F,7,271625,272888,1,0 M,19,271653,272625,402,297,410.6154,177.3097
Sprite,Background,Centre,"sb\p.png",0,0 S,0,271625,,2 F,7,271625,272888,1,0 M,19,271717,272625,402,297,426.9684,298.2576
Sprite,Background,Centre,"sb\p.png",0,0 S,0,271625,,2 F,7,271625,272888,1,0 M,19,271698,272625,402,297,412.6151,406.4866
Sprite,Background,Centre,"sb\p.png",0,0 S,0,271625,,2 F,7,271625,272888,1,0 M,19,271667,272625,402,297,435.3536,394.4502
Sprite,Background,Centre,"sb\p.png",0,0 S,0,271625,,2 F,7,271625,272888,1,0 M,19,271687,272625,402,297,474.968,255.3866
Sprite,Background,Centre,"sb\p.png",0,0 S,0,271625,,2 F,7,271625,272888,1,0 M,19,271662,272625,402,297,380.1129,304.0678
Sprite,Background,Centre,"sb\p.png",0,0 S,0,271625,,2 F,7,271625,272888,1,0 M,19,271645,272625,402,297,386.8891,417.0527
Sprite,Background,Centre,"sb\p.png",0,0 S,0,271625,,2 F,7,271625,272888,1,0 M,19,271627,272625,402,297,364.1708,265.8559
Sprite,Background,Centre,"sb\p.png",0,0 S,0,271625,,2 F,7,271625,272888,1,0 M,19,271658,272625,402,297,452.1774,356.7179
Sprite,Background,Centre,"sb\p.png",0,0 S,0,271625,,2 F,7,271625,272888,1,0 M,19,271687,272625,402,297,404.1111,324.9203
Sprite,Background,Centre,"sb\p.png",0,0 S,0,271625,,2 F,7,271625,272888,1,0 M,19,271704,272625,402,297,395.2002,316.8686
Sprite,Background,Centre,"sb\p.png",0,0 S,0,271625,,2 F,7,271625,272888,1,0 M,19,271674,272625,402,297,318.6049,410.6937
Sprite,Background,Centre,"sb\p.png",0,0 S,0,271625,,2 F,7,271625,272888,1,0 M,19,271695,272625,402,297,279.2496,289.1683
Sprite,Background,Centre,"sb\p.png",0,0 S,0,271625,,2 F,7,271625,272888,1,0 M,19,271630,272625,402,297,348.1476,327.7233
Sprite,Background,Centre,"sb\p.png",0,0 S,0,271625,,2 F,7,271625,272888,1,0 M,19,271676,272625,402,297,469.3456,427.6659
Sprite,Background,Centre,"sb\p.png",0,0 S,0,271625,,2 F,7,271625,272888,1,0 M,19,271676,272625,402,297,382.0083,204.1273
Sprite,Background,Centre,"sb\p.png",0,0 S,0,271625,,2 F,7,271625,272888,1,0 M,19,271722,272625,402,297,332.1681,257.9679
Sprite,Background,Centre,"sb\p.png",0,0 S,0,271625,,2 F,7,271625,272888,1,0 M,19,271635,272625,402,297,400.7393,318.9638
Sprite,Background,Centre,"sb\p.png",0,0 S,0,274468,,2 F,7,274468,275731,1,0 M,19,274522,275468,76,116,73.08961,77.10875
Sprite,Background,Centre,"sb\p.png",0,0 S,0,274468,,2 F,7,274468,275731,1,0 M,19,274527,275468,76,116,61.28623,247.1774
Sprite,Background,Centre,"sb\p.png",0,0 S,0,274468,,2 F,7,274468,275731,1,0 M,19,274531,275468,76,116,-46.20475,30.7533
Sprite,Background,Centre,"sb\p.png",0,0 S,0,274468,,2 F,7,274468,275731,1,0 M,19,274531,275468,76,116,184.7045,197.7272
Sprite,Background,Centre,"sb\p.png",0,0 S,0,274468,,2 F,7,274468,275731,1,0 M,19,274523,275468,76,116,14.2121,46.49276
Sprite,Background,Centre,"sb\p.png",0,0 S,0,274468,,2 F,7,274468,275731,1,0 M,19,274491,275468,76,116,173.7472,219.0023
Sprite,Background,Centre,"sb\p.png",0,0 S,0,274468,,2 F,7,274468,275731,1,0 M,19,274513,275468,76,116,18.26359,-0.4753489
Sprite,Background,Centre,"sb\p.png",0,0 S,0,274468,,2 F,7,274468,275731,1,0 M,19,274492,275468,76,116,122.0109,176.4897
Sprite,Background,Centre,"sb\p.png",0,0 S,0,274468,,2 F,7,274468,275731,1,0 M,19,274554,275468,76,116,2.002196,115.4299
Sprite,Background,Centre,"sb\p.png",0,0 S,0,274468,,2 F,7,274468,275731,1,0 M,19,274528,275468,76,116,120.7009,20.99039
Sprite,Background,Centre,"sb\p.png",0,0 S,0,274468,,2 F,7,274468,275731,1,0 M,19,274567,275468,76,116,61.94484,95.32508
Sprite,Background,Centre,"sb\p.png",0,0 S,0,274468,,2 F,7,274468,275731,1,0 M,19,274546,275468,76,116,38.05682,24.55977
Sprite,Background,Centre,"sb\p.png",0,0 S,0,274468,,2 F,7,274468,275731,1,0 M,19,274560,275468,76,116,124.3835,99.87426
Sprite,Background,Centre,"sb\p.png",0,0 S,0,274468,,2 F,7,274468,275731,1,0 M,19,274500,275468,76,116,174.7315,194.2822
Sprite,Background,Centre,"sb\p.png",0,0 S,0,274468,,2 F,7,274468,275731,1,0 M,19,274476,275468,76,116,49.99855,128.8423
Sprite,Background,Centre,"sb\p.png",0,0 S,0,274468,,2 F,7,274468,275731,1,0 M,19,274469,275468,76,116,98.58202,96.25026
Sprite,Background,Centre,"sb\p.png",0,0 S,0,274468,,2 F,7,274468,275731,1,0 M,19,274520,275468,76,116,150.75,93.71899
Sprite,Background,Centre,"sb\p.png",0,0 S,0,274468,,2 F,7,274468,275731,1,0 M,19,274484,275468,76,116,69.0251,21.2564
Sprite,Background,Centre,"sb\p.png",0,0 S,0,274468,,2 F,7,274468,275731,1,0 M,19,274539,275468,76,116,18.42569,39.18074
Sprite,Background,Centre,"sb\p.png",0,0 S,0,274468,,2 F,7,274468,275731,1,0 M,19,274512,275468,76,116,34.15821,227.4014
Sprite,Background,Centre,"sb\p.png",0,0 S,0,274468,,2 F,7,274468,275731,1,0 M,19,274501,275468,76,116,60.52036,-4.005752
Sprite,Background,Centre,"sb\p.png",0,0 S,0,274468,,2 F,7,274468,275731,1,0 M,19,274553,275468,76,116,152.6672,130.3574
Sprite,Background,Centre,"sb\p.png",0,0 S,0,274468,,2 F,7,274468,275731,1,0 M,19,274563,275468,76,116,-13.78536,4.700456
Sprite,Background,Centre,"sb\p.png",0,0 S,0,274468,,2 F,7,274468,275731,1,0 M,19,274537,275468,76,116,81.54122,73.35853
Sprite,Background,Centre,"sb\p.png",0,0 S,0,274468,,2 F,7,274468,275731,1,0 M,19,274471,275468,76,116,39.86166,202.7757
Sprite,Background,Centre,"sb\textEN\SongInfo\0054.png",143,0 C,0,22537,,255,255,255 F,0,22537,22637,0,1 S,30,22537,22837,0.5 MY,19,22537,22837,216.25,203.25 F,0,31379,,1,0
Sprite,Background,Centre,"sb\textEN\SongInfo\0052.png",163,0 C,0,22537,,255,255,255 F,0,22547,22647,0,1 S,30,22547,22847,0.5 MY,19,22547,22847,222.25,203.25 F,0,31379,31389,1,0
Sprite,Background,Centre,"sb\textEN\SongInfo\0041.png",185.25,0 C,0,22537,,255,255,255 F,0,22557,22657,0,1 S,30,22557,22857,0.5 MY,19,22557,22857,219.25,203.25 F,0,31379,31399,1,0
Sprite,Background,Centre,"sb\textEN\SongInfo\0055.png",208.25,0 C,0,22537,,255,255,255 F,0,22567,22667,0,1 S,30,22567,22867,0.5 MY,19,22567,22867,206.25,203.25 F,0,31379,31409,1,0
Sprite,Background,Centre,"sb\textEN\SongInfo\004d.png",234,0 C,0,22537,,255,255,255 F,0,22577,22677,0,1 S,30,22577,22877,0.5 MY,19,22577,22877,185.25,203.25 F,0,31379,31419,1,0
Sprite,Background,Centre,"sb\textEN\SongInfo\0041.png",260.25,0 C,0,22537,,255,255,255 F,0,22587,22687,0,1 S,30,22587,22887,0.5 MY,19,22587,22887,206.25,203.25 F,0,31379,31429,1,0
Sprite,Background,Centre,"sb\textEN\SongInfo\002d.png",292,0 C,0,22537,,255,255,255 F,0,22597,22697,0,1 S,30,22597,22897,0.5 MY,19,22597,22897,227.25,203.25 F,0,31379,31439,1,0
Sprite,Background,Centre,"sb\textEN\SongInfo\0048.png",323,0 C,0,22537,,255,255,255 F,0,22607,22707,0,1 S,30,22607,22907,0.5 MY,19,22607,22907,199.25,203.25 F,0,31379,31449,1,0
Sprite,Background,Centre,"sb\textEN\SongInfo\0041.png",345.75,0 C,0,22537,,255,255,255 F,0,22617,22717,0,1 S,30,22617,22917,0.5 MY,19,22617,22917,231.25,203.25 F,0,31379,31459,1,0
Sprite,Background,Centre,"sb\textEN\SongInfo\0052.png",368,0 C,0,22537,,255,255,255 F,0,22627,22727,0,1 S,30,22627,22927,0.5 MY,19,22627,22927,189.25,203.25 F,0,31379,31469,1,0
Sprite,Background,Centre,"sb\textEN\SongInfo\0041.png",390.25,0 C,0,22537,,255,255,255 F,0,22637,22737,0,1 S,30,22637,22937,0.5 MY,19,22637,22937,190.25,203.25 F,0,31379,31479,1,0
Sprite,Background,Centre,"sb\textEN\SongInfo\004e.png",412.75,0 C,0,22537,,255,255,255 F,0,22647,22747,0,1 S,30,22647,22947,0.5 MY,19,22647,22947,201.25,203.25 F,0,31379,31489,1,0
Sprite,Background,Centre,"sb\textEN\SongInfo\004f.png",434.75,0 C,0,22537,,255,255,255 F,0,22657,22757,0,1 S,30,22657,22957,0.5 MY,19,22657,22957,210.25,203.25 F,0,31379,31499,1,0
Sprite,Background,Centre,"sb\textEN\SongInfo\004f.png",467.25,0 C,0,22537,,255,255,255 F,0,22667,22767,0,1 S,30,22667,22967,0.5 MY,19,22667,22967,201.25,203.25 F,0,31379,31509,1,0
Sprite,Background,Centre,"sb\textEN\SongInfo\004e.png",489.25,0 C,0,22537,,255,255,255 F,0,22677,22777,0,1 S,30,22677,22977,0.5 MY,19,22677,22977,231.25,203.25 F,0,31379,31519,1,0
Sprite,Background,Centre,"sb\textEN\SongInfo\0049.png",503.25,0 C,0,22537,,255,255,255 F,0,22687,22787,0,1 S,30,22687,22987,0.5 MY,19,22687,22987,174.25,203.25 F,0,31379,31529,1,0
Sprite,Background,Centre,"sb\textEN\MapperInfo\0042.png",214.75,0 C,0,25063,,255,255,255 F,0,25063,25163,0,1 S,30,25063,25363,0.5 MY,19,25063,25363,269.75,248.75 F,0,31379,,1,0
Sprite,Background,Centre,"sb\textEN\MapperInfo\0045.png",227,0 C,0,25063,,255,255,255 F,0,25073,25173,0,1 S,30,25073,25373,0.5 MY,19,25073,25373,277.75,248.75 F,0,31379,31389,1,0
Sprite,Background,Centre,"sb\textEN\MapperInfo\0041.png",239.25,0 C,0,25063,,255,255,255 F,0,25083,25183,0,1 S,30,25083,25383,0.5 MY,19,25083,25383,258.75,248.75 F,0,31379,31399,1,0
Sprite,Background,Centre,"sb\textEN\MapperInfo\0054.png",251.5,0 C,0,25063,,255,255,255 F,0,25093,25193,0,1 S,30,25093,25393,0.5 MY,19,25093,25393,236.75,248.75 F,0,31379,31409,1,0
Sprite,Background,Centre,"sb\textEN\MapperInfo\004d.png",265.25,0 C,0,25063,,255,255,255 F,0,25103,25203,0,1 S,30,25103,25403,0.5 MY,19,25103,25403,267.75,248.75 F,0,31379,31419,1,0
Sprite,Background,Centre,"sb\textEN\MapperInfo\0041.png",280.25,0 C,0,25063,,255,255,255 F,0,25113,25213,0,1 S,30,25113,25413,0.5 MY,19,25113,25413,268.75,248.75 F,0,31379,31429,1,0
Sprite,Background,Centre,"sb\textEN\MapperInfo\0050.png",293,0 C,0,25063,,255,255,255 F,0,25123,25223,0,1 S,30,25123,25423,0.5 MY,19,25123,25423,277.75,248.75 F,0,31379,31439,1,0
Sprite,Background,Centre,"sb\textEN\MapperInfo\0042.png",311.25,0 C,0,25063,,255,255,255 F,0,25133,25233,0,1 S,30,25133,25433,0.5 MY,19,25133,25433,219.75,248.75 F,0,31379,31449,1,0
Sprite,Background,Centre,"sb\textEN\MapperInfo\0059.png",323.75,0 C,0,25063,,255,255,255 F,0,25143,25243,0,1 S,30,25143,25443,0.5 MY,19,25143,25443,259.75,248.75 F,0,31379,31459,1,0
Sprite,Background,Centre,"sb\textEN\MapperInfo\0053.png",341.25,0 C,0,25063,,255,255,255 F,0,25153,25253,0,1 S,30,25153,25453,0.5 MY,19,25153,25453,249.75,248.75 F,0,31379,31469,1,0
Sprite,Background,Centre,"sb\textEN\MapperInfo\0050.png",353.5,0 C,0,25063,,255,255,255 F,0,25163,25263,0,1 S,30,25163,25463,0.5 MY,19,25163,25463,274.75,248.75 F,0,31379,31479,1,0
Sprite,Background,Centre,"sb\textEN\MapperInfo\0041.png",366.25,0 C,0,25063,,255,255,255 F,0,25173,25273,0,1 S,30,25173,25473,0.5 MY,19,25173,25473,259.75,248.75 F,0,31379,31489,1,0
Sprite,Background,Centre,"sb\textEN\MapperInfo\0052.png",379,0 C,0,25063,,255,255,255 F,0,25183,25283,0,1 S,30,25183,25483,0.5 MY,19,25183,25483,250.75,248.75 F,0,31379,31499,1,0
Sprite,Background,Centre,"sb\textEN\MapperInfo\0048.png",391.25,0 C,0,25063,,255,255,255 F,0,25193,25293,0,1 S,30,25193,25493,0.5 MY,19,25193,25493,222.75,248.75 F,0,31379,31509,1,0
Sprite,Background,Centre,"sb\textEN\MapperInfo\0054.png",403,0 C,0,25063,,255,255,255 F,0,25203,25303,0,1 S,30,25203,25503,0.5 MY,19,25203,25503,229.75,248.75 F,0,31379,31519,1,0
Sprite,Background,Centre,"sb\textEN\MapperInfo\0045.png",414,0 C,0,25063,,255,255,255 F,0,25213,25313,0,1 S,30,25213,25513,0.5 MY,19,25213,25513,245.75,248.75 F,0,31379,31529,1,0
Sprite,Background,Centre,"sb\textEN\MapperInfo\004e.png",425.75,0 C,0,25063,,255,255,255 F,0,25223,25323,0,1 S,30,25223,25523,0.5 MY,19,25223,25523,235.75,248.75 F,0,31379,31539,1,0
Sprite,Background,Centre,"sb\textEN\MapperInfo\0053.png",192.75,0 C,0,27589,,255,255,255 F,0,27589,27689,0,1 S,30,27589,27889,0.5 MY,19,27589,27889,307.75,278.75 F,0,31379,,1,0
Sprite,Background,Centre,"sb\textEN\MapperInfo\0054.png",204.5,0 C,0,27589,,255,255,255 F,0,27599,27699,0,1 S,30,27599,27899,0.5 MY,19,27599,27899,286.75,278.75 F,0,31379,31389,1,0
Sprite,Background,Centre,"sb\textEN\MapperInfo\004f.png",216.25,0 C,0,27589,,255,255,255 F,0,27609,27709,0,1 S,30,27609,27909,0.5 MY,19,27609,27909,293.75,278.75 F,0,31379,31399,1,0
Sprite,Background,Centre,"sb\textEN\MapperInfo\0052.png",228.5,0 C,0,27589,,255,255,255 F,0,27619,27719,0,1 S,30,27619,27919,0.5 MY,19,27619,27919,249.75,278.75 F,0,31379,31409,1,0
Sprite,Background,Centre,"sb\textEN\MapperInfo\0059.png",240.25,0 C,0,27589,,255,255,255 F,0,27629,27729,0,1 S,30,27629,27929,0.5 MY,19,27629,27929,270.75,278.75 F,0,31379,31419,1,0
Sprite,Background,Centre,"sb\textEN\MapperInfo\0042.png",252.75,0 C,0,27589,,255,255,255 F,0,27639,27739,0,1 S,30,27639,27939,0.5 MY,19,27639,27939,268.75,278.75 F,0,31379,31429,1,0
Sprite,Background,Centre,"sb\textEN\MapperInfo\004f.png",265.75,0 C,0,27589,,255,255,255 F,0,27649,27749,0,1 S,30,27649,27949,0.5 MY,19,27649,27949,305.75,278.75 F,0,31379,31439,1,0
Sprite,Background,Centre,"sb\textEN\MapperInfo\0041.png",278.75,0 C,0,27589,,255,255,255 F,0,27659,27759,0,1 S,30,27659,27959,0.5 MY,19,27659,27959,278.75 F,0,31379,31449,1,0
Sprite,Background,Centre,"sb\textEN\MapperInfo\0052.png",291.5,0 C,0,27589,,255,255,255 F,0,27669,27769,0,1 S,30,27669,27969,0.5 MY,19,27669,27969,290.75,278.75 F,0,31379,31459,1,0
Sprite,Background,Centre,"sb\textEN\MapperInfo\0044.png",303.75,0 C,0,27589,,255,255,255 F,0,27679,27779,0,1 S,30,27679,27979,0.5 MY,19,27679,27979,255.75,278.75 F,0,31379,31469,1,0
Sprite,Background,Centre,"sb\textEN\MapperInfo\0042.png",322.25,0 C,0,27589,,255,255,255 F,0,27689,27789,0,1 S,30,27689,27989,0.5 MY,19,27689,27989,264.75,278.75 F,0,31379,31479,1,0
Sprite,Background,Centre,"sb\textEN\MapperInfo\0059.png",334.75,0 C,0,27589,,255,255,255 F,0,27699,27799,0,1 S,30,27699,27999,0.5 MY,19,27699,27999,302.75,278.75 F,0,31379,31489,1,0
Sprite,Background,Centre,"sb\textEN\MapperInfo\0045.png",351.5,0 C,0,27589,,255,255,255 F,0,27709,27809,0,1 S,30,27709,28009,0.5 MY,19,27709,28009,295.75,278.75 F,0,31379,31499,1,0
Sprite,Background,Centre,"sb\textEN\MapperInfo\004e.png",363.25,0 C,0,27589,,255,255,255 F,0,27719,27819,0,1 S,30,27719,28019,0.5 MY,19,27719,28019,268.75,278.75 F,0,31379,31509,1,0
Sprite,Background,Centre,"sb\textEN\MapperInfo\004b.png",375.75,0 C,0,27589,,255,255,255 F,0,27729,27829,0,1 S,30,27729,28029,0.5 MY,19,27729,28029,275.75,278.75 F,0,31379,31519,1,0
Sprite,Background,Centre,"sb\textEN\MapperInfo\0052.png",388,0 C,0,27589,,255,255,255 F,0,27739,27839,0,1 S,30,27739,28039,0.5 MY,19,27739,28039,256.75,278.75 F,0,31379,31529,1,0
Sprite,Background,Centre,"sb\textEN\MapperInfo\0059.png",399.75,0 C,0,27589,,255,255,255 F,0,27749,27849,0,1 S,30,27749,28049,0.5 MY,19,27749,28049,261.75,278.75 F,0,31379,31539,1,0
Sprite,Background,Centre,"sb\textEN\MapperInfo\0050.png",411.5,0 C,0,27589,,255,255,255 F,0,27759,27859,0,1 S,30,27759,28059,0.5 MY,19,27759,28059,272.75,278.75 F,0,31379,31549,1,0
Sprite,Background,Centre,"sb\textEN\MapperInfo\0054.png",423,0 C,0,27589,,255,255,255 F,0,27769,27869,0,1 S,30,27769,28069,0.5 MY,19,27769,28069,291.75,278.75 F,0,31379,31559,1,0
Sprite,Background,Centre,"sb\textEN\MapperInfo\004f.png",434.75,0 C,0,27589,,255,255,255 F,0,27779,27879,0,1 S,30,27779,28079,0.5 MY,19,27779,28079,285.75,278.75 F,0,31379,31569,1,0
Sprite,Background,Centre,"sb\textEN\MapperInfo\004e.png",447.25,0 C,0,27589,,255,255,255 F,0,27789,27889,0,1 S,30,27789,28089,0.5 MY,19,27789,28089,277.75,278.75 F,0,31379,31579,1,0
Sprite,Background,Centre,"sb\textEN\MapperInfo\0054.png",282.25,0 C,0,29168,,255,255,255 F,0,29168,29268,0,1 S,30,29168,29468,0.5 MY,19,29168,29468,289.75,308.75 F,0,31379,,1,0
Sprite,Background,Centre,"sb\textEN\MapperInfo\004f.png",294,0 C,0,29168,,255,255,255 F,0,29178,29278,0,1 S,30,29178,29478,0.5 MY,19,29178,29478,330.75,308.75 F,0,31379,31389,1,0
Sprite,Background,Centre,"sb\textEN\MapperInfo\0052.png",306.25,0 C,0,29168,,255,255,255 F,0,29188,29288,0,1 S,30,29188,29488,0.5 MY,19,29188,29488,327.75,308.75 F,0,31379,31399,1,0
Sprite,Background,Centre,"sb\textEN\MapperInfo\004d.png",320.5,0 C,0,29168,,255,255,255 F,0,29198,29298,0,1 S,30,29198,29498,0.5 MY,19,29198,29498,322.75,308.75 F,0,31379,31409,1,0
Sprite,Background,Centre,"sb\textEN\MapperInfo\0045.png",334.25,0 C,0,29168,,255,255,255 F,0,29208,29308,0,1 S,30,29208,29508,0.5 MY,19,29208,29508,329.75,308.75 F,0,31379,31419,1,0
Sprite,Background,Centre,"sb\textEN\MapperInfo\004e.png",346,0 C,0,29168,,255,255,255 F,0,29218,29318,0,1 S,30,29218,29518,0.5 MY,19,29218,29518,318.75,308.75 F,0,31379,31429,1,0
Sprite,Background,Centre,"sb\textEN\MapperInfo\0054.png",357.75,0 C,0,29168,,255,255,255 F,0,29228,29328,0,1 S,30,29228,29528,0.5 MY,19,29228,29528,315.75,308.75 F,0,31379,31439,1,0
//Storyboard Layer 1 (Fail)
//Storyboard Layer 2 (Pass)
//Storyboard Layer 3 (Foreground)
//Storyboard Layer 4 (Overlay)
//Storyboard Sound Samples

[TimingPoints]
116,315.789473684211,4,2,1,50,1,0
747,-250,4,2,1,50,0,0
1063,-250,4,2,1,5,0,0
1379,-166.666666666667,4,2,1,50,0,0
11484,-142.857142857143,4,2,1,50,0,0
20326,-142.857142857143,4,2,1,5,0,0
21589,-125,4,2,1,60,0,0
51905,-100,4,2,1,65,0,0
52537,-125,4,2,1,65,0,0
55694,-71.4285714285714,4,2,1,70,0,0
56010,-83.3333333333333,4,2,1,70,0,0
58063,-100,4,2,1,70,0,0
60589,-83.3333333333333,4,2,1,75,0,0
62010,-71.4285714285714,4,2,1,75,0,0
62326,-83.3333333333333,4,2,1,75,0,0
64063,-71.4285714285714,4,2,1,75,0,0
64852,-83.3333333333333,4,2,1,75,0,0
67063,-125,4,2,1,75,0,0
70852,-100,4,2,1,75,0,0
71484,-100,4,2,1,5,0,0
72116,-71.4285714285714,4,2,1,80,0,0
102431,-166.666666666667,4,2,1,45,0,0
112537,-125,4,2,1,55,0,0
122642,-100,4,2,1,55,0,0
132747,-83.3333333333333,4,2,1,75,0,0
142852,-83.3333333333333,4,2,1,80,0,0
150431,-83.3333333333333,4,2,1,75,0,0
165116,-71.4285714285714,4,2,1,75,0,0
165905,-83.3333333333333,4,2,1,75,0,0
168116,-125,4,2,1,75,0,0
171905,-100,4,2,1,75,0,0
173168,-71.4285714285714,4,2,1,80,0,0
203484,-166.666666666667,4,2,1,50,0,0
206958,-166.666666666667,4,2,1,5,0,0
207063,-166.666666666667,4,2,1,50,0,0
209063,-166.666666666667,4,2,1,5,0,0
209168,-166.666666666667,4,2,1,50,0,0
211273,-166.666666666667,4,2,1,5,0,0
211379,-166.666666666667,4,2,1,50,0,0
211905,-166.666666666667,4,2,1,5,0,0
212010,-166.666666666667,4,2,1,50,0,0
212852,-166.666666666667,4,2,1,5,0,0
212958,-166.666666666667,4,2,1,50,0,0
218643,348.837209302326,4,2,1,40,1,0
220038,-166.666666666667,4,2,1,40,0,0
225270,-166.666666666667,4,2,1,5,0,0
225619,-500,4,2,1,55,0,0
225968,-166.666666666667,4,2,1,5,0,0
226055,-166.666666666667,4,2,1,55,0,0
226153,315.789473684211,4,2,1,55,1,0
226468,315.789473684211,4,2,1,55,1,0
226468,-125,4,2,1,55,0,0
233731,-250,4,2,1,55,0,0
241625,-166.666666666667,4,2,1,65,0,0
241783,-166.666666666667,4,2,1,5,0,0
241862,-166.666666666667,4,2,1,55,0,0
243362,-125,4,2,1,80,0,0
244073,-125,4,2,1,5,0,0
244152,-62.5,4,2,1,85,0,0
246678,-62.5,4,2,1,90,0,0
271941,-71.4285714285714,4,2,1,70,0,0
276994,-166.666666666667,4,2,1,50,0,0
285678,-166.666666666667,4,2,1,5,0,0

[Colours]
Combo1 : 227,171,239
Combo2 : 232,232,232
Combo3 : 237,179,135
Combo4 : 196,242,210
Combo5 : 141,148,224

[HitObjects]
429,222,747,6,0,P|465:237|505:253,1,69.2,2|0,0:0|0:0,0:0:0:0:
487,237,1379,6,0,P|450:245|420:250,1,51.8999984161377,2|2,0:0|0:0,0:0:0:0:
350,159,2010,1,2,0:0:0:0:
344,176,2326,2,0,P|289:193|139:231,1,207.599993664551,2|2,0:0|0:0,0:0:0:0:
105,154,3273,1,2,0:0:0:0:
177,151,3431,1,2,0:0:0:0:
223,206,3589,1,2,0:0:0:0:
26,276,3905,6,0,P|57:283|86:292,1,51.8999984161377,2|0,0:0|0:0,0:0:0:0:
128,346,4221,1,2,0:0:0:0:
341,189,4537,1,2,0:0:0:0:
186,101,4852,6,0,P|225:159|292:276,1,181.649994456482,2|0,0:0|0:0,0:0:0:0:
323,271,5484,2,0,P|305:308|300:329,2,51.8999984161377,2|2|2,0:0|0:0|0:0,0:0:0:0:
477,190,6116,5,2,0:0:0:0:
477,190,6431,5,2,0:0:0:0:
481,200,6589,1,2,0:0:0:0:
418,234,6747,2,0,P|468:231|494:274,1,103.799996832275,2|2,0:0|0:0,0:0:0:0:
468,89,7379,2,0,P|403:129|289:229,1,207.599993664551,2|2,0:0|0:0,0:0:0:0:
71,92,8326,5,2,0:0:0:0:
248,146,8642,1,2,0:0:0:0:
76,253,8958,5,2,0:0:0:0:
158,172,9273,2,0,P|153:217|148:236,2,51.8999984161377,2|2|2,0:0|0:0|0:0,0:0:0:0:
158,172,9905,1,2,0:0:0:0:
233,266,10221,5,2,0:0:0:0:
237,288,10379,1,2,0:0:0:0:
244,309,10537,1,2,0:0:0:0:
252,331,10694,1,2,0:0:0:0:
263,352,10852,1,2,0:0:0:0:
263,352,11168,5,2,0:0:0:0:
463,309,11484,5,2,0:0:0:0:
390,302,11642,1,2,0:0:0:0:
368,232,11800,1,2,0:0:0:0:
495,105,12116,6,0,P|483:132|469:159,1,60.5499981521607,2|0,0:0|0:0,0:0:0:0:
441,234,12431,2,0,P|342:275|267:317,1,181.649994456482,2|0,0:0|0:0,0:0:0:0:
237,376,13063,1,2,0:0:0:0:
45,278,13379,5,2,0:0:0:0:
108,313,13537,1,2,0:0:0:0:
163,266,13694,2,0,P|170:234|186:194,1,60.5499981521607,2|0,0:0|0:0,0:0:0:0:
152,63,14010,5,2,0:0:0:0:
106,121,14168,1,2,0:0:0:0:
17,57,14326,2,0,P|27:100|35:119,1,60.5499981521607,2|0,0:0|0:0,0:0:0:0:
285,104,14642,2,0,P|255:105|230:122,1,60.5499981521607,2|0,0:0|0:0,0:0:0:0:
101,214,14958,2,0,P|193:202|281:194,1,181.649994456482,2|0,0:0|0:0,0:0:0:0:
378,244,15589,1,2,0:0:0:0:
411,180,15747,1,2,0:0:0:0:
484,187,15905,1,2,0:0:0:0:
263,282,16221,6,0,P|210:288|182:294,1,60.5499981521607,2|0,0:0|0:0,0:0:0:0:
72,355,16537,1,2,0:0:0:0:
61,360,16694,1,2,0:0:0:0:
51,365,16852,2,0,P|23:342|24:302,1,60.5499981521607,2|0,0:0|0:0,0:0:0:0:
159,226,17168,2,0,P|178:203|178:173,1,60.5499981521607,2|0,0:0|0:0,0:0:0:0:
91,111,17484,2,0,P|76:163|64:250,1,121.099996304321,2|0,0:0|0:0,0:0:0:0:
125,330,18116,1,2,0:0:0:0:
194,312,18273,1,2,0:0:0:0:
247,362,18431,1,2,0:0:0:0:
263,223,18747,6,0,P|276:262|283:298,1,60.5499981521607,2|0,0:0|0:0,0:0:0:0:
350,325,19063,1,2,0:0:0:0:
468,146,19379,1,2,0:0:0:0:
411,191,19537,1,2,0:0:0:0:
339,182,19694,1,2,0:0:0:0:
345,165,20010,6,0,P|432:212|459:231,1,121.099996304321,2|0,0:0|0:0,0:0:0:0:
464,134,21589,5,6,1:2:0:0:
348,203,21747,1,2,0:0:0:0:
185,84,21905,5,2,0:0:0:0:
264,117,22063,1,8,0:0:0:0:
437,32,22221,6,0,P|423:52|416:72,1,34.6,2|0,0:0|0:0,0:0:0:0:
346,58,22379,2,0,P|346:82|353:102,1,34.6,0|0,1:0|0:0,0:0:0:0:
443,202,22537,2,0,P|399:132|263:158,1,207.6,2|0,1:2|0:0,0:0:0:0:
191,107,23168,6,0,P|203:74|259:55,1,69.2,2|0,0:2|0:0,0:0:0:0:
170,190,23484,1,2,0:2:0:0:
107,137,23642,1,2,1:2:0:0:
294,223,23800,2,0,P|325:208|378:234,1,69.2,10|0,0:2|0:0,0:0:0:0:
131,356,24116,5,6,1:2:0:0:
185,218,24273,1,2,0:2:0:0:
112,278,24431,2,0,P|66:265|17:256,1,69.2,2|8,0:2|0:2,0:0:0:0:
219,321,24747,1,2,0:2:0:0:
223,328,24905,1,2,1:2:0:0:
383,310,25063,6,0,B|453:279|449:210|449:210|449:250|487:297,1,207.6,2|0,1:2|0:0,0:0:0:0:
269,79,25694,5,2,0:2:0:0:
360,218,25852,1,2,0:2:0:0:
302,266,26010,1,2,0:2:0:0:
448,117,26168,5,0,1:0:0:0:
290,162,26326,1,10,0:0:0:0:
279,170,26484,1,0,0:0:0:0:
68,17,26642,5,6,1:2:0:0:
161,129,26800,1,2,0:2:0:0:
29,209,26958,6,0,P|60:180|85:161,1,69.2,2|8,0:2|0:2,0:0:0:0:
141,222,27273,2,0,P|195:228|233:240,1,69.2,2|0,0:2|1:2,0:0:0:0:
99,290,27589,2,0,B|167:294|201:212|158:246|209:151|275:176,1,207.6,2|0,1:2|0:0,0:0:0:0:
471,307,28221,1,2,0:2:0:0:
428,244,28379,1,2,0:2:0:0:
351,247,28537,1,2,0:2:0:0:
451,223,28694,5,0,1:0:0:0:
368,372,28852,2,0,P|394:334|378:295,1,69.2,10|0,0:0|0:0,0:0:0:0:
197,263,29168,2,0,P|175:227|180:195,1,69.2,6|0,1:2|0:0,0:0:0:0:
262,306,29484,5,2,0:2:0:0:
197,345,29642,1,10,0:2:0:0:
22,240,29800,6,0,P|73:255|97:266,1,69.2,2|2,0:2|1:2,0:0:0:0:
225,91,30116,2,0,P|174:106|111:141,1,103.8,2|0,1:2|0:0,0:0:0:0:
128,128,30431,5,2,0:0:0:0:
323,136,30589,1,10,0:0:0:0:
345,105,30668,1,10,0:0:0:0:
382,100,30747,1,10,0:0:0:0:
296,37,30905,5,2,0:0:0:0:
477,73,31063,2,0,P|463:119|455:150,1,69.2,2|8,0:0|0:0,0:0:0:0:
272,284,31379,2,0,P|257:234|239:185,1,103.8,2|0,1:2|0:0,0:0:0:0:
195,88,31694,5,2,1:0:0:0:
369,184,31852,1,0,1:2:0:0:
478,258,32010,5,0,1:2:0:0:
401,316,32168,1,8,0:2:0:0:
296,236,32326,5,0,0:2:0:0:
213,210,32484,1,0,1:2:0:0:
0,138,32642,5,10,1:0:0:0:
125,272,32800,1,0,0:2:0:0:
135,144,32958,5,2,0:2:0:0:
135,144,33273,5,2,0:0:0:0:
127,155,33431,2,0,P|117:105|112:80,1,69.2,2|0,0:0|0:0,0:0:0:0:
106,299,33905,5,8,0:0:0:0:
218,229,34063,1,0,0:0:0:0:
396,311,34221,5,2,1:0:0:0:
322,273,34378,1,0,0:0:0:0:
286,347,34536,1,0,0:0:0:0:
358,384,34694,1,8,0:0:0:0:
461,182,34852,6,0,P|415:214|386:247,1,69.2,0|0,0:0|1:2,0:0:0:0:
315,119,35168,1,10,1:0:0:0:
459,80,35326,1,0,0:0:0:0:
459,5,35484,6,0,P|423:69|387:157,1,138.4,2|2,0:0|0:0,0:0:0:0:
315,101,35958,2,0,P|327:68|344:38,1,69.2,2|0,0:0|0:0,0:0:0:0:
244,183,36431,1,8,0:0:0:0:
246,192,36589,1,0,0:0:0:0:
335,267,36747,5,2,1:0:0:0:
254,298,36905,1,0,0:0:0:0:
32,305,37063,5,0,0:0:0:0:
213,370,37221,1,8,0:0:0:0:
87,124,37379,5,0,0:0:0:0:
131,185,37537,1,0,1:2:0:0:
107,257,37694,1,2,1:0:0:0:
138,326,37852,1,0,0:0:0:0:
98,366,38010,6,0,P|108:341|174:221,1,138.4,2|2,0:0|0:0,0:0:0:0:
223,203,38484,1,2,0:0:0:0:
294,55,38800,5,0,1:0:0:0:
363,96,38958,2,0,P|373:147|389:189,1,69.2,8|0,0:0|0:0,0:0:0:0:
422,311,39273,2,0,P|434:261|490:109,1,207.6,2|8,1:0|0:0,0:0:0:0:
485,375,39905,5,0,0:0:0:0:
354,251,40063,1,0,1:0:0:0:
319,318,40221,2,0,P|262:351|239:371,1,69.2,10|0,1:0|0:0,0:0:0:0:
86,184,40537,5,2,0:0:0:0:
172,264,40694,1,0,0:0:0:0:
145,331,40852,5,2,0:0:0:0:
23,305,41010,2,0,P|17:264|8:217,1,69.2,8|0,0:0|1:2,0:0:0:0:
163,35,41326,1,0,1:2:0:0:
216,101,41484,2,0,P|201:140|188:190,1,69.2,8|0,0:0|0:0,0:0:0:0:
35,16,41800,5,2,1:0:0:0:
146,68,41958,1,0,0:0:0:0:
300,177,42116,5,0,0:0:0:0:
380,141,42273,1,8,0:0:0:0:
311,40,42431,5,0,0:0:0:0:
468,140,42589,1,0,1:2:0:0:
446,280,42747,5,2,1:0:0:0:
381,236,42905,1,0,0:0:0:0:
395,72,43063,6,0,P|422:135|463:228,1,138.4,2|2,0:0|0:0,0:0:0:0:
361,375,43537,2,0,P|341:329|322:298,1,69.2,2|0,0:0|0:0,0:0:0:0:
227,240,44010,5,8,0:0:0:0:
237,249,44168,1,0,0:0:0:0:
162,361,44326,2,0,P|181:320|166:288,1,69.2,2|0,1:0|0:0,0:0:0:0:
0,362,44642,5,0,0:0:0:0:
88,310,44800,1,8,0:0:0:0:
157,214,44958,5,0,0:0:0:0:
22,146,45116,1,0,1:2:0:0:
120,137,45273,5,2,1:0:0:0:
198,103,45431,1,0,0:0:0:0:
221,26,45589,6,0,P|242:125|260:188,1,138.4,2|2,0:0|0:0,0:0:0:0:
339,24,46063,2,0,P|327:68|322:110,1,69.2,2|0,0:0|0:0,0:0:0:0:
454,163,46537,1,8,0:0:0:0:
447,175,46694,1,0,0:0:0:0:
484,65,46852,5,2,1:0:0:0:
326,180,47010,1,0,0:0:0:0:
323,91,47168,5,0,0:0:0:0:
454,163,47326,1,8,0:0:0:0:
299,358,47484,5,0,0:0:0:0:
356,266,47642,1,0,1:2:0:0:
474,360,47800,5,2,1:0:0:0:
465,350,47958,1,0,0:0:0:0:
501,272,48116,2,0,P|444:313|369:377,1,138.4,2|2,0:0|0:0,0:0:0:0:
261,285,48589,2,0,P|228:274|164:264,1,69.2,10|0,0:0|0:0,0:0:0:0:
106,148,48905,1,0,1:0:0:0:
0,266,49063,6,0,P|37:224|97:240,1,103.8,10|0,0:0|0:0,0:0:0:0:
77,304,49379,2,0,P|101:243|195:113,1,207.6,2|8,1:2|0:0,0:0:0:0:
258,11,50010,2,0,P|270:47|275:94,1,69.2,0|0,0:0|1:0,0:0:0:0:
370,86,50326,2,0,P|354:120|325:158,1,69.2,2|0,1:2|0:0,0:0:0:0:
246,186,50642,5,2,1:2:0:0:
242,175,50800,1,0,1:0:0:0:
397,302,50958,6,0,P|376:276|343:271,1,69.2,10|2,0:0|0:0,0:0:0:0:
436,331,51273,2,0,P|433:298|408:276,1,69.2,10|0,0:0|1:2,0:0:0:0:
79,343,51589,5,10,0:0:0:0:
239,267,51747,1,2,1:2:0:0:
153,288,51905,2,0,P|221:309|278:335,1,129.75,6|0,1:0|0:0,0:0:0:0:
318,199,52221,5,2,0:0:0:0:
192,351,52379,1,2,0:0:0:0:
93,213,52537,2,0,P|127:207|160:197,1,69.2,2|0,0:0|0:0,0:0:0:0:
257,40,52852,5,2,0:0:0:0:
249,49,53010,1,2,0:0:0:0:
300,110,53168,6,0,P|248:92|143:70,1,138.4,2|0,0:0|0:0,0:0:0:0:
94,34,53642,2,0,P|77:80|119:132,1,103.8,2|0,0:0|0:0,0:0:0:0:
103,124,53958,1,2,0:0:0:0:
189,119,54116,2,0,P|232:103|337:86,1,138.4,2|0,0:0|0:0,0:0:0:0:
390,146,54747,2,0,P|412:109|392:68,2,69.2,2|2|2,0:0|0:0|0:0,0:0:0:0:
311,177,55379,5,2,0:0:0:0:
318,189,55537,1,2,0:0:0:0:
113,339,55694,6,0,P|90:315|98:261,1,60.5499981521607,8|0,0:0|0:0,0:0:0:0:
10,301,55852,2,0,P|9:267|52:233,1,60.5499981521607,8|0,0:0|0:0,0:0:0:0:
27,70,56010,6,0,B|54:90|57:128|57:128|77:137|77:137|80:176|120:228,1,155.699995248413,6|0,1:2|0:0,0:0:0:0:
99,198,56326,1,8,0:0:0:0:
244,353,56484,5,6,1:2:0:0:
373,248,56642,1,8,0:0:0:0:
171,149,56800,1,8,0:0:0:0:
171,149,56879,1,0,0:0:0:0:
171,149,56958,1,6,1:2:0:0:
363,337,57116,5,0,1:0:0:0:
277,252,57273,1,0,0:0:0:0:
305,164,57431,1,0,1:0:0:0:
209,13,57589,5,8,0:0:0:0:
238,93,57747,1,0,0:0:0:0:
400,30,57905,1,10,0:0:0:0:
464,102,58063,2,0,P|392:65|266:22,1,173,2|0,1:2|1:0,0:0:0:0:
67,108,58537,2,0,P|107:73|155:107,1,86.5,8|0,0:0|0:0,0:0:0:0:
153,262,58852,5,0,1:2:0:0:
21,204,59010,1,0,1:0:0:0:
127,159,59168,5,10,0:0:0:0:
248,295,59326,1,10,0:0:0:0:
248,295,59405,1,10,0:0:0:0:
248,295,59484,2,0,P|236:239|229:191,1,86.5,6|0,1:2|1:0,0:0:0:0:
201,89,59800,5,2,0:0:0:0:
384,213,59958,1,2,1:2:0:0:
409,120,60116,2,0,P|400:77|393:34,1,86.5,8|2,0:0|0:0,0:0:0:0:
289,159,60431,5,10,0:0:0:0:
512,196,60589,2,0,P|405:255|313:321,1,207.599993664551,12|0,1:2|1:0,0:0:0:0:
290,74,61063,5,10,0:0:0:0:
290,74,61379,5,10,0:0:0:0:
171,348,61537,1,2,1:2:0:0:
107,42,61694,5,8,0:0:0:0:
94,75,61773,1,8,0:0:0:0:
65,96,61852,1,8,0:0:0:0:
30,89,61931,1,8,0:0:0:0:
2,57,62010,6,0,P|31:146|65:276,1,181.649994456482,12|0,0:2|0:0,0:0:0:0:
25,314,62326,5,10,0:0:0:0:
165,168,62484,1,2,0:0:0:0:
338,335,62642,5,2,1:2:0:0:
147,252,62800,1,0,1:0:0:0:
206,342,62958,5,2,0:0:0:0:
447,158,63116,1,10,0:2:0:0:
270,274,63273,6,0,P|307:230|354:243,1,103.799996832275,2|0,0:0|1:2,0:0:0:0:
190,246,63589,1,10,1:2:0:0:
370,158,63747,2,0,P|425:198|412:268,1,103.799996832275,2|8,0:0|0:0,0:0:0:0:
384,384,64063,6,0,P|399:320|408:302,1,60.5499981521607,6|0,1:2|0:0,0:0:0:0:
255,50,64221,2,0,P|270:114|279:132,1,60.5499981521607,2|0,0:0|0:0,0:0:0:0:
434,0,64379,1,10,0:2:0:0:
460,33,64458,1,8,0:2:0:0:
447,71,64537,2,0,P|353:112|220:190,1,242.199992608643,12|10,1:2|0:0,0:0:0:0:
40,132,65010,5,2,0:0:0:0:
241,264,65168,1,2,1:2:0:0:
189,340,65326,1,2,1:2:0:0:
293,379,65484,5,2,0:0:0:0:
69,248,65642,1,10,0:0:0:0:
121,162,65800,2,0,P|140:210|156:259,1,103.799996832275,2|0,0:0|1:2,0:0:0:0:
171,62,66116,5,10,0:2:0:0:
280,186,66273,2,0,P|351:202|411:220,1,103.799996832275,2|0,0:0|1:2,0:0:0:0:
491,91,66589,5,10,0:0:0:0:
313,291,66747,1,10,0:0:0:0:
201,145,66905,1,10,1:2:0:0:
371,15,67063,6,0,B|372:33|382:53|382:53|363:70|327:130,1,103.8,12|0,1:2|0:0,0:0:0:0:
355,124,67379,2,0,B|354:106|344:86|344:86|363:69|399:9,1,103.8,12|0,1:2|0:0,0:0:0:0:
460,63,67694,2,0,L|468:103,1,34.6,10|0,0:1|0:0,0:0:0:0:
455,74,67852,2,0,L|463:114,1,34.6,10|0,0:1|0:0,0:0:0:0:
450,85,68010,2,0,L|458:125,1,34.6,10|0,0:1|0:0,0:0:0:0:
445,96,68168,2,0,L|453:136,1,34.6,10|0,0:1|0:0,0:0:0:0:
509,228,68326,6,0,B|494:232|479:244|479:244|445:221|386:216,1,103.8,12|0,1:2|0:0,0:0:0:0:
389,229,68642,2,0,B|404:225|419:213|419:213|453:236|512:241,1,103.8,14|0,1:2|0:0,0:0:0:0:
415,303,68958,2,0,L|407:343,1,34.6,10|0,0:1|0:0,0:0:0:0:
420,314,69116,2,0,L|412:354,1,34.6,10|0,0:1|0:0,0:0:0:0:
425,325,69274,2,0,L|417:365,1,34.6,10|0,0:1|0:0,0:0:0:0:
430,336,69432,2,0,L|422:376,1,34.6,10|0,0:1|0:0,0:0:0:0:
320,380,69589,5,14,1:2:0:0:
285,233,69747,1,0,0:0:0:0:
123,384,69905,5,8,0:0:0:0:
157,305,70063,1,0,1:0:0:0:
222,364,70221,5,8,0:0:0:0:
51,194,70379,1,0,1:0:0:0:
313,214,70537,5,10,0:0:0:0:
46,283,70694,1,10,0:0:0:0:
180,81,70852,6,0,P|153:151|135:231,1,129.75,12|0,1:2|0:0,0:0:0:0:
212,249,71168,2,0,P|227:185|277:59,1,173,12|0,1:2|0:0,0:0:0:0:
264,84,72116,5,14,1:1:0:0:
469,227,72273,1,2,1:2:0:0:
486,65,72431,5,2,0:0:0:0:
388,115,72589,1,10,0:0:0:0:
240,0,72747,5,2,0:0:0:0:
350,193,72905,1,2,1:2:0:0:
412,118,73063,5,10,0:2:0:0:
469,323,73221,1,10,0:2:0:0:
469,323,73300,1,10,0:2:0:0:
469,323,73379,2,0,P|424:307|338:284,1,121.099996304321,2|2,1:2|1:2,0:0:0:0:
170,161,73694,5,10,0:2:0:0:
283,358,73852,1,2,0:0:0:0:
183,274,74010,5,2,1:2:0:0:
240,197,74168,1,2,0:0:0:0:
159,12,74326,2,0,P|100:39|79:26,1,60.5499981521607,8|0,0:2|0:0,0:0:0:0:
0,132,74484,1,10,0:2:0:0:
0,132,74563,1,10,0:2:0:0:
0,132,74642,2,0,B|16:98|50:92|50:92|75:124|118:113,1,121.099996304321,14|2,1:1|0:0,0:0:0:0:
237,30,74958,5,10,0:2:0:0:
351,209,75116,1,2,0:0:0:0:
195,347,75273,5,2,1:2:0:0:
269,216,75431,1,2,1:2:0:0:
404,289,75589,5,2,0:0:0:0:
280,142,75747,1,10,0:2:0:0:
422,36,75905,5,2,1:2:0:0:
381,110,76063,1,2,1:2:0:0:
135,283,76221,5,10,0:0:0:0:
350,196,76379,1,2,0:0:0:0:
457,348,76537,5,2,1:2:0:0:
285,277,76694,2,0,B|274:304|256:315|256:315|279:364|274:417,1,121.099996304321,2|8,1:2|0:0,0:0:0:0:
263,249,77010,1,8,0:0:0:0:
85,342,77168,6,0,P|64:320|61:290,1,60.5499981521607,14|0,1:0|0:0,0:0:0:0:
135,283,77326,2,0,P|137:253|157:231,1,60.5499981521607,0|0,1:0|0:0,0:0:0:0:
351,315,77484,2,0,P|261:331|174:356,1,181.649994456482,10|0,0:0|0:0,0:0:0:0:
174,355,77800,5,2,1:2:0:0:
90,69,77958,1,0,1:0:0:0:
5,147,78116,2,0,B|19:136|25:118|25:118|31:167|62:227,1,121.099996304321,10|0,0:0|0:0,0:0:0:0:
84,362,78431,5,2,1:2:0:0:
231,254,78589,1,0,1:2:0:0:
410,351,78747,1,10,0:2:0:0:
316,175,78905,5,2,0:0:0:0:
322,198,78984,1,10,0:0:0:0:
331,220,79063,1,0,1:2:0:0:
366,95,79221,1,8,0:0:0:0:
512,234,79379,5,10,0:0:0:0:
497,207,79458,1,10,0:0:0:0:
468,196,79537,1,10,0:2:0:0:
439,206,79616,1,10,0:2:0:0:
409,199,79694,1,10,1:1:0:0:
218,265,79852,1,0,1:0:0:0:
251,50,80010,6,0,P|243:103|222:167,1,121.099996304321,10|0,0:0|0:0,0:0:0:0:
170,10,80326,1,2,1:2:0:0:
314,175,80484,1,8,0:0:0:0:
135,305,80642,1,2,0:0:0:0:
2,127,80800,2,0,B|43:103|56:57|56:57|53:155|112:216,1,242.199992608643,6|0,1:2|1:0,0:0:0:0:
31,334,81273,5,8,0:0:0:0:
142,95,81431,1,0,1:0:0:0:
178,374,81589,5,8,0:0:0:0:
20,245,81747,1,0,1:0:0:0:
206,147,81905,5,8,1:2:0:0:
176,168,81984,1,8,1:2:0:0:
186,202,82063,1,10,1:2:0:0:
178,257,82142,1,8,1:2:0:0:
125,283,82221,1,14,1:0:0:0:
322,134,82379,1,2,1:2:0:0:
390,330,82537,5,2,0:0:0:0:
270,222,82694,1,10,0:0:0:0:
426,230,82852,5,2,0:0:0:0:
489,144,83010,1,2,1:2:0:0:
293,0,83168,5,10,0:2:0:0:
454,65,83326,1,10,0:2:0:0:
454,65,83405,1,10,0:2:0:0:
454,65,83484,2,0,B|420:79|408:106|408:106|390:85|333:79,1,121.099996304321,2|2,1:2|1:2,0:0:0:0:
56,30,83800,5,10,0:2:0:0:
237,71,83958,1,2,0:0:0:0:
41,137,84116,5,2,1:2:0:0:
138,91,84273,1,2,0:0:0:0:
272,197,84431,2,0,P|253:283|254:302,1,60.5499981521607,8|0,0:2|0:0,0:0:0:0:
182,384,84589,1,10,0:2:0:0:
182,384,84668,1,10,0:2:0:0:
182,384,84747,2,0,P|171:313|153:241,1,121.099996304321,14|2,1:1|0:0,0:0:0:0:
29,122,85063,5,10,0:2:0:0:
185,179,85221,1,2,0:0:0:0:
411,273,85379,5,2,1:2:0:0:
321,308,85537,1,2,1:2:0:0:
382,93,85694,5,2,0:0:0:0:
241,251,85852,1,10,0:2:0:0:
258,36,86010,5,2,1:2:0:0:
359,183,86168,1,2,1:2:0:0:
277,110,86326,5,10,0:0:0:0:
95,57,86484,1,2,0:0:0:0:
383,75,86642,5,2,1:2:0:0:
479,268,86799,2,0,P|439:249|400:314,1,121.099996304321,2|8,1:2|0:0,0:0:0:0:
481,162,87115,1,8,0:0:0:0:
156,346,87273,6,0,P|184:340|204:318,1,60.5499981521607,14|0,1:0|0:0,0:0:0:0:
283,328,87431,2,0,P|287:297|273:271,1,60.5499981521607,0|0,1:0|0:0,0:0:0:0:
0,336,87589,2,0,B|31:349|92:302|41:289|113:233|184:265,1,181.649994456482,10|0,0:0|0:0,0:0:0:0:
151,256,87905,1,2,1:2:0:0:
15,114,88063,1,0,1:0:0:0:
149,72,88221,2,0,B|117:86|105:110|105:110|107:84|86:52,1,121.099996304321,2|8,0:0|0:0,0:0:0:0:
267,30,88536,5,2,1:2:0:0:
76,188,88694,1,0,1:2:0:0:
349,215,88852,5,10,0:2:0:0:
192,158,89010,1,2,0:0:0:0:
214,149,89089,1,10,0:0:0:0:
237,143,89168,1,2,1:2:0:0:
154,54,89326,1,10,0:0:0:0:
230,263,89484,5,2,1:2:0:0:
342,98,89642,1,0,1:0:0:0:
482,246,89800,6,0,B|452:294|397:254|383:298|383:298|416:279|478:293,1,181.649994456482,14|0,1:0|0:0,0:0:0:0:
442,299,90116,1,12,0:0:0:0:
433,308,90431,1,4,1:2:0:0:
425,316,90747,1,6,1:2:0:0:
418,325,91063,5,2,1:2:0:0:
336,197,91221,1,0,1:0:0:0:
215,380,91379,5,10,0:2:0:0:
254,291,91537,1,0,0:0:0:0:
100,123,91694,6,0,P|119:197|137:259,1,121.099996304321,10|0,0:2|1:0,0:0:0:0:
7,171,92010,5,2,1:2:0:0:
212,195,92168,1,0,1:2:0:0:
24,271,92326,6,0,B|84:285|111:344|111:344|142:308|192:307,1,181.649994456482,6|0,1:0|0:0,0:0:0:0:
241,278,92642,2,0,P|301:309|374:331,1,121.099996304321,0|0,1:2|0:0,0:0:0:0:
507,208,92958,6,0,P|467:234|437:252,1,60.5499981521607,10|0,0:1|0:0,0:0:0:0:
499,200,93116,2,0,P|459:226|429:244,1,60.5499981521607,10|0,0:1|0:0,0:0:0:0:
491,192,93273,2,0,P|451:218|421:236,1,60.5499981521607,10|0,0:1|0:0,0:0:0:0:
483,184,93431,2,0,P|443:210|413:228,1,60.5499981521607,10|0,0:1|0:0,0:0:0:0:
422,362,93589,6,0,P|386:304|357:253,1,121.099996304321,2|8,1:1|0:0,0:0:0:0:
215,56,93905,2,0,P|273:60|300:112,1,121.099996304321,2|0,1:2|0:0,0:0:0:0:
128,136,94221,6,0,P|168:162|198:180,1,60.5499981521607,10|0,0:1|0:0,0:0:0:0:
136,128,94379,2,0,P|176:154|206:172,1,60.5499981521607,10|0,0:1|0:0,0:0:0:0:
144,120,94536,2,0,P|184:146|214:164,1,60.5499981521607,10|0,0:1|0:0,0:0:0:0:
152,112,94694,2,0,P|192:138|222:156,1,60.5499981521607,10|0,0:1|0:0,0:0:0:0:
257,249,94852,6,0,P|163:266|86:325,1,181.649994456482,6|0,1:1|0:0,0:0:0:0:
96,325,95168,2,0,P|169:273|258:258,1,181.649994456482,0|0,1:2|0:0,0:0:0:0:
309,320,95484,1,10,0:2:0:0:
437,236,95642,1,2,1:2:0:0:
338,74,95800,1,2,0:0:0:0:
450,95,95958,6,0,P|428:139|388:141,1,60.5499981521607,8|0,0:0|0:0,0:0:0:0:
390,134,96116,2,0,P|314:121|251:114,1,121.099996304321,0|8,1:0|0:0,0:0:0:0:
53,69,96431,1,8,0:0:0:0:
181,206,96589,1,4,1:0:0:0:
67,236,96747,5,8,0:0:0:0:
165,115,96905,1,0,1:0:0:0:
191,34,97063,1,2,1:2:0:0:
90,154,97221,1,0,1:2:0:0:
85,5,97379,6,0,P|119:101|157:243,1,242.199992608643,6|2,1:2|1:2,0:0:0:0:
350,200,97852,1,2,0:0:0:0:
357,296,98010,2,0,B|338:270|308:272|308:272|294:314|251:320,1,121.099996304321,10|0,0:2|0:0,0:0:0:0:
188,339,98326,1,2,0:2:0:0:
404,379,98484,1,8,0:2:0:0:
367,199,98642,2,0,P|383:134|401:75,1,121.099996304321,2|10,1:2|0:2,0:0:0:0:
476,122,98958,5,2,0:2:0:0:
276,185,99116,1,2,1:2:0:0:
368,3,99273,5,8,0:2:0:0:
398,82,99431,1,8,1:3:0:0:
351,153,99589,1,8,1:3:0:0:
386,229,99747,1,8,1:3:0:0:
270,343,99905,5,4,1:1:0:0:
68,229,102431,6,0,P|76:276|84:336,2,103.799996832275,2|0|2,0:0|0:0|0:0,0:0:0:0:
56,220,103378,1,2,0:0:0:0:
189,264,103694,6,0,P|181:311|173:371,2,103.799996832275,2|0|2,0:0|0:0|0:0,0:0:0:0:
201,255,104641,1,2,0:0:0:0:
456,179,104958,6,0,P|448:226|440:286,2,103.799996832275,2|0|2,0:0|0:0|0:0,0:0:0:0:
468,170,105905,1,2,0:0:0:0:
335,214,106221,6,0,P|343:261|351:321,2,103.799996832275,2|0|2,0:0|0:0|0:0,0:0:0:0:
323,205,107168,1,2,0:0:0:0:
239,98,107484,5,2,1:2:0:0:
256,192,107563,12,2,110958,0:0:0:0:
453,252,111116,6,0,L|434:293,1,25.9499992080689,8|0,0:0|0:0,0:0:0:0:
453,252,111431,2,0,L|434:293,1,25.9499992080689,0|0,1:0|0:0,0:0:0:0:
321,366,111589,2,0,L|314:340,1,25.9499992080689,8|0,0:0|0:0,0:0:0:0:
216,199,111905,5,8,0:0:0:0:
274,259,112063,1,8,0:3:0:0:
356,242,112221,1,8,0:3:0:0:
357,214,112537,5,0,1:2:0:0:
201,286,112694,1,0,0:0:0:0:
56,363,112852,5,0,0:0:0:0:
106,295,113010,1,0,0:0:0:0:
61,227,113168,1,0,1:2:0:0:
72,146,113326,1,0,0:0:0:0:
104,8,113484,5,0,0:0:0:0:
211,100,113642,1,0,0:0:0:0:
43,72,113800,6,0,P|94:113|155:156,1,138.4,2|2,1:2|0:0,0:0:0:0:
165,236,114273,2,0,P|205:221|253:207,1,69.2,2|0,0:0|1:2,0:0:0:0:
408,80,114747,2,0,P|440:90|473:102,1,69.2,0|0,0:0|0:0,0:0:0:0:
267,17,115063,5,0,1:2:0:0:
328,68,115221,1,0,0:0:0:0:
444,173,115379,5,0,0:0:0:0:
318,235,115537,1,0,0:0:0:0:
151,236,115694,5,0,1:2:0:0:
245,294,115852,1,0,0:0:0:0:
259,384,116010,5,0,0:0:0:0:
333,336,116168,1,0,0:0:0:0:
438,256,116326,6,0,P|362:231|312:221,1,103.8,2|0,1:2|0:0,0:0:0:0:
338,225,116642,1,2,0:0:0:0:
309,139,116800,2,0,P|277:155|245:167,1,69.2,2|0,0:0|1:2,0:0:0:0:
1,247,117273,5,0,0:0:0:0:
169,320,117431,1,0,0:0:0:0:
111,384,117589,5,0,1:2:0:0:
68,310,117747,1,0,0:0:0:0:
77,168,117905,5,0,0:0:0:0:
10,132,118063,1,0,0:0:0:0:
102,90,118221,5,0,1:2:0:0:
234,30,118379,1,0,0:0:0:0:
66,23,118537,5,0,0:0:0:0:
55,14,118694,1,0,0:0:0:0:
213,113,118852,2,0,P|260:62|336:82,1,138.4,2|2,1:2|0:0,0:0:0:0:
459,47,119326,2,0,P|425:49|397:29,1,69.2,2|0,0:0|1:0,0:0:0:0:
438,139,119800,5,2,0:0:0:0:
425,138,119958,1,0,0:0:0:0:
367,196,120116,2,0,P|393:265|418:343,1,138.4,2|0,1:2|0:0,0:0:0:0:
306,322,120589,5,0,0:0:0:0:
309,312,120747,2,0,P|287:246|255:153,1,138.4,2|0,1:2|0:0,0:0:0:0:
110,262,121221,1,0,0:0:0:0:
37,326,121379,2,0,P|83:341|121:366,1,69.2,2|10,1:2|0:0,0:0:0:0:
101,351,121616,1,10,0:0:0:0:
101,351,121694,1,10,0:0:0:0:
352,141,122010,5,8,0:0:0:0:
274,199,122168,1,0,1:0:0:0:
317,294,122326,1,0,1:0:0:0:
268,185,122484,1,8,0:0:0:0:
241,365,122642,5,6,1:2:0:0:
447,250,122800,2,0,B|426:246|417:220|417:220|392:232|344:222,1,86.5
176,296,123116,5,0,0:0:0:0:
114,363,123273,1,8,0:2:0:0:
0,273,123431,1,0,0:0:0:0:
173,96,123589,5,0,0:0:0:0:
71,200,123747,1,8,0:2:0:0:
124,253,123905,6,0,P|108:174|80:75,1,173,2|2,1:2|0:0,0:0:0:0:
278,1,124379,2,0,P|264:42|253:83,1,86.5,0|8,0:0|0:2,0:0:0:0:
333,234,124852,2,0,P|359:178|434:192,1,129.75
420,178,125168,5,0,1:2:0:0:
354,49,125326,1,0,0:0:0:0:
477,48,125484,5,0,0:0:0:0:
492,43,125642,1,0,0:0:0:0:
355,129,125800,5,8,0:2:0:0:
314,202,125958,1,0,0:0:0:0:
223,314,126116,5,0,0:0:0:0:
462,292,126273,1,8,0:2:0:0:
453,384,126431,6,0,B|424:397|378:352|411:365|380:309|333:316,1,129.75,2|0,1:2|0:0,0:0:0:0:
351,316,126747,1,2,0:0:0:0:
271,368,126905,2,0,P|254:311|236:263,1,86.5,2|8,0:0|0:2,0:0:0:0:
56,322,127379,1,0,0:0:0:0:
47,331,127537,1,0,0:0:0:0:
29,222,127694,5,8,1:2:0:0:
166,258,127852,1,0,0:0:0:0:
98,164,128010,5,0,0:0:0:0:
31,103,128168,1,0,0:0:0:0:
149,87,128326,5,8,0:2:0:0:
306,12,128484,1,0,0:0:0:0:
205,4,128642,6,0,P|224:62|233:109,1,86.5,2|2,0:0|0:2,0:0:0:0:
421,93,128958,2,0,P|373:83|343:177,1,129.75,10|0,1:2|0:0,0:0:0:0:
328,141,129273,1,2,0:0:0:0:
294,261,129431,2,0,P|334:224|359:233,1,86.5,2|8,0:0|0:2,0:0:0:0:
451,329,129905,5,2,0:0:0:0:
458,320,130063,1,0,0:0:0:0:
512,231,130221,2,0,P|454:273|366:333,2,173,2|0|8,1:2|0:0|0:2,0:0:0:0:
397,167,131063,5,10,0:2:0:0:
332,141,131168,5,8,0:3:0:0:
269,169,131273,5,8,0:3:0:0:
261,238,131379,5,8,0:3:0:0:
200,270,131484,5,14,0:2:0:0:
183,281,132431,6,0,L|194:331,1,43.25,10|0,0:0|0:0,0:0:0:0:
143,248,132589,2,0,L|152:205,1,43.25,2|0,0:0|0:0,0:0:0:0:
31,317,132747,5,2,1:2:0:0:
59,340,132826,1,2,0:0:0:0:
95,337,132905,1,2,1:2:0:0:
220,126,133063,5,10,0:0:0:0:
61,178,133221,1,2,0:0:0:0:
173,384,133379,5,2,1:2:0:0:
203,364,133458,1,2,0:0:0:0:
212,329,133537,1,10,0:0:0:0:
195,296,133616,1,2,0:0:0:0:
204,261,133694,1,2,0:0:0:0:
405,358,133852,1,2,1:2:0:0:
301,262,134010,5,2,0:0:0:0:
307,277,134089,1,2,0:0:0:0:
313,292,134168,1,2,0:0:0:0:
448,198,134326,5,10,0:0:0:0:
458,171,134405,1,2,0:0:0:0:
468,145,134484,1,2,0:0:0:0:
152,81,134642,5,2,0:0:0:0:
295,163,134800,1,2,1:2:0:0:
423,58,134958,1,8,0:0:0:0:
423,58,135273,5,6,1:2:0:0:
299,15,135431,1,2,1:2:0:0:
84,182,135589,5,10,0:2:0:0:
201,17,135747,1,2,0:0:0:0:
223,38,135826,1,10,0:0:0:0:
232,67,135905,1,2,1:2:0:0:
244,327,136063,5,10,0:0:0:0:
190,212,136221,1,2,0:0:0:0:
29,318,136379,5,2,1:2:0:0:
94,63,136537,2,0,B|76:37|35:42|1:81|3:172|115:173,1,207.599993664551,2|8,0:2|0:0,0:0:0:0:
149,316,137010,1,2,0:2:0:0:
122,329,137089,1,8,0:0:0:0:
105,355,137168,1,0,0:0:0:0:
339,368,137326,1,2,1:2:0:0:
323,134,137484,5,10,0:2:0:0:
367,276,137642,1,2,0:0:0:0:
145,194,137800,5,6,1:2:0:0:
261,259,137958,1,2,1:2:0:0:
350,43,138116,5,10,0:2:0:0:
241,165,138273,1,2,0:2:0:0:
178,66,138431,1,2,1:2:0:0:
143,35,138510,1,2,0:0:0:0:
97,42,138589,1,10,0:0:0:0:
330,38,138747,1,2,0:2:0:0:
121,134,138905,1,2,1:2:0:0:
193,336,139063,5,2,0:2:0:0:
163,227,139221,1,2,0:2:0:0:
308,298,139379,5,10,0:2:0:0:
343,198,139537,1,2,1:2:0:0:
331,187,139616,1,8,0:0:0:0:
402,111,139773,1,2,0:2:0:0:
408,99,139852,1,0,1:0:0:0:
349,48,140010,2,0,L|402:257,1,207.599993664551,10|4,0:0|1:0,0:0:0:0:
501,222,140484,6,0,L|475:322,1,103.799996832275,2|8,1:2|0:0,0:0:0:0:
256,174,140800,1,2,0:2:0:0:
252,151,140879,1,10,0:0:0:0:
268,134,140958,1,2,1:2:0:0:
434,42,141116,5,10,0:2:0:0:
338,178,141273,1,2,0:2:0:0:
100,51,141431,6,0,B|121:69|125:95|125:95|133:68|181:44,1,103.799996832275,2|0,1:2|0:0,0:0:0:0:
133,191,141747,2,0,P|75:158|8:129,1,103.799996832275,2|8,0:2|0:0,0:0:0:0:
162,320,142063,1,2,0:2:0:0:
183,292,142142,1,8,0:0:0:0:
220,287,142221,1,2,1:2:0:0:
448,274,142379,5,8,0:0:0:0:
428,241,142458,1,8,0:0:0:0:
395,229,142537,1,8,0:0:0:0:
361,243,142616,1,8,0:0:0:0:
328,234,142694,1,8,0:0:0:0:
303,206,142773,1,8,0:0:0:0:
301,170,142852,1,6,1:2:0:0:
440,49,143010,1,2,0:0:0:0:
153,45,143168,5,10,0:2:0:0:
380,141,143326,1,2,0:2:0:0:
228,133,143484,1,2,1:2:0:0:
241,105,143563,1,2,0:0:0:0:
270,94,143642,1,10,0:0:0:0:
296,77,143721,1,2,0:0:0:0:
302,46,143800,1,2,0:0:0:0:
150,222,143958,1,6,1:2:0:0:
42,171,144116,5,2,0:0:0:0:
48,156,144194,2,0,L|34:105,1,51.8999984161377,2|2,0:0|1:2,0:0:0:0:
229,267,144352,5,0,0:0:0:0:
214,276,144430,2,0,L|195:345,1,51.8999984161377,10|0,0:0|0:0,0:0:0:0:
31,353,144589,1,2,1:2:0:0:
20,323,144668,1,10,0:2:0:0:
27,292,144747,1,2,0:0:0:0:
48,269,144826,1,2,0:0:0:0:
76,257,144905,1,2,1:2:0:0:
300,295,145063,2,0,P|250:234|211:167,1,155.699995248413,10|0,0:2|0:0,0:0:0:0:
135,40,145379,5,6,1:0:0:0:
205,17,145484,5,2,0:0:0:0:
263,71,145589,5,2,0:0:0:0:
335,50,145694,5,10,0:0:0:0:
508,71,145905,5,10,0:0:0:0:
439,115,146010,5,2,1:0:0:0:
437,216,146221,5,2,0:0:0:0:
361,216,146326,5,2,0:0:0:0:
332,286,146431,5,2,0:0:0:0:
257,302,146537,5,2,0:0:0:0:
176,262,146642,6,0,P|288:297|392:337,1,207.599993664551,6|8,1:0|0:0,0:0:0:0:
56,321,147116,5,2,0:0:0:0:
219,173,147273,1,2,0:0:0:0:
175,171,147352,1,0,0:0:0:0:
134,185,147431,1,2,1:2:0:0:
57,44,147589,5,10,0:2:0:0:
292,103,147747,2,0,P|322:159|360:205,1,103.799996832275,2|4,0:0|1:2,0:0:0:0:
511,63,148063,5,2,1:2:0:0:
447,221,148221,1,10,0:2:0:0:
410,65,148379,2,0,P|399:81|386:129,1,51.8999984161377,2|8,0:0|0:2,0:0:0:0:
248,316,148537,1,2,1:2:0:0:
270,287,148616,1,2,0:0:0:0:
305,279,148694,1,10,0:2:0:0:
397,335,148852,5,2,0:0:0:0:
164,167,149010,1,6,1:2:0:0:
49,273,149168,6,0,B|50:287|41:311|41:311|103:274|175:277,1,155.699995248413,2|0,0:0|0:0,0:0:0:0:
151,277,149484,1,10,0:2:0:0:
5,186,149642,1,2,0:0:0:0:
5,186,149721,1,8,0:2:0:0:
5,186,149800,1,0,0:0:0:0:
161,66,149958,1,0,1:2:0:0:
259,206,150116,6,0,P|210:189|153:160,1,103.799996832275,10|0,0:2|0:0,0:0:0:0:
326,125,150431,2,0,P|358:176|357:186,1,51.8999984161377,6|0,1:2|0:0,0:0:0:0:
416,115,150589,2,0,P|392:164|322:334,1,207.599993664551,0|10,1:2|0:2,0:0:0:0:
332,304,151221,5,0,1:2:0:0:
365,289,151300,1,0,1:2:0:0:
400,297,151379,1,8,0:2:0:0:
412,314,151694,6,0,P|294:285|185:264,1,207.599993664551,4|0,1:2|1:2,0:0:0:0:
183,99,152168,5,0,0:0:0:0:
32,263,152326,1,0,1:2:0:0:
67,282,152405,1,8,0:2:0:0:
107,276,152484,1,8,0:2:0:0:
136,248,152563,1,8,0:2:0:0:
158,212,152642,1,8,0:2:0:0:
193,191,152721,1,8,0:2:0:0:
235,193,152800,1,8,0:2:0:0:
267,217,152879,1,8,0:2:0:0:
285,253,152958,5,6,1:2:0:0:
383,94,153116,1,2,1:2:0:0:
249,32,153273,5,0,0:0:0:0:
321,162,153431,1,8,0:2:0:0:
155,117,153589,6,0,B|124:95|103:97|103:97|85:136|39:138,1,103.799996832275,0|0,0:0|1:2,0:0:0:0:
22,27,153905,5,8,0:2:0:0:
176,132,154063,1,0,1:2:0:0:
261,74,154221,2,0,P|303:63|389:38,1,103.799996832275,8|8,0:2|0:2,0:0:0:0:
458,214,154537,2,0,P|462:189|472:165,1,51.8999984161377,6|0,1:2|0:0,0:0:0:0:
397,144,154694,2,0,P|375:216|363:276,1,103.799996832275,2|8,0:0|0:2,0:0:0:0:
243,359,155010,5,6,1:2:0:0:
484,306,155168,1,0,0:0:0:0:
254,192,155326,5,8,0:2:0:0:
315,335,155484,2,0,P|288:321|188:278,1,103.799996832275,6|2,1:2|1:2,0:0:0:0:
80,236,155800,5,8,0:2:0:0:
104,216,155879,1,8,0:2:0:0:
111,185,155958,1,0,1:2:0:0:
96,157,156037,1,0,1:2:0:0:
75,133,156116,2,0,P|72:107|65:74,2,51.8999984161377,8|0|0,0:2|0:0|1:2,0:0:0:0:
274,220,156431,5,8,0:2:0:0:
152,39,156589,1,0,1:2:0:0:
258,9,156747,6,0,P|226:96|220:115,1,103.799996832275,8|8,0:2|0:2,0:0:0:0:
142,192,157063,2,0,P|151:214|170:232,1,51.8999984161377,6|0,1:2|0:0,0:0:0:0:
204,335,157221,2,0,P|138:264|78:299,1,155.699995248413,2|0,0:0|0:0,0:0:0:0:
94,279,157537,5,4,1:2:0:0:
287,384,157694,1,0,0:0:0:0:
443,226,157852,6,0,P|452:250|457:276,1,51.8999984161377,10|0,0:2|0:0,0:0:0:0:
427,353,158010,2,0,P|451:252|490:156,1,207.599993664551,6|0,1:2|0:0,0:0:0:0:
416,51,158484,1,0,1:2:0:0:
301,171,158642,5,8,0:2:0:0:
122,105,158800,1,0,0:0:0:0:
47,230,158958,5,10,0:2:0:0:
179,164,159116,2,0,B|187:188|209:197|209:197|185:267|236:321,1,155.699995248413,6|0,1:2|0:0,0:0:0:0:
220,301,159431,1,2,1:2:0:0:
40,384,159589,2,0,P|82:324|107:274,1,103.799996832275,10|0,0:2|0:0,0:0:0:0:
294,113,159905,5,0,1:2:0:0:
276,224,160063,1,0,1:2:0:0:
269,23,160221,5,10,0:2:0:0:
435,130,160379,1,8,0:2:0:0:
423,152,160458,1,8,0:2:0:0:
409,170,160537,2,0,P|428:218|443:290,1,103.799996832275,6|0,1:2|1:2,0:0:0:0:
353,39,160852,5,2,0:0:0:0:
196,124,161010,2,0,P|148:105|76:90,1,103.799996832275,2|8,1:2|0:2,0:0:0:0:
264,33,161326,6,0,P|276:91|276:98,1,51.8999984161377,2|0,0:0|0:0,0:0:0:0:
385,331,161484,2,0,P|361:271|362:251,1,51.8999984161377,10|0,0:2|0:0,0:0:0:0:
135,209,161642,2,0,P|209:230|276:269,1,155.699995248413,4|0,1:2|0:0,0:0:0:0:
276,269,161958,1,0,1:2:0:0:
120,349,162116,1,8,0:2:0:0:
132,358,162431,5,0,1:2:0:0:
13,157,162589,1,0,1:2:0:0:
318,177,162747,5,8,0:2:0:0:
345,161,162826,1,8,0:2:0:0:
352,130,162905,1,8,0:2:0:0:
348,98,162984,1,8,0:2:0:0:
368,74,163063,1,4,1:2:0:0:
429,208,163221,1,0,1:2:0:0:
205,22,163379,5,10,0:2:0:0:
146,187,163537,1,10,0:2:0:0:
105,192,163616,1,8,0:2:0:0:
74,218,163694,1,2,1:2:0:0:
258,110,163852,1,0,1:2:0:0:
410,309,164010,5,10,0:2:0:0:
245,224,164168,1,2,0:0:0:0:
125,353,164326,6,0,P|162:309|209:322,1,103.799996832275,2|0,1:2|1:2,0:0:0:0:
140,271,164642,1,10,0:2:0:0:
340,262,164800,1,10,0:2:0:0:
327,284,164879,1,8,0:2:0:0:
323,309,164958,1,0,1:2:0:0:
456,162,165116,6,0,P|471:226|480:248,1,60.5499981521607,14|0,0:2|0:0,0:0:0:0:
262,107,165274,2,0,P|266:77|278:46,1,60.5499981521607,2|0,0:0|0:0,0:0:0:0:
434,0,165432,1,10,0:2:0:0:
460,33,165511,1,8,0:2:0:0:
447,71,165590,2,0,P|364:125|321:183,1,121.099996304321,4|0,1:2|1:2,0:0:0:0:
251,248,165905,1,10,0:2:0:0:
92,93,166063,5,10,0:0:0:0:
66,126,166142,1,8,0:0:0:0:
79,164,166221,2,0,P|144:206|178:252,1,103.799996832275,2|0,1:2|1:0,0:0:0:0:
190,132,166537,5,2,0:0:0:0:
0,302,166695,1,10,0:0:0:0:
65,376,166853,2,0,P|100:332|84:283,1,103.799996832275,2|0,0:0|1:0,0:0:0:0:
54,20,167169,5,10,0:0:0:0:
182,152,167326,1,2,1:2:0:0:
388,69,167484,5,10,0:0:0:0:
387,111,167589,5,8,0:0:0:0:
363,145,167694,5,8,0:0:0:0:
327,152,167800,5,10,0:0:0:0:
300,159,167905,5,8,0:0:0:0:
280,186,168010,5,8,0:0:0:0:
269,222,168116,6,0,B|290:235|302:261|302:261|313:245|370:223,1,103.8,12|0,1:2|0:0,0:0:0:0:
349,222,168431,2,0,B|328:235|316:261|316:261|305:245|272:233,1,103.8,12|0,1:2|0:0,0:0:0:0:
441,279,168747,2,0,L|407:285,1,34.6,10|0,0:1|0:0,0:0:0:0:
430,274,168905,2,0,L|396:280,1,34.6,10|0,0:1|0:0,0:0:0:0:
338,357,169063,2,0,L|304:363,1,34.6,10|0,0:1|0:0,0:0:0:0:
327,352,169221,2,0,L|293:358,1,34.6,10|0,0:1|0:0,0:0:0:0:
93,188,169379,6,0,B|127:191|142:203|142:203|146:175|163:157,1,103.8,12|0,1:2|0:0,0:0:0:0:
162,169,169694,2,0,B|133:188|127:207|127:207|109:185|85:177,1,103.8,14|0,1:2|0:0,0:0:0:0:
108,340,170011,2,0,L|115:307,1,34.6,10|0,0:1|0:0,0:0:0:0:
103,329,170169,2,0,L|110:296,1,34.6,10|0,0:1|0:0,0:0:0:0:
202,290,170327,2,0,L|209:257,1,34.6,10|0,0:1|0:0,0:0:0:0:
197,279,170485,2,0,L|204:246,1,34.6,10|0,0:1|0:0,0:0:0:0:
250,31,170642,5,14,1:2:0:0:
67,155,170800,1,0,1:0:0:0:
54,17,170958,5,8,0:0:0:0:
154,67,171116,1,0,1:0:0:0:
420,38,171274,5,8,0:0:0:0:
281,110,171432,1,0,1:0:0:0:
427,242,171590,5,8,0:0:0:0:
248,181,171747,1,8,0:0:0:0:
307,30,171905,2,0,P|333:126|339:163,1,129.75,6|0,1:2|0:0,0:0:0:0:
332,164,172221,2,0,P|319:100|301:38,1,129.75,6|0,1:2|0:0,0:0:0:0:
195,24,172537,5,8,0:0:0:0:
127,81,172642,5,8,0:0:0:0:
40,80,172747,5,8,0:0:0:0:
106,70,172852,5,8,0:0:0:0:
142,98,172958,5,8,0:0:0:0:
146,121,173063,5,8,0:0:0:0:
198,179,173168,5,14,1:1:0:0:
25,277,173326,1,2,1:2:0:0:
60,188,173484,5,2,0:0:0:0:
132,236,173642,1,10,0:0:0:0:
137,383,173800,5,2,0:0:0:0:
278,320,173958,1,2,1:2:0:0:
334,204,174116,5,10,0:2:0:0:
450,355,174273,1,10,0:2:0:0:
450,355,174352,1,10,0:2:0:0:
450,355,174431,2,0,P|464:294|485:231,1,121.099996304321,2|2,1:2|1:2,0:0:0:0:
311,122,174747,5,10,0:2:0:0:
424,284,174905,1,2,0:0:0:0:
491,143,175063,5,2,1:2:0:0:
413,190,175221,1,2,0:0:0:0:
190,61,175379,2,0,P|153:78|148:122,1,60.5499981521607,8|0,0:2|0:0,0:0:0:0:
41,168,175537,1,10,0:2:0:0:
41,168,175616,1,10,0:2:0:0:
41,168,175695,2,0,P|98:167|117:236,1,121.099996304321,14|2,1:1|0:0,0:0:0:0:
142,383,176010,5,10,0:2:0:0:
52,256,176168,1,2,0:0:0:0:
241,204,176326,5,2,1:2:0:0:
197,274,176484,1,2,1:2:0:0:
429,379,176642,5,2,0:0:0:0:
281,308,176800,1,10,0:2:0:0:
389,269,176958,5,2,1:2:0:0:
512,176,177116,1,2,1:2:0:0:
254,61,177273,5,10,0:0:0:0:
289,141,177431,1,2,0:0:0:0:
482,9,177589,5,2,1:2:0:0:
415,78,177747,2,0,B|421:99|446:115|446:115|474:87|518:89,1,121.099996304321,2|8,1:2|0:0,0:0:0:0:
380,173,178063,1,8,0:0:0:0:
330,359,178221,6,0,P|351:337|354:307,1,60.5499981521607,14|0,1:0|0:0,0:0:0:0:
274,306,178379,2,0,P|272:276|252:254,1,60.5499981521607,0|0,1:0|0:0,0:0:0:0:
30,343,178537,2,0,B|59:349|89:372|89:372|123:345|232:303,1,181.649994456482,10|0,0:0|0:0,0:0:0:0:
191,320,178852,5,2,1:2:0:0:
247,107,179011,1,0,1:0:0:0:
115,59,179168,6,0,P|155:118|189:183,1,121.099996304321,10|0,0:0|0:0,0:0:0:0:
364,224,179484,5,2,1:2:0:0:
414,115,179642,1,0,1:2:0:0:
285,370,179800,5,10,0:2:0:0:
115,250,179958,1,2,0:0:0:0:
93,241,180037,1,10,0:0:0:0:
70,235,180116,1,0,1:2:0:0:
291,35,180273,1,8,0:0:0:0:
311,64,180351,1,8,0:2:0:0:
306,94,180431,1,10,0:0:0:0:
298,123,180510,1,10,0:0:0:0:
272,139,180589,1,10,0:2:0:0:
257,165,180668,1,10,0:2:0:0:
267,193,180746,1,10,1:1:0:0:
395,42,180905,1,0,1:0:0:0:
400,278,181063,6,0,P|430:326|486:317,1,121.099996304321,10|0,0:0|0:0,0:0:0:0:
164,97,181379,1,2,1:2:0:0:
308,295,181537,1,8,0:0:0:0:
248,368,181695,1,2,0:0:0:0:
371,177,181853,2,0,B|330:210|263:199|263:199|256:234|256:234|202:240|166:288,1,242.199992608643,6|0,1:2|1:0,0:0:0:0:
0,125,182326,5,8,0:0:0:0:
151,190,182484,1,0,1:0:0:0:
378,21,182642,5,8,0:0:0:0:
221,95,182800,1,0,1:0:0:0:
43,47,182958,5,8,1:2:0:0:
70,58,183037,1,8,1:2:0:0:
89,80,183116,1,10,1:2:0:0:
97,109,183195,1,8,1:2:0:0:
88,138,183274,1,14,1:0:0:0:
0,291,183432,1,2,1:2:0:0:
272,365,183590,5,2,0:0:0:0:
111,216,183747,1,10,0:0:0:0:
169,280,183905,5,2,0:0:0:0:
238,238,184063,1,2,1:2:0:0:
416,109,184221,5,10,0:2:0:0:
484,272,184379,1,10,0:2:0:0:
484,272,184458,1,10,0:2:0:0:
484,272,184537,2,0,P|446:225|382:256,1,121.099996304321,2|2,1:2|1:2,0:0:0:0:
387,346,184853,5,10,0:2:0:0:
285,148,185011,1,2,0:0:0:0:
296,302,185169,5,2,1:2:0:0:
241,363,185326,1,2,0:0:0:0:
101,169,185484,2,0,P|129:158|158:149,1,60.5499981521607,8|0,0:2|0:0,0:0:0:0:
145,41,185642,1,10,0:2:0:0:
145,41,185721,1,10,0:2:0:0:
145,41,185800,2,0,P|93:71|35:88,1,121.099996304321,14|2,1:1|0:0,0:0:0:0:
298,46,186116,5,10,0:2:0:0:
217,206,186274,1,2,0:0:0:0:
433,188,186432,5,2,1:2:0:0:
353,135,186590,1,2,1:2:0:0:
68,327,186747,5,2,0:0:0:0:
232,290,186905,1,10,0:2:0:0:
368,245,187063,5,2,1:2:0:0:
315,366,187221,1,2,1:2:0:0:
58,128,187379,5,10,0:0:0:0:
121,259,187537,1,2,0:0:0:0:
116,2,187695,5,2,1:2:0:0:
228,100,187852,2,0,P|174:117|146:69,1,121.099996304321,2|8,1:2|0:0,0:0:0:0:
182,152,188168,1,8,0:0:0:0:
434,110,188326,6,0,P|406:116|386:138,1,60.5499981521607,14|0,1:0|0:0,0:0:0:0:
304,118,188484,2,0,P|300:149|314:175,1,60.5499981521607,0|0,1:0|0:0,0:0:0:0:
485,199,188642,2,0,P|375:233|315:271,1,181.649994456482,10|0,0:0|0:0,0:0:0:0:
49,61,188958,5,2,1:2:0:0:
156,158,189116,1,0,1:0:0:0:
116,248,189274,2,0,B|89:216|40:214|40:214|72:205|82:188,1,121.099996304321,2|8,0:0|0:0,0:0:0:0:
216,236,189589,5,2,1:2:0:0:
253,316,189747,1,0,1:2:0:0:
132,383,189905,5,10,0:2:0:0:
352,276,190063,1,2,0:0:0:0:
374,285,190142,1,10,0:0:0:0:
397,291,190221,1,2,1:2:0:0:
238,108,190379,1,10,0:0:0:0:
448,0,190537,5,2,1:2:0:0:
342,98,190695,1,0,1:0:0:0:
494,96,190853,6,0,B|446:87|405:144|443:132|398:203|326:179,1,181.649994456482,14|0,1:0|0:0,0:0:0:0:
356,194,191168,1,12,0:2:0:0:
365,203,191484,1,4,1:2:0:0:
373,211,191800,2,0,P|354:288|345:346,1,121.099996304321,2|8,1:2|0:0,0:0:0:0:
449,356,192116,5,2,1:2:0:0:
274,240,192273,1,0,1:0:0:0:
0,306,192431,6,0,P|38:258|94:268,1,121.099996304321,10|0,0:2|0:0,0:0:0:0:
118,384,192747,5,10,0:2:0:0:
246,318,192905,1,0,1:0:0:0:
213,133,193063,5,2,1:2:0:0:
155,199,193221,1,0,1:2:0:0:
1,127,193379,6,0,B|22:72|74:62|74:62|91:119|149:132,1,181.649994456482,6|0,1:0|0:0,0:0:0:0:
211,103,193694,2,0,P|271:134|344:156,1,121.099996304321,0|0,1:0|0:0,0:0:0:0:
440,217,194011,6,0,P|415:247|390:250,1,60.5499981521607,10|0,0:1|0:0,0:0:0:0:
427,212,194168,2,0,P|402:242|377:245,1,60.5499981521607,10|0,0:1|0:0,0:0:0:0:
414,208,194326,2,0,P|389:238|364:241,1,60.5499981521607,10|0,0:1|0:0,0:0:0:0:
401,203,194484,2,0,P|376:233|351:236,1,60.5499981521607,10|0,0:1|0:0,0:0:0:0:
39,253,194642,6,0,P|94:237|131:281,1,121.099996304321,2|8,1:2|0:0,0:0:0:0:
249,360,194958,2,0,P|223:295|203:229,1,121.099996304321,0|0,1:0|0:0,0:0:0:0:
186,58,195273,6,0,P|214:66|230:92,1,60.5499981521607,10|0,0:1|0:0,0:0:0:0:
198,52,195431,2,0,P|226:60|242:86,1,60.5499981521607,10|0,0:1|0:0,0:0:0:0:
212,48,195589,2,0,P|240:56|256:82,1,60.5499981521607,10|0,0:1|0:0,0:0:0:0:
225,43,195746,2,0,P|253:51|269:77,1,60.5499981521607,10|0,0:1|0:0,0:0:0:0:
168,147,195905,6,0,P|88:104|3:75,1,181.649994456482,6|0,1:2|0:0,0:0:0:0:
0,82,196221,2,0,P|85:111|165:155,1,181.649994456482,2|0,1:2|0:0,0:0:0:0:
204,232,196537,1,10,0:2:0:0:
476,316,196695,5,2,1:2:0:0:
315,205,196853,1,2,0:0:0:0:
455,79,197011,6,0,P|484:144|490:176,1,60.5499981521607,8|0,0:0|0:0,0:0:0:0:
382,305,197169,2,0,P|394:245|413:188,1,121.099996304321,0|8,1:0|0:0,0:0:0:0:
265,348,197484,1,8,0:0:0:0:
101,278,197642,1,0,1:0:0:0:
272,129,197800,5,8,0:0:0:0:
208,281,197958,1,0,1:0:0:0:
173,358,198116,1,2,1:2:0:0:
291,265,198274,1,0,1:0:0:0:
265,348,198432,6,0,P|226:231|179:120,1,242.199992608643,6|2,1:2|1:2,0:0:0:0:
139,21,198905,1,2,0:0:0:0:
42,113,199063,2,0,B|56:103|65:74|65:74|65:121|89:143,1,121.099996304321,8|0,0:2|0:0,0:0:0:0:
363,56,199379,1,2,0:0:0:0:
283,91,199537,1,8,0:2:0:0:
407,251,199695,2,0,P|423:186|441:127,1,121.099996304321,2|8,1:2|0:2,0:0:0:0:
290,221,200011,5,2,0:0:0:0:
152,362,200169,1,2,1:2:0:0:
136,209,200326,5,8,0:2:0:0:
213,244,200484,1,0,1:2:0:0:
243,323,200642,1,0,1:2:0:0:
307,378,200800,1,0,1:2:0:0:
219,227,200958,6,0,P|250:170|346:85,1,181.649994456482,4|0,1:2|0:0,0:0:0:0:
447,109,201273,2,0,B|407:138|336:84|381:93|349:30|297:44,1,181.649994456482,0|0,1:2|0:0,0:0:0:0:
283,12,201589,2,0,P|307:98|331:227,1,181.649994456482,8|0,0:2|0:0,0:0:0:0:
426,273,201905,2,0,P|365:260|318:257,1,60.5499981521607,8|0,0:2|0:0,0:0:0:0:
22,378,202063,2,0,P|111:341|253:311,1,242.199992608643,6|8,1:2|0:2,0:0:0:0:
374,363,202537,5,2,1:2:0:0:
364,354,202852,5,8,0:2:0:0:
429,300,203010,1,10,0:2:0:0:
429,215,203168,1,10,0:2:0:0:
387,141,203326,1,8,0:2:0:0:
461,55,203484,5,4,1:2:0:0:
260,276,204116,6,0,P|221:240|157:256,1,103.799996832275,2|0,0:0|0:0,0:0:0:0:
2,330,204747,2,0,B|41:274|114:314|84:322|145:357|204:315,1,207.599993664551,2|2,0:0|0:0,0:0:0:0:
193,322,206010,1,2,0:0:0:0:
193,322,206537,1,2,0:0:0:0:
154,248,206642,2,0,P|171:197|203:148,1,103.799996832275,2|0,0:0|0:0,0:0:0:0:
174,47,207168,1,0,0:0:0:0:
178,53,207273,1,2,0:0:0:0:
288,80,207905,1,2,0:0:0:0:
265,71,208537,2,0,B|291:37|368:76|330:83|353:134|412:122,1,172.999994720459,2|0,0:0|0:0,0:0:0:0:
425,100,209168,1,2,0:0:0:0:
495,138,209326,2,0,P|488:163|478:197,1,51.8999984161377,0|2,0:0|0:0,0:0:0:0:
494,263,209694,1,0,0:0:0:0:
489,270,209800,1,2,0:0:0:0:
389,381,210431,1,2,0:0:0:0:
351,281,211063,2,0,P|308:314|272:332,1,69.1999978881837,2|0,0:0|0:0,0:0:0:0:
295,321,211379,1,2,0:0:0:0:
52,336,211694,2,0,P|95:369|131:387,1,69.1999978881837,2|0,0:0|0:0,0:0:0:0:
107,376,212010,1,2,0:0:0:0:
82,264,212221,1,2,0:0:0:0:
77,256,212326,1,2,0:0:0:0:
163,182,212642,2,0,P|182:150|158:96,1,69.1999978881837,2|0,0:0|0:0,0:0:0:0:
88,138,212958,2,0,P|69:90|48:43,2,103.799996832275,2|2|2,0:0|0:0|0:0,0:0:0:0:
269,190,214537,1,2,0:0:0:0:
213,272,214747,1,2,0:0:0:0:
209,277,214852,1,2,0:0:0:0:
209,277,215484,2,0,P|293:285|413:317,1,207.599993664551,2|2,0:0|0:0,0:0:0:0:
487,267,216326,1,2,0:0:0:0:
483,273,216431,1,2,0:0:0:0:
448,72,216747,1,2,0:0:0:0:
369,76,216905,1,2,0:0:0:0:
318,157,217142,1,2,0:0:0:0:
345,227,217379,1,2,0:0:0:0:
362,243,218010,1,2,0:0:0:0:
384,241,218642,5,2,0:0:0:0:
104,353,219340,5,2,0:0:0:0:
164,301,219515,1,2,0:0:0:0:
159,223,219689,1,2,0:0:0:0:
173,372,220038,6,0,P|137:284|105:174,1,207.599993664551,2|2,0:0|0:0,0:0:0:0:
105,176,221433,1,2,0:0:0:0:
256,192,221520,12,0,225270,0:0:0:0:
260,352,225619,6,0,P|256:336|252:315,1,34.6,2|0,0:0|0:0,0:0:0:0:
78,281,226468,5,2,0:0:0:0:
107,353,226626,1,0,0:0:0:0:
6,310,226784,1,0,0:0:0:0:
35,382,226942,1,0,0:0:0:0:
124,236,227099,5,2,0:0:0:0:
95,308,227257,1,0,0:0:0:0:
196,265,227415,1,0,0:0:0:0:
167,337,227573,1,0,0:0:0:0:
18,230,227731,5,2,0:0:0:0:
85,212,227889,1,0,0:0:0:0:
124,268,228046,1,2,0:0:0:0:
182,305,228204,1,0,0:0:0:0:
244,276,228362,5,2,0:0:0:0:
354,137,228520,1,0,0:0:0:0:
500,269,228836,5,0,0:0:0:0:
484,280,228994,2,0,P|456:264|411:276,1,69.2,2|0,0:0|0:0,0:0:0:0:
319,340,229310,1,0,0:0:0:0:
309,352,229625,5,2,0:0:0:0:
272,283,229783,1,0,0:0:0:0:
307,213,229941,1,0,0:0:0:0:
320,206,230257,5,2,0:0:0:0:
340,130,230415,1,0,0:0:0:0:
286,73,230573,1,2,0:0:0:0:
169,109,230731,5,0,0:0:0:0:
101,71,230889,1,2,0:0:0:0:
240,138,231046,2,0,P|307:246|357:343,1,207.6,0|0,0:0|0:0,0:0:0:0:
345,318,231836,5,2,0:0:0:0:
345,318,232152,5,2,0:0:0:0:
345,318,232468,5,2,0:0:0:0:
345,318,232783,5,2,0:0:0:0:
345,318,233099,5,2,0:0:0:0:
243,281,233257,1,2,0:0:0:0:
235,295,233573,5,2,0:0:0:0:
175,355,233731,2,0,P|170:339|163:319,2,34.6,2|0|0,0:0|0:0|0:0,0:0:0:0:
121,182,234362,6,0,P|142:156|178:122,1,69.2,2|0,0:0|0:0,0:0:0:0:
173,150,234994,2,0,B|136:174|100:131|127:146|98:99|46:103,1,138.4,2|2,0:0|0:0,0:0:0:0:
54,102,236099,6,0,P|64:125|71:146,1,34.6
25,242,236415,1,0,0:0:0:0:
25,242,236494,1,0,0:0:0:0:
25,242,236573,1,2,0:0:0:0:
82,303,236731,1,0,0:0:0:0:
173,371,236889,5,0,0:0:0:0:
194,288,237046,1,0,0:0:0:0:
265,207,237204,5,2,0:0:0:0:
302,282,237362,1,0,0:0:0:0:
363,226,237520,5,0,0:0:0:0:
383,153,237678,1,0,0:0:0:0:
460,193,237836,5,2,0:0:0:0:
456,203,237994,1,0,0:0:0:0:
419,284,238152,5,2,0:0:0:0:
423,294,238310,1,0,0:0:0:0:
375,359,238468,5,2,0:0:0:0:
511,284,238625,1,0,0:0:0:0:
511,284,238941,5,0,0:0:0:0:
508,288,239020,1,0,0:0:0:0:
505,292,239099,1,2,0:0:0:0:
386,376,239257,1,0,0:0:0:0:
352,262,239415,5,0,0:0:0:0:
283,219,239573,1,0,0:0:0:0:
268,325,239731,5,2,0:0:0:0:
278,318,239889,1,0,0:0:0:0:
78,281,240046,5,0,0:0:0:0:
107,353,240204,1,0,0:0:0:0:
35,382,240362,1,2,0:0:0:0:
6,310,240520,1,0,0:0:0:0:
124,236,240678,5,2,0:0:0:0:
95,308,240835,1,0,0:0:0:0:
167,339,240993,1,2,0:0:0:0:
196,265,241152,1,0,0:0:0:0:
168,349,241625,6,0,L|153:288,1,51.8999984161377,0|0,0:0|0:0,0:0:0:0:
17,117,241941,5,2,0:0:0:0:
186,189,242257,1,2,1:2:0:0:
274,11,242573,2,0,P|284:49|290:81,1,51.8999984161377,2|0,0:0|0:0,0:0:0:0:
287,62,242889,1,2,0:0:0:0:
509,107,243204,1,2,0:0:0:0:
511,115,243362,2,0,P|497:149|486:184,1,69.2,2|0,0:0|1:2,0:0:0:0:
362,145,243678,5,2,0:0:0:0:
358,154,243836,2,0,P|370:205|381:266,1,103.8,2|0,0:0|0:0,0:0:0:0:
205,305,244152,6,0,P|238:313|260:340,1,69.2,10|0,0:1|0:0,0:0:0:0:
155,244,244310,2,0,P|183:225|217:227,1,69.2,10|0,0:1|0:0,0:0:0:0:
137,376,244468,6,0,P|118:273|70:80,1,276.8,14|8,0:2|0:0,0:0:0:0:
69,102,244941,2,0,P|102:236|128:372,1,276.8,4|8,1:2|1:2,0:0:0:0:
302,266,245415,5,4,1:2:0:0:
203,70,245573,1,8,0:2:0:0:
237,74,245652,1,8,0:2:0:0:
265,92,245731,1,8,0:2:0:0:
392,23,245889,1,0,1:2:0:0:
210,169,246046,1,8,0:2:0:0:
166,47,246204,1,8,0:0:0:0:
198,35,246283,1,8,0:0:0:0:
231,41,246362,1,8,1:0:0:0:
260,58,246441,1,0,1:0:0:0:
276,88,246520,1,0,1:0:0:0:
304,106,246599,1,0,1:0:0:0:
338,106,246678,5,6,1:2:0:0:
474,13,246836,1,2,1:2:0:0:
366,189,246994,5,10,0:0:0:0:
496,352,247152,1,2,1:2:0:0:
378,313,247310,5,10,0:0:0:0:
435,228,247468,1,2,1:2:0:0:
376,36,247625,5,2,1:2:0:0:
197,146,247783,1,10,0:0:0:0:
0,70,247941,5,2,0:0:0:0:
79,127,248099,1,2,1:2:0:0:
237,28,248257,5,10,0:0:0:0:
170,233,248415,1,2,1:2:0:0:
512,147,248573,5,10,0:0:0:0:
350,87,248731,1,2,1:2:0:0:
335,214,248889,6,0,P|312:165|300:125,1,69.2,8|0,0:0|0:0,0:0:0:0:
126,13,249046,1,2,1:2:0:0:
114,46,249125,1,2,1:2:0:0:
135,79,249204,2,0,P|163:161|182:247,1,138.4,6|2,1:1|0:0,0:0:0:0:
40,244,249520,5,10,0:0:0:0:
174,360,249678,1,2,1:2:0:0:
442,172,249836,5,10,0:0:0:0:
269,260,249994,1,2,1:2:0:0:
372,373,250152,5,2,1:2:0:0:
419,276,250310,1,10,0:0:0:0:
125,139,250468,5,2,1:2:0:0:
169,258,250625,1,2,1:2:0:0:
392,14,250783,5,10,0:0:0:0:
289,132,250941,1,2,0:0:0:0:
359,196,251099,5,2,1:2:0:0:
161,66,251257,2,0,B|186:74|201:103|201:103|219:59|263:46,1,138.4,2|8,1:2|0:0,0:0:0:0:
54,17,251573,1,8,0:0:0:0:
38,213,251731,6,0,P|62:190|96:186,1,69.2,6|0,1:1|0:0,0:0:0:0:
157,287,251889,2,0,P|131:265|97:264,1,69.2,0|0,1:0|0:0,0:0:0:0:
51,342,252047,2,0,P|151:317|254:300,1,207.6,10|0,0:0|0:0,0:0:0:0:
253,300,252363,5,2,1:2:0:0:
379,99,252521,1,0,1:2:0:0:
496,167,252679,2,0,B|484:199|444:217|444:217|418:177|377:172,1,138.4,10|0,0:0|0:0,0:0:0:0:
172,0,252994,5,2,1:2:0:0:
245,112,253152,1,0,1:2:0:0:
299,52,253310,5,10,0:0:0:0:
97,160,253468,1,2,0:0:0:0:
106,138,253547,1,8,0:0:0:0:
112,115,253626,1,0,1:2:0:0:
35,27,253783,5,10,0:0:0:0:
53,58,253862,1,8,0:0:0:0:
81,75,253942,1,2,0:0:0:0:
97,105,254021,1,0,1:0:0:0:
106,138,254100,1,0,1:0:0:0:
111,172,254179,1,0,1:0:0:0:
136,195,254257,1,6,1:0:0:0:
325,287,254415,1,0,1:2:0:0:
122,291,254573,6,0,P|175:299|277:336,1,138.4,0|8,1:0|0:0,0:0:0:0:
447,370,254889,1,0,1:0:0:0:
216,171,255047,1,8,0:0:0:0:
244,151,255125,1,8,0:0:0:0:
279,155,255205,1,8,0:0:0:0:
511,178,255362,6,0,B|436:119|350:225|419:194|334:304|244:216,1,276.8,4|0,1:0|1:0,0:0:0:0:
79,23,255836,5,8,0:0:0:0:
107,115,255994,1,0,1:0:0:0:
257,25,256152,5,8,0:0:0:0:
206,181,256310,1,0,1:0:0:0:
454,242,256468,5,8,0:0:0:0:
406,234,256546,1,8,0:0:0:0:
372,199,256625,1,8,0:0:0:0:
374,150,256704,1,8,0:0:0:0:
340,115,256783,1,6,1:0:0:0:
497,315,256941,1,2,1:2:0:0:
510,46,257099,5,10,0:0:0:0:
471,155,257257,1,2,1:2:0:0:
108,259,257415,5,10,0:0:0:0:
287,188,257573,1,2,1:2:0:0:
282,361,257731,5,2,1:2:0:0:
240,293,257889,1,10,0:0:0:0:
0,108,258046,5,2,0:0:0:0:
154,156,258204,1,2,1:2:0:0:
296,28,258362,5,10,0:0:0:0:
99,103,258520,1,2,1:2:0:0:
209,22,258678,5,10,0:0:0:0:
89,245,258836,1,2,1:2:0:0:
245,328,258994,6,0,P|206:339|167:353,1,69.2,8|0,0:0|0:0,0:0:0:0:
27,308,259152,1,2,1:2:0:0:
27,308,259231,1,2,1:2:0:0:
27,308,259310,2,0,P|97:285|170:269,1,138.4,6|2,1:1|0:0,0:0:0:0:
342,363,259625,5,10,0:0:0:0:
440,269,259783,1,2,1:2:0:0:
229,190,259941,5,10,0:0:0:0:
150,12,260099,1,2,1:2:0:0:
365,126,260257,5,2,1:2:0:0:
431,69,260415,1,10,0:0:0:0:
192,77,260573,5,2,1:2:0:0:
455,170,260731,1,2,1:2:0:0:
46,178,260889,5,10,0:0:0:0:
285,102,261046,1,2,0:0:0:0:
336,33,261204,5,2,1:2:0:0:
202,238,261362,2,0,B|225:259|246:257|246:257|192:285|180:354,1,138.4,2|8,1:2|0:0,0:0:0:0:
194,220,261678,1,8,0:0:0:0:
482,315,261836,6,0,P|491:283|478:251,1,69.2,6|0,1:1|0:0,0:0:0:0:
360,244,261994,2,0,P|391:256|408:286,1,69.2,0|0,1:0|0:0,0:0:0:0:
359,382,262152,2,0,P|331:282|300:182,1,207.6,10|0,0:0|0:0,0:0:0:0:
300,182,262468,1,2,1:2:0:0:
85,33,262625,5,0,1:2:0:0:
52,117,262783,2,0,B|98:96|130:129|130:129|171:101|174:61,1,138.4,10|8,0:0|0:0,0:0:0:0:
438,74,263098,5,2,1:2:0:0:
219,246,263256,1,0,1:0:0:0:
247,1,263415,5,10,0:2:0:0:
390,145,263573,1,0,0:0:0:0:
364,103,263652,1,8,0:0:0:0:
353,55,263731,1,10,0:0:0:0:
492,239,263889,1,10,0:0:0:0:
345,274,264046,5,2,1:2:0:0:
496,343,264204,1,0,1:0:0:0:
223,136,264362,5,6,1:0:0:0:
34,359,264520,1,8,0:0:0:0:
76,335,264599,1,8,0:0:0:0:
124,324,264678,1,8,0:0:0:0:
40,115,264836,5,6,1:0:0:0:
318,281,264994,1,8,0:0:0:0:
276,257,265073,1,8,0:0:0:0:
228,246,265152,1,8,0:0:0:0:
98,19,265310,6,0,P|125:116|163:194,1,138.4,6|0,1:0|1:0,0:0:0:0:
112,248,265625,1,2,0:0:0:0:
25,227,265783,1,0,1:2:0:0:
241,334,265941,2,0,P|340:294|405:276,1,138.4,8|0,0:2|0:0,0:0:0:0:
508,183,266257,5,10,0:2:0:0:
427,355,266415,1,0,1:2:0:0:
317,132,266573,5,2,1:2:0:0:
416,214,266731,1,0,1:2:0:0:
390,202,266810,1,0,1:2:0:0:
362,200,266889,1,6,1:2:0:0:
465,48,267046,1,0,1:2:0:0:
181,55,267204,2,0,P|221:166|228:206,1,138.4,8|0,0:2|0:0,0:0:0:0:
26,188,267520,5,0,1:2:0:0:
140,292,267678,1,0,1:2:0:0:
22,379,267836,2,0,B|34:344|66:324|66:324|82:370|137:370,1,138.4,10|0,0:2|0:0,0:0:0:0:
275,349,268152,5,2,1:2:0:0:
325,195,268310,1,0,1:2:0:0:
503,280,268468,6,0,P|419:289|340:319,1,138.4,10|0,0:2|0:0,0:0:0:0:
139,150,268783,1,2,1:2:0:0:
270,266,268941,1,0,1:2:0:0:
306,22,269099,5,10,0:2:0:0:
246,143,269257,1,0,1:2:0:0:
1,9,269415,6,0,P|113:42|222:81,1,207.6,14|0,0:2|0:0,0:0:0:0:
198,72,269731,1,2,1:2:0:0:
412,12,269889,1,10,0:2:0:0:
409,126,270046,5,2,1:2:0:0:
361,229,270204,1,2,1:2:0:0:
212,175,270362,5,10,1:2:0:0:
324,334,270520,1,0,1:2:0:0:
351,312,270599,1,0,1:2:0:0:
385,305,270678,1,4,1:2:0:0:
258,274,270836,1,8,0:2:0:0:
466,223,270994,5,8,0:2:0:0:
384,384,271152,1,0,1:2:0:0:
512,305,271310,5,8,0:2:0:0:
444,323,271415,5,8,0:2:0:0:
377,300,271520,5,8,0:2:0:0:
338,241,271625,5,10,0:2:0:0:
299,205,271731,5,8,0:2:0:0:
247,196,271836,5,8,0:2:0:0:
209,223,271941,5,6,1:2:0:0:
209,223,272257,1,6,1:2:0:0:
209,223,272573,1,6,1:2:0:0:
209,223,272889,1,6,1:2:0:0:
209,223,273204,1,14,0:2:0:0:
209,223,273520,1,14,0:2:0:0:
273,272,273836,5,6,1:2:0:0:
214,315,273941,5,8,0:2:0:0:
144,293,274046,5,8,0:2:0:0:
133,223,274152,5,8,0:2:0:0:
70,187,274257,5,8,0:2:0:0:
80,115,274362,5,8,0:2:0:0:
12,60,274468,6,0,P|90:202|131:295,1,242.199992608643,6|0,1:1|0:0,0:0:0:0:
77,241,276994,6,0,B|72:272|79:293|79:293|100:302|122:337,2,103.799996832275,2|0|2,0:0|0:0|0:0,0:0:0:0:
48,172,277941,1,2,0:0:0:0:
216,145,278257,6,0,P|193:200|170:246,2,103.799996832275,2|0|2,0:0|0:0|0:0,0:0:0:0:
294,132,279204,1,2,0:0:0:0:
411,298,279520,6,0,B|416:329|409:350|409:350|388:359|366:394,2,103.799996832275,2|0|2,0:0|0:0|0:0,0:0:0:0:
440,229,280467,1,2,0:0:0:0:
272,202,280783,6,0,P|294:257|317:303,2,103.799996832275,2|0|2,0:0|0:0|0:0,0:0:0:0:
315,121,281731,1,2,0:0:0:0:
237,33,282046,5,2,1:2:0:0:
256,192,282125,12,0,285678,0:0:0:0:
