osu file format v14

[General]
AudioFilename: audio.mp3
AudioLeadIn: 0
PreviewTime: 44349
Countdown: 0
SampleSet: Soft
StackLeniency: 0.6
Mode: 0
LetterboxInBreaks: 0
WidescreenStoryboard: 0

[Editor]
Bookmarks: 44463
DistanceSpacing: 0.4
BeatDivisor: 4
GridSize: 8
TimelineZoom: 1.8

[Metadata]
Title:Hare Tokidoki Egao
TitleUnicode:晴れときどき笑顔
Artist:Harada Hitomi, Mizuhashi Kaori, Katori Hidemi, Isomura Tomomi
ArtistUnicode:原田ひとみ 、水橋かおり 、加藤英美里 、磯村知美
Creator:MagicDragon
Version:Strawberry Kisses V3
Source:バカとテストと召喚獣
Tags:Baka to Test to Shoukanjuu ED end TV size
BeatmapID:1394834
BeatmapSetID:651835

[Difficulty]
HPDrainRate:5
CircleSize:3.5
OverallDifficulty:7
ApproachRate:8.5
SliderMultiplier:1.7
SliderTickRate:1

[Events]
//Background and Video events
0,0,"asdf.jpg",0,0
//Break Periods
//Storyboard Layer 0 (Background)
//Storyboard Layer 1 (Fail)
//Storyboard Layer 2 (Pass)
//Storyboard Layer 3 (Foreground)
//Storyboard Sound Samples

[TimingPoints]
-991,454.545454545455,4,2,1,60,1,0
825,-125,4,2,1,60,0,0
7190,-100,4,2,1,60,0,0
8099,-100,4,2,1,80,0,0
15372,-133.333333333333,4,2,1,80,0,0
29918,-133.333333333333,4,2,1,80,0,0
34236,-166.666666666667,4,2,1,80,0,0
34919,-133.333333333333,4,2,1,80,0,0
36054,-166.666666666667,4,2,1,80,0,0
37190,-133.333333333333,4,2,1,80,0,0
43781,-200,4,2,1,80,0,0
44463,-100,4,2,1,80,0,1
57190,-100,4,2,1,80,0,0
57872,-166.666666666667,4,2,1,80,0,0
58327,-100,4,2,1,80,0,0
59009,-100,4,2,1,80,0,1
71736,-100,4,2,1,80,0,0
72418,-133.333333333333,4,2,1,80,0,0
72872,-133.333333333333,4,2,1,80,0,0
77190,-100,4,2,1,80,0,0

[Colours]
Combo1 : 143,202,154
Combo2 : 236,185,194
Combo3 : 240,214,155
Combo4 : 132,130,144

[HitObjects]
97,158,372,5,0,0:0:0:0:
116,128,486,1,0,0:0:0:0:
145,111,599,1,0,0:0:0:0:
180,105,713,1,0,0:0:0:0:
212,115,827,6,0,P|263:120|314:114,1,102,0|0,0:0|0:0,0:0:0:0:
347,107,1281,1,0,0:0:0:0:
371,230,1509,2,0,P|320:224|269:230,1,102,0|0,0:0|0:0,0:0:0:0:
237,238,1963,1,0,0:0:0:0:
304,339,2190,2,0,P|433:344|500:233,1,272,0|0,0:0|0:0,0:0:0:0:
500,233,3554,5,0,0:0:0:0:
453,153,3781,1,0,0:0:0:0:
371,230,4009,1,0,0:0:0:0:
312,131,4236,1,0,0:0:0:0:
242,256,4463,6,0,P|191:264|140:262,1,102,0|0,0:0|0:0,0:0:0:0:
107,257,4918,1,0,0:0:0:0:
177,132,5145,2,0,P|228:124|279:126,1,102,0|0,0:0|0:0,0:0:0:0:
312,131,5600,1,0,0:0:0:0:
216,23,5827,2,0,P|92:55|73:182,1,272,0|0,0:0|0:0,0:0:0:0:
73,182,7190,5,0,0:0:0:0:
215,114,7418,2,0,L|177:132,1,42.5,4|8,0:3|0:3,0:0:0:0:
187,213,7645,2,0,P|192:171|176:131,1,85,4|0,0:3|0:0,0:0:0:0:
59,87,8099,5,0,0:0:0:0:
73,182,8327,1,0,0:0:0:0:
59,87,8554,1,0,0:0:0:0:
73,182,8781,1,0,0:0:0:0:
205,114,9008,5,0,0:0:0:0:
244,228,9236,1,0,0:0:0:0:
205,114,9463,1,0,0:0:0:0:
244,228,9690,1,0,0:0:0:0:
354,115,9917,5,0,0:0:0:0:
426,247,10145,1,0,0:0:0:0:
354,115,10372,1,0,0:0:0:0:
426,247,10599,1,0,0:0:0:0:
500,90,10827,5,0,0:0:0:0:
379,28,11054,1,0,0:0:0:0:
466,169,11281,1,0,0:0:0:0:
260,220,11508,1,0,0:0:0:0:
414,339,11736,6,0,P|365:379|303:385,1,127.5,0|0,0:0|0:0,0:0:0:0:
259,374,12190,1,0,0:0:0:0:
342,186,12418,2,0,P|380:203|410:233,1,85,0|0,0:0|0:0,0:0:0:0:
326,286,12872,1,0,0:0:0:0:
266,99,13099,2,0,P|350:93|428:123,1,170,0|0,0:0|0:0,0:0:0:0:
502,290,13781,6,0,B|502:320|502:320|482:370,2,85
418,242,14463,1,0,0:0:0:0:
356,331,14690,1,0,0:0:0:0:
287,224,14918,2,0,L|259:255,1,42.5
177,345,15145,1,0,0:0:0:0:
125,215,15372,5,0,0:0:0:0:
6,277,15599,1,0,0:0:0:0:
135,218,15827,2,0,P|132:184|125:153,1,63.7500024318696
14,58,16281,2,0,P|15:90|22:120,1,63.7500024318696
51,211,16736,1,0,0:0:0:0:
24,57,16963,1,0,0:0:0:0:
126,156,17190,6,0,P|157:164|188:167,1,63.7500024318696
232,21,17645,1,0,0:0:0:0:
133,31,17872,2,0,P|119:92|125:155,1,127.500004863739,0|0,0:0|0:0,0:0:0:0:
231,31,18554,2,0,P|228:63|220:94,1,63.7500024318696
200,172,19009,5,0,0:0:0:0:
200,172,19463,2,0,P|233:166|264:165,1,63.7500024318696,0|0,0:0|0:0,0:0:0:0:
369,169,19918,1,0,0:0:0:0:
202,187,20145,1,0,0:0:0:0:
382,169,20372,2,0,P|384:203|378:234,1,63.7500024318696,0|0,0:0|0:0,0:0:0:0:
389,330,20827,6,0,P|324:324|266:302,1,127.500004863739
193,251,21509,1,0,0:0:0:0:
144,342,21736,5,0,0:0:0:0:
96,235,21963,1,0,0:0:0:0:
44,373,22190,1,0,0:0:0:0:
0,208,22418,1,0,0:0:0:0:
195,183,22645,6,0,P|226:192|254:208,2,63.7500024318696
96,235,23327,1,0,0:0:0:0:
144,342,23554,2,0,P|176:344|208:341,1,63.7500024318696,0|0,2:0|2:0,2:0:0:0:
301,280,24009,1,0,0:0:0:0:
144,332,24236,1,0,0:0:0:0:
311,280,24463,6,0,P|319:248|322:217,1,63.7500024318696
175,173,24918,1,0,0:0:0:0:
185,272,25145,2,0,P|246:285|309:279,1,127.500004863739,0|0,0:0|0:0,0:0:0:0:
186,174,25827,2,0,P|218:177|249:185,1,63.7500024318696
326,205,26282,5,0,0:0:0:0:
326,205,26736,2,0,P|334:175|347:145,1,63.7500024318696
484,65,27190,2,0,P|476:95|463:125,1,63.7500024318696
335,209,27645,1,0,0:0:0:0:
475,65,27872,1,0,0:0:0:0:
384,21,28099,5,0,0:0:0:0:
311,106,28327,1,0,0:0:0:0:
225,7,28554,1,0,0:0:0:0:
168,166,28781,2,0,P|182:212|217:244,1,95.6250036478044
236,251,29236,1,0,0:0:0:0:
166,81,29463,1,0,0:0:0:0:
156,61,29577,1,0,0:0:0:0:
146,41,29690,1,0,0:0:0:0:
22,113,29918,6,0,P|38:140|45:171,1,63.7500024318696
62,305,30372,2,0,P|45:277|38:246,1,63.7500024318696
115,107,30827,1,0,0:0:0:0:
166,81,31054,1,0,0:0:0:0:
223,77,31281,2,0,P|254:76|285:86,1,63.7500024318696
402,164,31736,6,0,P|374:180|343:187,1,63.7500024318696
268,180,32190,1,0,0:0:0:0:
136,196,32418,2,0,P|163:179|194:172,1,63.7500024318696
268,180,32872,1,0,0:0:0:0:
268,180,33327,6,0,P|290:202|305:230,1,63.7500024318696
356,353,33781,2,0,P|333:331|318:303,1,63.7500024318696
248,280,34236,2,0,P|222:281|197:279,3,50.9999984436036
122,261,35145,6,0,P|113:230|114:198,1,63.7500024318696
132,67,35599,2,0,P|140:97|139:129,1,63.7500024318696
188,184,36054,2,0,P|212:191|237:197,3,50.9999984436036
247,198,36849,1,0,0:0:0:0:
257,199,36963,1,0,0:0:0:0:
430,88,37190,5,0,0:0:0:0:
375,38,37417,1,0,0:0:0:0:
308,17,37644,2,0,P|277:8|245:9,1,63.7500024318696
108,142,38099,5,0,0:0:0:0:
188,184,38326,1,0,0:0:0:0:
276,187,38553,2,0,P|307:187|338:177,1,63.7500024318696
453,29,39009,6,0,P|436:56|429:87,1,63.7500024318696
437,163,39463,1,0,0:0:0:0:
421,295,39691,2,0,P|437:267|444:236,1,63.7500024318696
437,163,40145,1,0,0:0:0:0:
437,163,40599,1,0,0:0:0:0:
305,99,40827,5,0,0:0:0:0:
260,241,41054,1,0,0:0:0:0:
171,47,41281,1,0,0:0:0:0:
147,212,41509,1,0,0:0:0:0:
26,34,41736,2,0,P|13:64|8:102,1,63.7500024318696
16,285,42190,1,0,0:0:0:0:
9,263,42303,1,0,0:0:0:0:
3,242,42417,1,0,0:0:0:0:
147,212,42645,6,0,L|177:202,1,31.8750012159348
246,323,42872,2,0,L|276:332,1,31.8750012159348
299,165,43099,2,0,L|329:155,1,31.8750012159348
398,370,43327,1,0,0:0:0:0:
350,234,43781,6,0,P|387:212|410:177,1,85
419,156,44349,1,0,0:0:0:0:
421,125,44463,6,0,P|413:84|390:49,1,85
183,136,44918,2,0,P|190:177|214:212,1,85
489,176,45372,2,0,P|503:137|500:95,1,85
277,63,45827,2,0,P|262:102|266:144,1,85
410,254,46281,6,0,P|400:171|342:111,1,170
182,135,46963,2,0,L|141:146,1,42.5
89,206,47190,2,0,P|106:167|142:146,1,85
277,219,47645,1,0,0:0:0:0:
169,222,47872,1,0,0:0:0:0:
302,25,48099,6,0,P|328:56|339:97,1,85
277,219,48554,1,0,0:0:0:0:
187,52,48781,2,0,P|226:66|256:95,1,85
169,222,49236,1,0,0:0:0:0:
75,139,49463,1,0,2:0:0:0:
256,96,49690,1,0,0:0:0:0:
313,264,49918,6,0,P|231:275|168:221,1,170
167,115,50599,1,0,0:0:0:0:
259,177,50827,1,0,0:0:0:0:
306,55,51054,1,0,0:0:0:0:
348,223,51281,1,0,0:0:0:0:
432,50,51509,1,0,0:0:0:0:
429,236,51736,6,0,P|410:273|379:301,1,85
201,163,52191,2,0,P|218:125|250:97,1,85
507,204,52645,2,0,P|510:245|496:285,1,85
273,258,53100,2,0,P|268:216|283:176,1,85
451,108,53554,6,0,P|419:185|348:228,1,170
186,270,54236,2,0,L|145:281,1,42.5
86,335,54463,2,0,P|124:318|145:282,1,85
122,161,54918,1,0,0:0:0:0:
70,250,55145,1,0,0:0:0:0:
250,373,55372,6,0,P|291:369|327:348,1,85
391,233,55827,1,0,0:0:0:0:
187,271,56054,2,0,P|225:288|266:289,1,85
391,233,56509,1,0,0:0:0:0:
245,206,56736,1,0,0:0:0:0:
438,353,56963,1,0,0:0:0:0:
512,239,57190,5,0,0:0:0:0:
344,161,57418,1,0,0:0:0:0:
512,73,57645,1,0,0:0:0:0:
293,18,57872,6,0,P|255:9|218:19,1,76.4999976654053
198,32,58327,6,0,P|181:45|166:63,1,42.5
157,182,58554,2,0,P|154:160|146:140,1,42.5,0|0,0:0|0:0,0:0:0:0:
48,73,58781,2,0,P|69:81|90:85,1,42.5,0|0,0:0|0:0,0:0:0:0:
224,119,59009,6,0,P|265:126|300:149,1,85
212,356,59464,2,0,P|171:349|136:325,1,85
171,50,59918,2,0,P|210:36|252:39,1,85
285,262,60373,2,0,P|246:277|204:273,1,85
94,130,60827,6,0,P|177:139|237:198,1,170
319,375,61509,2,0,L|307:334,1,42.5
360,276,61736,2,0,P|344:314|308:335,1,85
212,356,62191,1,0,0:0:0:0:
285,262,62418,1,0,0:0:0:0:
17,193,62645,6,0,P|2:232|6:273,1,85
175,358,63100,1,0,0:0:0:0:
134,179,63327,2,0,P|101:206|83:243,1,85
30,360,63782,1,0,0:0:0:0:
168,258,64009,1,0,0:0:0:0:
17,193,64236,1,0,0:0:0:0:
175,358,64464,6,0,P|244:313|261:232,1,170
203,126,65145,1,0,0:0:0:0:
284,59,65373,1,0,0:0:0:0:
317,185,65600,1,0,0:0:0:0:
398,31,65827,1,0,0:0:0:0:
485,210,66055,1,0,0:0:0:0:
284,261,66281,6,0,P|251:234|233:196,1,85,0|0,2:0|0:0,0:0:0:0:
418,61,66736,2,0,P|450:88|468:126,1,85
294,344,67190,2,0,P|252:336|217:312,1,85
308,106,67645,2,0,P|349:112|383:137,1,85
407,316,68099,6,0,P|340:265|317:185,1,170
449,33,68781,2,0,L|416:60,1,42.5
459,130,69008,2,0,P|445:88|415:59,1,85
322,27,69463,1,0,0:0:0:0:
374,131,69690,1,0,0:0:0:0:
153,52,69918,6,0,P|190:34|232:34,1,85
374,131,70373,1,0,0:0:0:0:
149,170,70600,2,0,P|173:135|208:114,1,85
343,242,71055,1,0,0:0:0:0:
230,192,71282,1,0,0:0:0:0:
424,264,71509,2,0,P|399:298|364:319,1,85
190,294,71963,1,0,0:0:0:0:
343,242,72190,1,0,0:0:0:0:
189,303,72418,2,0,P|156:284|121:225,1,95.6250036478044
110,193,72872,1,0,0:0:0:0:
330,74,73099,1,0,0:0:0:0:
341,86,73213,1,0,0:0:0:0:
353,102,73327,1,0,0:0:0:0:
379,288,73554,6,0,P|311:348|227:313,1,191.250007295609
240,98,74463,2,0,P|299:169|297:263,1,191.250007295609
140,243,75372,2,0,P|166:168|218:228,1,191.250007295609
149,328,76281,1,0,0:0:0:0:
48,259,76509,1,0,0:0:0:0:
218,227,76736,1,0,0:0:0:0:
96,79,76963,1,0,0:0:0:0:
113,67,77077,1,0,0:0:0:0:
133,58,77190,6,0,P|196:50|257:68,1,127.5,0|0,0:0|0:0,0:0:0:0:
288,82,77645,1,0,0:0:0:0:
185,177,77872,2,0,P|249:175|313:171,1,127.5,0|0,0:0|0:0,0:0:0:0:
352,169,78327,1,0,0:0:0:0:
189,301,78554,2,0,P|108:286|64:216,1,170,0|0,0:0|0:0,0:0:0:0:
54,106,79236,2,0,B|63:78|63:78|104:39,2,85
184,170,79918,2,0,L|201:124,1,42.5
221,40,80145,1,0,0:0:0:0:
314,205,80372,2,0,L|320:160,1,42.5
334,42,80599,1,0,0:0:0:0:
404,296,80827,6,0,P|438:241|445:179,1,127.5,0|0,0:0|0:0,0:0:0:0:
432,120,81281,1,0,0:0:0:0:
320,163,81509,2,0,P|285:217|277:279,1,127.5
291,338,81963,1,0,0:0:0:0:
221,78,82190,2,0,P|177:153|157:232,1,170
291,338,82872,6,0,B|324:331|324:331|364:293,2,85
154,323,83554,1,0,0:0:0:0:
253,227,83781,1,0,0:0:0:0:
55,235,84009,2,0,L|101:204,1,42.5
231,99,84236,2,0,L|172:88,1,42.5
12,55,84463,1,0,0:0:0:0:
256,192,84577,12,0,88099,0:0:0:0:
