osu file format v14

[General]
AudioFilename: audio.mp3
AudioLeadIn: 0
PreviewTime: 44349
Countdown: 1
SampleSet: Soft
StackLeniency: 0.7
Mode: 0
LetterboxInBreaks: 0
WidescreenStoryboard: 1

[Editor]
DistanceSpacing: 1
BeatDivisor: 2
GridSize: 8
TimelineZoom: 1.8

[Metadata]
Title:Hare Tokidoki Egao
TitleUnicode:(晴れときどき笑顔
Artist:Harada Hitomi, Mizuhashi Kaori, Katori Hidemi, Isomura Tomomi
ArtistUnicode:原田ひとみ 、水橋かおり 、加藤英美里 、磯村知美
Creator:MagicDragon
Version:Normal
Source:バカとテストと召喚獣
Tags:Baka to Test to Shoukanjuu ED end TV size
BeatmapID:1384372
BeatmapSetID:651835

[Difficulty]
HPDrainRate:3
CircleSize:2.4
OverallDifficulty:4
ApproachRate:5
SliderMultiplier:1.1
SliderTickRate:1

[Events]
//Background and Video events
0,0,"asdf.jpg",0,0
//Break Periods
//Storyboard Layer 0 (Background)
//Storyboard Layer 1 (Fail)
//Storyboard Layer 2 (Pass)
//Storyboard Layer 3 (Foreground)
//Storyboard Sound Samples

[TimingPoints]
829,454.545454545455,4,2,1,60,1,0
44465,-100,4,2,1,80,0,1
57192,-100,4,2,1,80,0,0
59010,-100,4,2,1,80,0,1
71738,-100,4,2,1,80,0,0

[Colours]
Combo1 : 143,202,154
Combo2 : 236,185,194
Combo3 : 240,214,155
Combo4 : 132,130,144

[HitObjects]
423,323,829,6,0,P|477:262|482:181,2,165
424,323,3556,2,0,L|369:319,1,55
360,265,4010,2,0,L|305:261,1,55
296,206,4465,6,0,P|224:244|144:227,2,165
296,207,7192,1,0,0:0:0:0:
349,193,7419,1,0,0:0:0:0:
402,207,7647,2,0,L|405:261,1,55
394,316,8101,6,0,P|345:339|291:336,1,110
244,235,9010,2,0,P|190:231|141:255,1,110
46,312,9919,2,0,P|29:260|41:207,1,110
95,110,10829,2,0,P|145:134|199:130,1,110
277,54,11738,6,0,P|332:53|387:59,1,110
436,89,12419,1,0,0:0:0:0:
416,197,12874,1,0,0:0:0:0:
437,247,13101,2,0,P|444:316|378:294,1,165
330,267,14010,1,0,0:0:0:0:
226,230,14465,2,0,P|198:232|171:226,1,55
146,274,14919,2,0,P|119:268|91:270,1,55
47,237,15374,6,0,P|39:156|60:77,1,165
115,78,16283,2,0,P|169:89|224:87,1,110
273,111,16965,1,0,0:0:0:0:
273,111,17192,2,0,P|327:102|382:107,1,110
427,137,17874,2,0,B|459:228|410:224|430:299,1,165
345,369,19010,5,0,0:0:0:0:
279,280,19465,1,0,0:0:0:0:
198,354,19919,2,0,L|143:350,1,55
134,296,20373,2,0,L|79:292,1,55
34,259,20829,2,0,P|28:204|35:150,1,110
75,112,21510,1,0,0:0:0:0:
75,112,21738,2,0,P|129:118|183:111,1,110
294,93,22647,6,0,P|302:174|281:253,1,165,0|0,2:0|2:0,2:0:0:0:
246,296,23556,2,0,L|193:278,2,55
280,330,24238,1,0,0:0:0:0:
287,329,24465,2,0,P|340:337|382:303,1,110
416,260,25147,2,0,B|391:169|439:173|418:97,1,165
314,133,26283,5,0,0:0:0:0:
221,72,26738,1,0,0:0:0:0:
239,180,27192,2,0,L|235:234,1,55
181,244,27646,2,0,L|177:298,1,55
123,308,28101,1,0,0:0:0:0:
69,302,28329,1,0,0:0:0:0:
37,257,28556,1,0,0:0:0:0:
42,202,28783,1,0,0:0:0:0:
28,92,29238,1,0,0:0:0:0:
72,59,29465,2,0,B|103:67|103:67|125:61,1,55
173,87,29919,6,0,P|224:91|263:134,1,110
234,239,30829,2,0,P|207:245|181:254,2,55
336,203,31738,2,0,P|363:251|360:305,1,110
325,347,32419,2,0,P|270:342|215:350,1,110
164,251,33329,6,0,P|164:197|184:146,1,110
292,159,34238,2,0,P|346:167|387:133,1,110
364,24,35147,2,0,P|310:24|259:44,1,110
149,38,36056,2,0,P|102:64|92:116,1,110
257,133,37192,6,0,L|253:187,1,55
199,197,37646,2,0,L|195:251,1,55
164,297,38101,1,0,0:0:0:0:
163,297,38329,2,0,P|181:347|231:365,1,110
285,356,39010,1,0,0:0:0:0:
394,345,39465,1,0,0:0:0:0:
448,336,39692,2,0,P|471:287|448:238,1,110
341,217,40601,6,0,P|278:184|326:131,1,165
380,137,41510,2,0,P|402:155|426:168,2,55
385,82,42192,2,0,P|370:58|349:41,1,55
295,32,42647,1,0,0:0:0:0:
240,33,42874,1,0,0:0:0:0:
191,58,43101,1,0,0:0:0:0:
165,107,43329,1,0,0:0:0:0:
212,240,43783,2,0,P|171:275|117:272,1,110
86,207,44465,6,0,P|78:180|79:153,1,55
125,98,44919,2,0,P|153:102|180:98,1,55
242,131,45374,2,0,P|269:123|296:124,1,55
359,158,45828,2,0,P|355:186|359:213,1,55
328,277,46283,2,0,P|276:265|228:289,1,110
173,243,46965,1,0,0:0:0:0:
102,252,47192,2,0,P|93:198|110:146,1,110
246,102,48101,6,0,P|254:129|253:156,1,55
236,226,48556,1,0,0:0:0:0:
287,273,48783,2,0,P|314:281|341:280,1,55
408,253,49238,1,0,0:0:0:0:
368,193,49465,1,0,0:0:0:0:
408,133,49692,1,0,0:0:0:0:
367,73,49919,2,0,P|315:85|267:61,1,110
198,41,50601,1,0,0:0:0:0:
167,104,50828,2,0,P|158:158|175:210,1,110
186,352,51738,6,0,P|159:360|132:359,1,55
74,316,52192,2,0,P|78:288|74:261,1,55
27,208,52647,2,0,P|23:180|27:153,1,55
74,100,53101,2,0,P|78:72|74:45,1,55
145,42,53556,2,0,P|197:30|245:54,1,110
293,107,54238,1,0,0:0:0:0:
243,157,54465,2,0,P|234:211|251:263,1,110
387,223,55374,6,0,P|395:196|394:169,1,55
377,100,55829,1,0,0:0:0:0:
323,51,56056,2,0,P|297:57|270:57,1,55
218,108,56511,1,0,0:0:0:0:
161,64,56738,1,0,0:0:0:0:
104,108,56965,1,0,0:0:0:0:
96,178,57192,2,0,P|68:181|41:186,2,55
163,198,57874,2,0,P|198:239|251:237,1,110
305,283,58556,1,0,0:0:0:0:
417,195,59010,6,0,P|425:168|424:141,1,55
364,93,59464,2,0,P|336:97|309:93,1,55
250,132,59919,2,0,P|222:128|195:132,1,55
136,93,60374,2,0,P|109:101|82:100,1,55
55,167,60829,2,0,P|43:219|67:267,1,110
129,302,61510,1,0,0:0:0:0:
155,368,61737,2,0,P|207:349|261:359,1,110
404,364,62646,6,0,P|412:337|411:310,1,55
381,244,63101,1,0,0:0:0:0:
426,189,63328,2,0,P|418:162|419:135,1,55
372,80,63783,1,0,0:0:0:0:
312,119,64010,1,0,0:0:0:0:
252,80,64238,1,0,0:0:0:0:
191,118,64465,2,0,P|139:106|91:130,1,110
51,189,65146,1,0,0:0:0:0:
102,237,65373,2,0,P|93:291|110:343,1,110
252,342,66283,6,0,P|280:346|307:342,1,55
360,295,66738,2,0,P|388:291|415:295,1,55
467,247,67192,2,0,P|463:219|467:192,1,55
422,137,67647,2,0,P|394:133|367:137,1,55
329,76,68101,2,0,P|281:99|229:87,1,110
176,135,68783,1,0,0:0:0:0:
219,189,69010,2,0,P|228:243|211:295,1,110
67,282,69919,6,0,P|60:256|60:229,1,55
79,160,70374,1,0,0:0:0:0:
106,93,70601,2,0,P|133:101|160:99,1,55
220,61,71056,1,0,0:0:0:0:
278,101,71283,1,0,0:0:0:0:
339,65,71510,1,0,0:0:0:0:
395,107,71738,2,0,P|412:85|433:67,2,55
415,174,72420,2,0,P|405:227|358:252,1,110
313,196,73101,1,0,0:0:0:0:
198,109,73556,6,0,P|108:128|136:41,1,220
316,138,75374,2,0,P|250:224|146:257,1,220
128,205,76510,2,0,L|144:152,2,55
73,212,77192,6,0,B|19:150|19:150|5:68,2,165
231,259,79238,1,0,0:0:0:0:
278,287,79465,2,0,L|332:283,1,55
375,249,79920,2,0,P|373:221|379:194,1,55
327,179,80374,2,0,P|334:152|333:125,1,55
301,80,80829,6,0,B|220:64|220:64|142:92,2,165
424,189,82874,1,0,0:0:0:0:
377,217,83101,2,0,L|322:213,1,55
307,159,83556,2,0,P|279:161|252:155,1,55
210,188,84010,2,0,P|208:216|215:242,1,55
256,192,84465,12,0,88101,0:0:0:0:
