osu file format v14

[General]
AudioFilename: audio.mp3
AudioLeadIn: 0
PreviewTime: 44349
Countdown: 1
SampleSet: Soft
StackLeniency: 0.7
Mode: 0
LetterboxInBreaks: 0
WidescreenStoryboard: 1

[Editor]
DistanceSpacing: 2
BeatDivisor: 4
GridSize: 8
TimelineZoom: 1.1

[Metadata]
Title:Hare Tokidoki Egao
TitleUnicode:(晴れときどき笑顔
Artist:Harada Hitomi, Mizuhashi Kaori, Katori Hidemi, Isomura Tomomi
ArtistUnicode:原田ひとみ 、水橋かおり 、加藤英美里 、磯村知美
Creator:MagicDragon
Version:Futari Hard
Source:バカとテストと召喚獣
Tags:Baka to Test to Shoukanjuu ED end TV size
BeatmapID:1410171
BeatmapSetID:651835

[Difficulty]
HPDrainRate:5
CircleSize:3.3
OverallDifficulty:5
ApproachRate:5.5
SliderMultiplier:1.3
SliderTickRate:1

[Events]
//Background and Video events
0,0,"asdf.jpg",0,0
//Break Periods
//Storyboard Layer 0 (Background)
//Storyboard Layer 1 (Fail)
//Storyboard Layer 2 (Pass)
//Storyboard Layer 3 (Foreground)
//Storyboard Sound Samples

[TimingPoints]
829,454.545454545455,4,2,0,60,1,0
8101,-100,4,2,0,80,0,0
44465,-83.3333333333333,4,2,0,80,0,1
57192,-100,4,2,0,80,0,0
59010,-83.3333333333333,4,2,0,80,0,1
71738,-100,4,2,0,80,0,0

[Colours]
Combo1 : 143,202,154
Combo2 : 236,185,194
Combo3 : 240,214,155
Combo4 : 132,130,144

[HitObjects]
176,136,374,6,0,L|183:167,3,32.5
196,211,829,6,0,P|239:165|303:161,1,130
359,249,1510,2,0,P|422:250|469:208,1,130
469,207,2192,1,0,0:0:0:0:
79,23,3556,1,0,0:0:0:0:
79,23,3783,1,0,0:0:0:0:
36,117,4010,2,0,L|38:183,1,65
38,182,4465,6,0,P|96:205|155:181,1,130
182,80,5146,2,0,P|236:47|297:60,1,130
298,60,5828,1,0,0:0:0:0:
243,349,7192,2,0,L|178:339,1,65
103,331,7647,2,0,L|187:319,1,65
248,237,8101,6,0,P|249:206|235:176,1,65,0|0,2:0|2:0,2:0:0:0:
290,247,8556,2,0,P|298:216|294:184,1,65,0|0,2:0|2:0,2:0:0:0:
211,101,9010,2,0,P|182:117|163:142,1,65,0|0,2:0|2:0,2:0:0:0:
199,58,9465,2,0,P|167:66|141:85,1,65,0|0,2:0|2:0,2:0:0:0:
170,220,9919,2,0,P|137:216|110:198,1,65,0|0,2:0|2:0,2:0:0:0:
171,265,10374,2,0,P|138:270|107:261,1,65,0|0,2:0|2:0,2:0:0:0:
39,166,10829,2,0,P|59:140|87:125,2,65,0|0|0,2:0|2:0|2:0,2:0:0:0:
39,166,11510,1,0,0:0:0:0:
18,294,11738,6,0,P|75:334|134:349,1,130,0|0,0:3|0:3,0:3:0:0:
132,349,12419,1,0,0:3:0:0:
366,341,12874,1,0,0:0:0:0:
366,341,13101,1,0,0:0:0:0:
453,61,13783,5,0,0:3:0:0:
453,61,14010,2,0,P|426:42|395:33,1,65,0|0,0:3|0:3,0:3:0:0:
314,74,14465,1,0,0:0:0:0:
314,74,14692,1,0,0:0:0:0:
231,34,14919,1,0,0:0:0:0:
231,34,15146,1,0,0:0:0:0:
101,46,15374,5,0,0:0:0:0:
101,46,15601,1,0,0:0:0:0:
132,145,15829,1,0,0:0:0:0:
132,145,16056,1,0,0:0:0:0:
44,201,16283,2,0,P|41:233|49:264,1,65
48,265,16738,2,0,P|56:296|53:328,1,65
181,349,17192,2,0,P|213:352|244:344,1,65
244,343,17648,1,0,0:0:0:0:
347,304,17874,2,0,P|422:267|362:208,1,195
362,209,18783,1,0,0:0:0:0:
230,155,19010,5,0,0:0:0:0:
230,155,19465,2,0,P|262:163|294:160,1,65
392,80,19919,2,0,P|359:85|327:79,1,65
332,82,20374,2,0,P|299:77|267:81,1,65
139,155,20829,2,0,P|160:214|216:245,1,130
216,245,21511,1,0,0:0:0:0:
343,208,21738,2,0,P|348:143|331:81,1,130,0|0,2:0|2:0,2:0:0:0:
331,81,22419,1,0,0:0:0:0:
467,44,22647,5,0,0:0:0:0:
467,44,22874,1,0,0:0:0:0:
511,138,23102,1,0,0:0:0:0:
511,138,23329,1,0,0:0:0:0:
448,220,23556,2,0,P|452:252|444:283,1,65
443,283,24010,2,0,P|439:315|447:346,1,65
326,306,24465,2,0,P|330:273|346:245,1,65
347,246,24919,1,0,0:0:0:0:
304,152,25147,2,0,P|317:69|235:86,1,195
236,85,26056,1,0,0:0:0:0:
256,225,26283,5,0,0:0:0:0:
256,225,26738,2,0,P|224:235|192:236,1,65
89,225,27192,1,0,0:0:0:0:
89,225,27419,1,0,0:0:0:0:
106,117,27647,1,0,0:0:0:0:
106,117,27874,1,0,0:0:0:0:
25,19,28101,6,0,P|88:14|156:23,1,130
154,22,28783,1,0,0:0:0:0:
352,83,29238,1,0,0:0:0:0:
369,55,29465,2,0,L|387:28,2,32.5
314,173,29919,2,0,P|375:180|431:138,1,130
428,141,30829,2,0,P|453:121|482:107,2,65
486,366,31738,1,0,0:0:0:0:
486,366,32192,1,0,0:0:0:0:
363,306,32419,2,0,P|299:313|240:287,1,130
180,220,33329,6,0,P|239:226|239:286,1,130
32,304,34238,1,0,0:0:0:0:
32,304,34465,2,0,P|32:337|44:366,2,65
100,185,35147,1,0,0:0:0:0:
100,185,35601,1,0,0:0:0:0:
71,17,36057,1,0,0:0:0:0:
71,17,36283,2,0,P|41:5|8:5,2,65
299,97,37192,6,0,P|310:66|314:34,2,65
299,97,37875,1,0,0:0:0:0:
190,111,38101,2,0,P|157:116|127:129,2,65
190,111,38784,1,0,0:0:0:0:
194,207,39010,2,0,P|241:249|304:264,1,130,0|0,0:3|0:3,0:3:0:0:
304,263,39692,2,0,P|366:277|414:320,1,130,0|0,0:3|0:3,0:3:0:0:
352,143,40601,6,0,P|273:173|270:90,1,195
270,90,41510,1,0,0:0:0:0:
371,44,41738,6,0,P|401:54|429:71,2,65
371,44,42419,1,0,0:0:0:0:
264,15,42647,2,0,P|231:19|199:15,1,65
200,16,43102,1,0,0:0:0:0:
81,110,43330,1,0,0:0:0:0:
141,231,43783,2,0,P|132:174|68:104,1,130
60,247,44465,6,0,P|74:281|106:306,1,77.999997619629
151,364,44919,2,0,P|137:330|105:305,1,77.999997619629
226,272,45374,6,0,P|262:276|294:301,1,77.999997619629
362,331,45828,2,0,P|325:326|293:301,1,77.999997619629
447,380,46283,6,0,P|457:304|410:246,1,155.999995239258
410,246,46965,1,0,0:0:0:0:
310,201,47192,2,0,P|306:123|339:55,1,155.999995239258
340,54,47874,1,0,0:0:0:0:
478,29,48101,6,0,P|487:66|484:105,1,77.999997619629
485,105,48556,1,0,0:0:0:0:
423,204,48783,2,0,P|413:241|416:280,1,77.999997619629
416,280,49238,1,0,0:0:0:0:
499,337,49465,1,0,0:0:0:0:
499,337,49692,1,0,0:0:0:0:
336,348,49919,6,0,P|259:357|188:328,1,155.999995239258
189,329,50601,1,0,0:0:0:0:
111,220,50829,2,0,L|195:206,1,77.999997619629
254,196,51283,2,0,L|170:182,1,77.999997619629
38,129,51738,6,0,P|60:99|97:83,1,77.999997619629,0|0,3:0|3:0,3:0:0:0:
156,37,52192,2,0,P|133:66|96:82,1,77.999997619629,0|0,3:0|3:0,3:0:0:0:
228,99,52647,6,0,P|264:103|302:88,1,77.999997619629
373,79,53101,2,0,P|336:74|298:89,1,77.999997619629
445,14,53556,6,0,P|474:82|443:152,1,155.999995239258
443,152,54239,1,0,0:0:0:0:
343,170,54465,2,0,P|327:245|350:319,1,155.999995239258
351,319,55147,1,0,0:0:0:0:
488,348,55374,6,0,P|495:309|488:271,1,77.999997619629
488,271,55829,1,0,0:0:0:0:
432,177,56056,2,0,P|425:138|432:100,1,77.999997619629
432,100,56511,1,0,0:0:0:0:
503,17,56738,1,0,0:0:0:0:
503,17,56965,1,0,0:0:0:0:
368,38,57192,6,0,B|335:45|335:45|303:41,1,65
303,41,57647,1,0,0:0:0:0:
176,12,57874,2,0,P|135:37|107:121,1,130
101,143,58442,2,0,L|95:175,3,32.5
205,307,59010,6,0,P|226:274|233:236,1,77.999997619629
261,165,59464,2,0,P|239:197|232:235,1,77.999997619629
216,95,59919,6,0,P|253:83|291:86,1,77.999997619629
368,81,60373,2,0,P|330:92|292:89,1,77.999997619629
445,26,60829,6,0,P|462:99|419:161,1,155.999995239258
418,162,61511,1,0,0:0:0:0:
310,178,61738,2,0,P|233:161|159:183,1,155.999995239258
160,184,62419,1,0,0:0:0:0:
130,329,62647,6,0,P|167:335|205:326,1,77.999997619629
206,326,63101,1,0,0:0:0:0:
306,251,63329,2,0,P|343:244|381:253,1,77.999997619629
382,254,63783,1,0,0:0:0:0:
457,321,64010,1,0,0:0:0:0:
457,321,64238,1,0,0:0:0:0:
301,335,64465,6,0,P|235:297|226:222,1,155.999995239258
226,222,65147,1,0,0:0:0:0:
320,184,65374,2,0,P|327:107|314:30,1,155.999995239258
314,30,66056,1,0,0:0:0:0:
166,79,66283,6,0,P|131:96|105:126,1,77.999997619629
46,173,66737,2,0,P|80:155|106:125,1,77.999997619629
81,257,67192,2,0,P|118:269|156:266,1,77.999997619629
233,275,67646,2,0,P|195:262|157:265,1,77.999997619629
202,365,68101,6,0,P|277:358|322:298,1,155.999995239258
322,296,68783,1,0,0:0:0:0:
291,194,69010,2,0,P|361:183|440:154,1,155.999995239258
440,154,69692,1,0,0:0:0:0:
452,34,69919,6,0,P|414:26|375:31,1,77.999997619629,0|0,2:0|2:0,2:0:0:0:
375,31,70374,1,0,2:0:0:0:
299,113,70601,6,0,P|261:120|222:115,1,77.999997619629,0|0,2:0|2:0,2:0:0:0:
223,116,71056,1,0,2:0:0:0:
155,30,71283,1,0,0:0:0:0:
155,30,71510,1,0,0:0:0:0:
9,38,71738,6,0,P|15:69|13:102,1,65
14,103,72192,1,0,0:0:0:0:
117,200,72419,2,0,P|126:262|177:299,1,130
240,317,73101,2,0,L|207:308,2,32.5
357,277,73556,6,0,P|377:179|299:241,1,260
299,241,74919,1,0,0:0:0:0:
201,215,75374,2,0,P|268:109|393:89,1,260
393,89,76510,1,0,0:0:0:0:
489,195,76738,2,0,L|478:126,1,65
479,132,77192,6,0,P|434:178|371:179,1,130
296,107,77874,2,0,P|240:81|187:114,1,130
187,115,78556,1,0,0:0:0:0:
8,295,79238,1,0,0:0:0:0:
8,295,79465,2,0,P|33:273|54:248,1,65
148,159,79919,1,0,0:0:0:0:
148,159,80147,1,0,0:0:0:0:
153,301,80374,2,0,L|147:383,1,65
148,365,80829,6,0,P|213:368|274:347,1,130
403,346,81510,2,0,P|406:282|384:221,1,130
383,221,82193,1,0,0:0:0:0:
474,25,82647,2,0,P|442:17|410:18,3,65
410,16,83556,2,0,P|400:48|385:76,1,65
291,166,84010,2,0,P|259:156|231:141,1,65
231,141,84465,1,0,0:0:0:0:
256,192,84579,12,0,88101,0:0:0:0:
