osu file format v14

[General]
AudioFilename: audio.mp3
AudioLeadIn: 0
PreviewTime: 55971
Countdown: 0
SampleSet: Soft
StackLeniency: 0.3
Mode: 0
LetterboxInBreaks: 0
WidescreenStoryboard: 0

[Editor]
DistanceSpacing: 0.7
BeatDivisor: 4
GridSize: 32
TimelineZoom: 2.1

[Metadata]
Title:Maware! Setsugetsuka
TitleUnicode:回レ!雪月花
Artist:Harada Hitomi, Kayano Ai & Ogura Yui
ArtistUnicode:原田ひとみ,茅野愛衣 & 小倉唯
Creator:Kami-senpai
Version:Unbreakable
Source:機巧少女は傷つかない
Tags:unbreakable machine doll ed full
BeatmapID:1475858
BeatmapSetID:696788

[Difficulty]
HPDrainRate:5.5
CircleSize:4
OverallDifficulty:8.5
ApproachRate:9.5
SliderMultiplier:2.1
SliderTickRate:1

[Events]
//Background and Video events
0,0,"bg.jpg",0,0
//Break Periods
//Storyboard Layer 0 (Background)
//Storyboard Layer 1 (Fail)
//Storyboard Layer 2 (Pass)
//Storyboard Layer 3 (Foreground)
//Storyboard Sound Samples

[TimingPoints]
471,375,4,2,0,100,1,0
471,-133.333333333333,4,2,0,40,0,0
1221,-100,4,2,0,60,0,0
1596,-76.9230769230769,4,2,0,60,0,0
1971,-90.9090909090909,4,2,0,60,0,1
2064,-90.9090909090909,4,2,0,60,0,0
7596,-30,4,2,0,60,0,0
7971,-83.3333333333333,4,2,0,60,0,0
13408,-66.6666666666667,4,2,0,60,0,0
13971,-100,4,2,0,60,0,0
16596,-66.6666666666667,4,2,0,60,0,0
16971,-100,4,2,0,60,0,0
18471,-83.3333333333333,4,2,0,60,0,0
19971,-100,4,2,0,60,0,0
25971,-76.9230769230769,4,2,0,60,0,0
27471,-100,4,2,0,60,0,0
30471,-90.9090909090909,4,2,0,60,0,0
32158,-142.857142857143,4,2,0,60,0,0
32346,-100,4,2,0,60,0,0
32533,-76.9230769230769,4,2,0,60,0,0
33471,-125,4,2,0,60,0,0
39471,-90.9090909090909,4,2,0,60,0,0
45471,-71.4285714285714,4,2,0,60,0,0
46971,-111.111111111111,4,2,0,60,0,0
55971,-142.857142857143,4,2,0,60,0,0
58221,-166.666666666667,4,2,0,60,0,0
58971,-76.923076923077,4,2,0,70,0,1
62158,-90.9090909090909,4,2,0,70,0,1
64971,-76.9230769230769,4,2,0,70,0,1
68158,-90.9090909090909,4,2,0,70,0,1
70971,-76.9230769230769,4,2,0,70,0,1
73971,-90.9090909090909,4,2,0,70,0,1
79221,-76.9230769230769,4,2,0,70,0,1
81471,-76.9230769230769,4,2,0,70,0,0
82971,-100,4,2,0,60,0,1
83064,-100,4,2,0,60,0,0
88596,-30,4,2,0,60,0,0
88971,-100,4,2,0,60,0,0
94408,-76.9230769230769,4,2,0,60,0,0
94971,-200,4,2,0,60,0,0
100221,-76.9230769230769,4,2,0,60,0,0
100596,-142.857142857143,4,2,0,60,0,0
100971,-100,4,2,0,60,0,0
106971,-71.4285714285714,4,2,0,60,0,0
108096,-66.6666666666667,4,2,0,60,0,0
108471,-111.111111111111,4,2,0,50,0,0
117471,-142.857142857143,4,2,0,50,0,0
120471,-76.9230769230769,4,2,0,70,0,1
123658,-90.9090909090909,4,2,0,70,0,1
126471,-76.9230769230769,4,2,0,70,0,1
129658,-90.9090909090909,4,2,0,70,0,1
132471,-76.9230769230769,4,2,0,70,0,1
135471,-90.9090909090909,4,2,0,70,0,1
142971,-76.9230769230769,4,2,0,70,0,1
144471,-90.9090909090909,4,2,0,60,0,0
168471,-111.111111111111,4,2,0,40,0,0
180471,-200,4,2,0,40,0,0
195471,-76.9230769230769,4,2,0,70,0,1
198658,-90.9090909090909,4,2,0,70,0,1
201471,-76.9230769230769,4,2,0,70,0,1
204658,-90.9090909090909,4,2,0,70,0,1
207471,-76.9230769230769,4,2,0,70,0,1
210471,-90.9090909090909,4,2,0,70,0,1
215721,-76.9230769230769,4,2,0,70,0,1
216471,-90.9090909090909,4,2,0,70,0,1
220971,-90.9090909090909,4,2,0,70,0,0
223221,-133.333333333333,4,2,0,70,0,0
223971,-90.9090909090909,4,2,0,60,0,1
229596,-50,4,2,0,60,0,0

[Colours]
Combo1 : 96,171,187
Combo2 : 128,128,192
Combo3 : 128,0,64
Combo4 : 255,128,192

[HitObjects]
95,216,471,5,0,0:0:0:0:
131,226,564,1,0,0:0:0:0:
169,223,658,1,0,0:0:0:0:
203,206,752,1,0,0:0:0:0:
270,146,846,5,0,0:0:0:0:
306,136,939,1,0,0:0:0:0:
344,139,1033,1,0,0:0:0:0:
378,156,1127,1,0,0:0:0:0:
427,255,1221,6,0,L|420:326,1,52.5
318,242,1408,2,0,L|311:313,1,52.5
141,327,1596,6,0,P|179:318|215:299,1,68.2499968757631
462,157,1783,2,0,P|424:148|388:129,1,68.2499968757631
181,38,1971,6,0,L|173:106,1,57.7500017623902
97,224,2158,1,0,0:0:0:0:
97,224,2252,1,0,0:0:0:0:
97,224,2346,2,0,P|116:187|131:176,1,57.7500017623902
221,173,2533,2,0,P|258:191|269:206,1,57.7500017623902
189,323,2721,6,0,L|187:258,1,57.7500017623902
322,117,2908,1,0,0:0:0:0:
322,117,3002,1,0,0:0:0:0:
322,117,3096,2,0,P|351:145|362:168,1,57.7500017623902
358,247,3283,2,0,P|340:283|321:300,1,57.7500017623902
213,71,3471,6,0,L|222:4,1,57.7500017623902
130,159,3658,1,0,0:0:0:0:
130,159,3752,1,0,0:0:0:0:
130,159,3846,2,0,P|174:179|206:178,1,57.7500017623902
267,169,4033,2,0,P|304:138|318:109,1,57.7500017623902
387,34,4221,6,0,L|459:47,1,57.7500017623902
454,286,4408,2,0,L|397:296,1,57.7500017623902
267,169,4596,1,0,0:0:0:0:
317,159,4689,1,0,0:0:0:0:
368,166,4783,1,0,0:0:0:0:
419,157,4877,1,0,0:0:0:0:
469,169,4971,6,0,P|481:131|475:89,1,57.7500017623902
263,24,5158,1,0,0:0:0:0:
263,24,5252,1,0,0:0:0:0:
263,24,5346,2,0,P|251:62|257:104,1,57.7500017623902
267,169,5533,2,0,P|287:203|322:226,1,57.7500017623902
405,68,5721,6,0,L|336:72,1,57.7500017623902
144,145,5908,1,0,0:0:0:0:
144,145,6002,1,0,0:0:0:0:
144,145,6096,2,0,P|146:186|156:213,1,57.7500017623902
199,275,6283,2,0,P|233:297|261:305,1,57.7500017623902
414,187,6471,6,0,L|419:262,1,57.7500017623902
297,101,6658,1,0,0:0:0:0:
297,101,6752,1,0,0:0:0:0:
297,101,6846,2,0,P|276:137|272:162,1,57.7500017623902
282,235,7033,2,0,P|304:270|325:284,1,57.7500017623902
419,57,7221,6,0,L|482:48,1,57.7500017623902
182,12,7408,1,0,0:0:0:0:
168,100,7502,1,0,0:0:0:0:
155,186,7596,6,0,L|178:32,1,87.5
21,341,7971,6,0,P|68:323|94:323,1,62.9999980773926
195,335,8158,1,0,0:0:0:0:
38,262,8346,6,0,P|88:267|111:279,1,62.9999980773926
195,335,8533,1,0,0:0:0:0:
88,198,8721,6,0,P|130:225|145:246,1,62.9999980773926
195,335,8908,1,0,0:0:0:0:
161,165,9096,6,0,P|186:208|190:234,1,62.9999980773926
195,335,9283,1,0,0:0:0:0:
502,321,9471,6,0,P|463:289|450:266,1,62.9999980773926
410,173,9658,1,0,0:0:0:0:
425,345,9846,6,0,P|405:299|403:273,1,62.9999980773926
410,173,10033,1,0,0:0:0:0:
345,334,10221,6,0,P|347:284|358:260,1,62.9999980773926
410,173,10408,6,0,P|454:150|480:147,1,62.9999980773926
296,176,10596,2,0,P|253:148|238:127,1,62.9999980773926
352,272,10783,2,0,P|349:322|338:346,1,62.9999980773926
146,239,10971,6,0,P|138:189|125:166,1,62.9999980773926
64,85,11158,1,0,0:0:0:0:
205,184,11346,6,0,P|175:143|153:129,1,62.9999980773926
64,85,11533,1,0,0:0:0:0:
236,109,11721,6,0,P|191:86|165:83,1,62.9999980773926
64,85,11908,1,0,0:0:0:0:
228,29,12096,6,0,P|177:29|153:38,1,62.9999980773926
64,85,12283,1,0,0:0:0:0:
149,281,12471,6,0,L|287:268,1,125.999996154785
274,269,12752,1,0,0:0:0:0:
368,299,12846,2,0,L|381:371,1,62.9999980773926
345,205,13033,2,0,L|358:133,1,62.9999980773926
445,234,13221,1,0,0:0:0:0:
107,54,13408,6,0,L|118:142,1,78.7500030040742
224,98,13596,2,0,L|235:186,1,78.7500030040742
335,126,13783,2,0,L|346:214,1,78.7500030040742
105,346,13971,6,0,P|86:296|96:239,1,105
147,193,14252,1,0,0:0:0:0:
173,195,14346,1,0,0:0:0:0:
198,197,14439,1,0,0:0:0:0:
224,199,14533,1,0,0:0:0:0:
250,202,14627,2,0,P|257:237|255:269,2,52.5
224,118,14908,6,0,L|234:46,1,52.5
303,130,15096,2,0,L|313:58,1,52.5
387,146,15283,1,0,0:0:0:0:
412,151,15377,1,0,0:0:0:0:
437,157,15471,6,0,P|463:147|501:117,3,52.5
331,219,15846,2,0,P|305:229|267:259,3,52.5
442,281,16221,5,0,0:0:0:0:
442,281,16408,1,0,0:0:0:0:
346,62,16596,2,0,L|330:228,1,157.500006008148
158,353,16971,6,0,B|144:301|144:301|160:238,1,105
227,215,17252,1,0,0:0:0:0:
225,188,17346,1,0,0:0:0:0:
223,162,17439,1,0,0:0:0:0:
221,135,17533,1,0,0:0:0:0:
219,108,17627,6,0,L|231:53,2,52.5
137,135,17908,1,0,0:0:0:0:
131,109,18002,6,0,L|119:54,2,52.5
141,216,18283,2,0,L|129:271,1,52.5
121,361,18471,6,0,P|147:349|183:341,1,62.9999980773926
323,299,18658,2,0,P|297:287|261:279,1,62.9999980773926
141,216,18846,2,0,P|167:204|203:196,1,62.9999980773926
341,131,19033,2,0,P|310:124|281:111,1,62.9999980773926
151,7,19221,6,0,B|129:20|117:37|117:37|118:86|133:151,2,125.999996154785
203,73,19783,1,0,0:0:0:0:
340,9,19971,6,0,P|363:57|353:123,1,105
359,107,20252,2,0,P|391:78|406:54,1,52.5
296,171,20533,1,0,0:0:0:0:
296,171,20627,2,0,L|238:179,2,52.5
380,203,20908,1,0,0:0:0:0:
386,228,21002,1,0,0:0:0:0:
391,253,21096,6,0,L|389:320,1,52.5
308,257,21283,2,0,L|306:324,1,52.5
229,349,21471,5,0,0:0:0:0:
188,339,21564,1,0,0:0:0:0:
162,305,21658,1,0,0:0:0:0:
157,263,21752,1,0,0:0:0:0:
176,225,21846,2,0,P|219:226|244:222,2,52.5
96,195,22127,1,0,0:0:0:0:
96,195,22221,6,0,B|86:220|63:250|63:250|74:308,1,105
74,324,22502,1,0,0:0:0:0:
74,324,22596,2,0,P|43:290|31:281,1,52.5
174,117,22783,1,0,0:0:0:0:
174,117,22877,1,0,0:0:0:0:
174,117,22971,6,0,L|322:119,1,105
203,196,23252,1,0,0:0:0:0:
203,196,23346,2,0,L|205:252,1,52.5
291,203,23533,1,0,0:0:0:0:
291,203,23627,1,0,0:0:0:0:
291,203,23721,2,0,L|366:202,1,52.5
307,344,23908,6,0,P|284:318|269:288,1,52.5
352,333,24096,2,0,P|348:299|354:265,1,52.5
401,344,24283,2,0,P|416:313|439:288,1,52.5
483,209,24471,5,0,0:0:0:0:
380,78,24658,1,0,0:0:0:0:
291,203,24846,2,0,L|300:325,1,105
298,307,25127,1,0,0:0:0:0:
215,267,25221,2,0,L|157:270,1,52.5
380,258,25408,1,0,0:0:0:0:
380,258,25502,1,0,0:0:0:0:
380,258,25596,5,0,0:0:0:0:
440,186,25689,1,0,0:0:0:0:
403,98,25783,1,0,0:0:0:0:
310,116,25877,1,0,0:0:0:0:
291,203,25971,6,0,B|224:200|177:210|177:210|202:187,1,136.499993751526
223,117,26252,2,0,B|156:120|109:110|109:110|134:133,1,136.499993751526
110,259,26533,1,0,0:0:0:0:
116,285,26627,1,0,0:0:0:0:
125,319,26721,6,0,P|202:301|260:326,1,136.499993751526
345,329,27002,1,0,0:0:0:0:
402,266,27096,2,0,P|398:218|375:182,1,68.2499968757631
316,150,27283,2,0,P|267:148|229:168,1,68.2499968757631
88,198,27471,6,0,P|131:195|166:179,1,52.5
170,34,27658,1,0,0:0:0:0:
170,34,27752,1,0,0:0:0:0:
170,34,27846,2,0,P|170:66|184:95,1,52.5
249,154,28033,2,0,P|277:169|308:172,1,52.5
349,35,28221,6,0,L|289:45,1,52.5
417,122,28408,1,0,0:0:0:0:
417,122,28502,1,0,0:0:0:0:
417,122,28596,2,0,P|429:156|429:187,1,52.5
409,258,28783,2,0,P|384:284|357:299,1,52.5
205,286,28971,6,0,P|248:295|272:308,1,52.5
299,197,29158,1,0,0:0:0:0:
291,160,29252,1,0,0:0:0:0:
282,124,29346,2,0,P|239:115|215:102,2,52.5
103,49,29721,6,0,L|97:177,1,105
98,153,30002,1,0,0:0:0:0:
12,208,30096,5,0,0:0:0:0:
44,247,30189,1,0,0:0:0:0:
93,265,30283,1,0,0:0:0:0:
145,256,30377,1,0,0:0:0:0:
185,221,30471,6,0,B|210:207|241:201|241:201|271:267|351:256,1,173.250005287171
360,132,30846,2,0,P|327:160|319:187,1,57.7500017623902
411,203,31033,6,0,B|452:168|460:120|431:78|431:78|485:83,1,173.250005287171
351,44,31408,1,0,0:0:0:0:
317,54,31502,1,0,0:0:0:0:
283,63,31596,2,0,L|226:81,1,57.7500017623902
179,182,31783,6,0,B|234:163|234:163|304:190,1,115.50000352478
315,259,32064,1,0,0:0:0:0:
315,259,32158,6,0,L|304:319,1,36.749998878479
231,256,32346,6,0,L|217:330,1,52.5
150,259,32533,6,0,L|135:332,1,68.2499968757631
95,198,32721,5,0,0:0:0:0:
407,110,33096,1,0,0:0:0:0:
69,21,33471,6,0,L|54:137,1,84
56,138,33752,1,0,0:0:0:0:
56,138,33846,2,0,P|82:127|101:122,3,42
183,109,34221,5,0,0:0:0:0:
181,133,34314,1,0,0:0:0:0:
178,158,34408,1,0,0:0:0:0:
176,184,34502,2,0,P|148:199|129:204,2,42
56,220,34783,1,0,0:0:0:0:
54,245,34877,1,0,0:0:0:0:
50,270,34971,6,0,L|112:278,1,42
177,284,35158,2,0,L|239:292,1,42
302,299,35346,2,0,L|364:307,1,42
263,213,35533,1,0,0:0:0:0:
263,187,35627,1,0,0:0:0:0:
265,161,35721,6,0,P|302:124|357:114,2,84
348,205,36283,1,0,0:0:0:0:
372,198,36377,1,0,0:0:0:0:
451,184,36471,6,0,L|449:288,2,84
388,27,37033,1,0,0:0:0:0:
379,50,37127,1,0,0:0:0:0:
371,74,37221,2,0,P|376:109|385:125,3,42
372,198,37596,5,0,0:0:0:0:
249,61,37783,1,0,0:0:0:0:
163,263,37971,6,0,P|171:227|187:207,1,42
244,163,38158,2,0,P|279:153|304:157,1,42
372,198,38346,2,0,P|393:228|397:253,1,42
276,273,38533,1,0,0:0:0:0:
276,273,38627,1,0,0:0:0:0:
276,273,38721,6,0,L|276:389,1,84
28,36,39096,1,0,0:0:0:0:
407,81,39471,5,0,0:0:0:0:
379,63,39564,2,0,P|328:68|293:85,1,57.7500017623902
274,151,39752,1,0,0:0:0:0:
246,169,39845,2,0,P|195:164|160:147,1,57.7500017623902
110,78,40033,1,0,0:0:0:0:
92,54,40127,6,0,L|93:122,1,57.7500017623902
119,266,40314,1,0,0:0:0:0:
137,290,40408,2,0,L|136:222,1,57.7500017623902
199,76,40596,1,0,0:0:0:0:
238,72,40689,1,0,0:0:0:0:
278,67,40783,1,0,0:0:0:0:
318,64,40877,1,0,0:0:0:0:
406,62,40971,5,0,0:0:0:0:
427,83,41064,2,0,P|426:124|411:154,1,57.7500017623902
274,238,41252,1,0,0:0:0:0:
281,209,41345,2,0,P|317:189|350:187,1,57.7500017623902
492,258,41533,1,0,0:0:0:0:
463,266,41627,6,0,P|427:244|409:216,1,57.7500017623902
269,335,41814,1,0,0:0:0:0:
298,343,41908,2,0,P|333:321|351:293,1,57.7500017623902
398,141,42096,1,0,0:0:0:0:
389,119,42189,1,0,0:0:0:0:
302,68,42283,5,0,0:0:0:0:
308,47,42377,1,0,0:0:0:0:
195,28,42471,6,0,P|189:90|218:135,1,115.50000352478
216,133,42752,1,0,0:0:0:0:
298,205,42846,2,0,P|304:162|314:134,1,57.7500017623902
207,233,43033,2,0,P|214:260|217:289,1,57.7500017623902
309,303,43221,6,0,P|347:286|379:286,1,57.7500017623902
460,216,43408,2,0,P|431:211|406:197,1,57.7500017623902
294,59,43596,2,0,P|312:96|319:131,1,57.7500017623902
483,76,43783,2,0,P|465:113|458:148,1,57.7500017623902
327,206,43971,5,0,0:0:0:0:
298,205,44064,1,0,0:0:0:0:
270,196,44158,1,0,0:0:0:0:
248,176,44252,1,0,0:0:0:0:
196,117,44346,5,0,0:0:0:0:
156,108,44439,1,0,0:0:0:0:
116,114,44533,1,0,0:0:0:0:
82,136,44627,1,0,0:0:0:0:
56,227,44721,5,0,0:0:0:0:
46,307,44814,1,0,0:0:0:0:
119,341,44908,1,0,0:0:0:0:
174,282,45002,1,0,0:0:0:0:
135,211,45096,6,0,P|150:195|162:174,6,28.8750008811951
178,107,45471,6,0,B|212:121|228:135|228:135|265:115|317:113,1,146.999995513916
428,161,45752,2,0,B|394:147|378:133|378:133|341:153|289:155,1,146.999995513916
222,219,46033,1,0,0:0:0:0:
217,242,46127,1,0,0:0:0:0:
359,309,46221,6,0,P|320:257|295:309,1,146.999995513916
301,316,46502,1,0,0:0:0:0:
301,316,46596,6,0,B|351:206|261:205|324:93,1,220.499993270874
395,166,46971,5,0,0:0:0:0:
343,49,47158,1,0,0:0:0:0:
335,66,47252,1,0,0:0:0:0:
328,83,47346,1,0,0:0:0:0:
253,155,47533,5,0,0:0:0:0:
245,138,47627,1,0,0:0:0:0:
238,121,47721,1,0,0:0:0:0:
167,45,47908,5,0,0:0:0:0:
159,62,48002,1,0,0:0:0:0:
152,79,48096,1,0,0:0:0:0:
61,146,48283,5,0,0:0:0:0:
63,164,48377,1,0,0:0:0:0:
65,182,48471,6,0,P|113:213|160:212,1,94.499997116089
186,200,48752,1,0,0:0:0:0:
186,200,48846,6,0,P|206:271|193:322,1,94.499997116089
187,322,49127,1,0,0:0:0:0:
187,322,49221,6,0,P|241:304|296:312,1,94.499997116089
357,328,49502,1,0,0:0:0:0:
365,344,49595,1,0,0:0:0:0:
465,200,49783,5,0,0:0:0:0:
462,218,49877,1,0,0:0:0:0:
456,236,49971,6,0,P|400:239|364:203,1,94.499997116089
339,147,50252,1,0,0:0:0:0:
339,147,50346,6,0,P|288:133|244:157,1,94.499997116089
217,216,50627,1,0,0:0:0:0:
217,216,50721,6,0,P|228:147|226:97,1,94.499997116089
142,64,51002,1,0,0:0:0:0:
142,64,51096,6,0,P|131:133|133:183,1,94.499997116089
222,33,51377,1,0,0:0:0:0:
247,42,51471,5,0,0:0:0:0:
336,152,51658,5,0,0:0:0:0:
341,133,51752,1,0,0:0:0:0:
346,114,51846,1,0,0:0:0:0:
445,222,52033,5,0,0:0:0:0:
440,203,52127,1,0,0:0:0:0:
435,184,52221,1,0,0:0:0:0:
308,293,52408,5,0,0:0:0:0:
313,274,52502,1,0,0:0:0:0:
320,253,52596,5,0,0:0:0:0:
273,250,52689,1,0,0:0:0:0:
225,250,52783,1,0,0:0:0:0:
177,249,52877,1,0,0:0:0:0:
95,248,52971,5,0,0:0:0:0:
95,248,53158,1,0,0:0:0:0:
95,248,53346,1,0,0:0:0:0:
95,248,53533,1,0,0:0:0:0:
146,133,53721,5,0,0:0:0:0:
182,140,53908,1,0,0:0:0:0:
219,147,54096,1,0,0:0:0:0:
255,154,54283,1,0,0:0:0:0:
347,251,54471,5,0,0:0:0:0:
262,262,54658,1,0,0:0:0:0:
177,272,54846,1,0,0:0:0:0:
92,279,55033,1,0,0:0:0:0:
55,142,55221,5,0,0:0:0:0:
206,143,55408,2,0,P|210:166|212:206,2,47.2499985580445
130,19,55783,1,0,0:0:0:0:
64,196,55971,6,0,P|34:204|15:209,7,36.749998878479
140,236,56721,6,0,P|170:244|189:249,7,36.749998878479
61,268,57471,6,0,P|53:326|124:254,1,257.249992149353
87,187,58221,5,0,0:0:0:0:
104,51,58408,1,0,0:0:0:0:
115,73,58502,2,0,L|105:193,1,94.499997116089
288,345,58971,6,0,P|313:301|311:258,1,68.2499968757631
320,122,59158,5,0,0:0:0:0:
230,140,59252,2,0,P|201:184|196:221,1,68.2499968757631
401,282,59439,5,0,0:0:0:0:
443,200,59533,2,0,P|427:149|401:122,1,68.2499968757631
272,58,59721,5,0,0:0:0:0:
230,140,59814,2,0,P|245:190|271:217,1,68.2499968757631
512,130,60002,5,0,0:0:0:0:
455,57,60096,2,0,P|402:50|367:61,1,68.2499968757631
236,290,60283,5,0,0:0:0:0:
324,264,60377,2,0,P|349:218|352:180,1,68.2499968757631
142,64,60564,5,0,0:0:0:0:
89,139,60658,2,0,P|97:190|119:221,1,68.2499968757631
380,155,60846,5,0,0:0:0:0:
337,73,60940,2,0,P|286:57|249:62,1,68.2499968757631
198,338,61127,5,0,0:0:0:0:
289,321,61221,2,0,P|323:277|286:164,1,136.499993751526
318,199,61502,1,0,0:0:0:0:
173,226,61596,6,0,P|221:242|259:237,1,68.2499968757631
405,156,61783,2,0,P|331:107|263:136,1,136.499993751526
59,300,62158,6,0,P|44:245|50:212,1,57.7500017623902
156,75,62346,2,0,P|193:65|219:53,2,57.7500017623902
43,89,62627,1,0,0:0:0:0:
43,89,62721,6,0,P|61:145|120:187,1,115.50000352478
103,180,63002,1,0,0:0:0:0:
204,162,63096,2,0,P|245:165|271:177,1,57.7500017623902
177,250,63283,2,0,P|201:283|208:310,1,57.7500017623902
53,320,63471,6,0,P|105:316|142:301,1,57.7500017623902
343,263,63658,2,0,B|291:259|254:244,1,57.7500017623902
141,42,63846,2,0,P|125:90|125:120,1,57.7500017623902
177,250,64033,2,0,P|224:268|254:270,1,57.7500017623902
386,132,64221,2,0,P|310:84|246:98,1,115.50000352478
287,84,64502,1,0,0:0:0:0:
310,178,64596,5,0,0:0:0:0:
266,252,64689,1,0,0:0:0:0:
177,250,64783,1,0,0:0:0:0:
129,177,64877,1,0,0:0:0:0:
169,100,64971,6,0,P|224:91|256:76,1,68.2499968757631
18,56,65158,5,0,0:0:0:0:
6,146,65252,2,0,P|26:188|55:217,1,68.2499968757631
267,38,65439,5,0,0:0:0:0:
184,0,65533,2,0,P|137:6|101:26,1,68.2499968757631
177,250,65721,5,0,0:0:0:0:
259,210,65815,2,0,P|283:170|291:130,1,68.2499968757631
88,115,66002,5,0,0:0:0:0:
58,201,66096,2,0,P|68:246|91:280,1,68.2499968757631
377,204,66283,5,0,0:0:0:0:
323,130,66377,2,0,P|279:112|238:111,1,68.2499968757631
199,349,66564,5,0,0:0:0:0:
256,277,66658,2,0,P|261:230|252:190,1,68.2499968757631
47,135,66846,5,0,0:0:0:0:
91,215,66940,2,0,P|131:237|171:245,1,68.2499968757631
414,123,67127,5,0,0:0:0:0:
360,48,67221,2,0,P|276:53|236:104,1,136.499993751526
295,190,67502,2,0,P|320:145|322:111,1,68.2499968757631
212,170,67689,5,0,0:0:0:0:
232,256,67783,2,0,P|300:283|367:253,1,136.499993751526
502,361,68158,6,0,P|465:346|436:339,1,57.7500017623902
220,352,68346,2,0,P|247:343|274:332,2,57.7500017623902
348,216,68627,1,0,0:0:0:0:
368,233,68721,2,0,P|373:296|359:349,1,115.50000352478
360,346,69002,1,0,0:0:0:0:
261,247,69096,2,0,P|228:252|196:247,1,57.7500017623902
65,320,69283,2,0,P|98:315|130:320,1,57.7500017623902
88,116,69471,5,0,0:0:0:0:
83,144,69564,1,0,0:0:0:0:
77,172,69658,1,0,0:0:0:0:
72,200,69752,1,0,0:0:0:0:
66,228,69846,2,0,P|106:217|136:195,1,57.7500017623902
256,131,70033,2,0,P|231:117|203:112,1,57.7500017623902
222,280,70221,5,0,0:0:0:0:
250,277,70314,1,0,0:0:0:0:
278,269,70408,1,0,0:0:0:0:
304,256,70502,1,0,0:0:0:0:
365,199,70596,5,0,0:0:0:0:
450,197,70689,1,0,0:0:0:0:
490,273,70783,1,0,0:0:0:0:
443,346,70877,1,0,0:0:0:0:
354,342,70971,6,0,B|315:316|292:310|292:310|259:321|230:342|230:342|201:350|155:348,1,204.749990627289
136,211,71346,2,0,B|150:263|139:286|139:286|129:316|166:387,1,136.499993751526
65,259,71627,1,0,0:0:0:0:
50,211,71721,6,0,B|57:167|66:141|66:141|101:137|140:123,1,136.499993751526
178,286,72002,2,0,B|136:301|109:307|109:307|88:278|56:252,1,136.499993751526
175,141,72283,2,0,B|209:169|227:189|227:189|213:222|206:262,1,136.499993751526
268,98,72658,5,0,0:0:0:0:
268,98,72752,1,0,0:0:0:0:
268,98,72846,2,0,P|314:105|351:24,1,136.499993751526
126,55,73221,6,0,P|93:71|55:75,1,68.2499968757631
190,147,73408,1,0,0:0:0:0:
203,171,73502,2,0,P|233:186|267:191,1,68.2499968757631
118,235,73689,1,0,0:0:0:0:
105,259,73783,2,0,P|74:274|40:279,1,68.2499968757631
53,155,73971,6,0,P|114:121|178:148,1,115.50000352478
243,251,74252,1,0,0:0:0:0:
243,251,74346,2,0,P|283:253|315:245,1,57.7500017623902
380,161,74533,2,0,P|340:163|308:155,1,57.7500017623902
210,24,74721,6,0,B|193:84|193:84|214:145,1,115.50000352478
343,69,75002,1,0,0:0:0:0:
343,69,75096,2,0,L|283:76,1,57.7500017623902
153,100,75283,2,0,L|95:81,1,57.7500017623902
96,171,75471,5,0,0:0:0:0:
210,24,75658,1,0,0:0:0:0:
286,184,75846,2,0,P|278:248|229:293,1,115.50000352478
77,206,76221,5,0,0:0:0:0:
116,214,76314,1,0,0:0:0:0:
156,213,76408,1,0,0:0:0:0:
196,207,76502,1,0,0:0:0:0:
227,117,76596,5,0,0:0:0:0:
310,98,76689,1,0,0:0:0:0:
373,157,76783,1,0,0:0:0:0:
357,242,76877,1,0,0:0:0:0:
282,296,76971,5,0,0:0:0:0:
259,297,77064,1,0,0:0:0:0:
235,297,77158,1,0,0:0:0:0:
211,297,77252,1,0,0:0:0:0:
124,298,77346,6,0,P|151:230|201:211,1,115.50000352478
186,212,77627,1,0,0:0:0:0:
282,208,77721,2,0,P|288:164|288:135,2,57.7500017623902
188,117,78096,6,0,L|62:113,1,115.50000352478
14,212,78377,1,0,0:0:0:0:
14,212,78471,6,0,P|64:200|84:180,1,57.7500017623902
144,136,78658,2,0,P|152:85|141:59,1,57.7500017623902
288,0,78846,6,0,P|273:49|280:76,1,57.7500017623902
288,150,79033,2,0,P|327:182|355:186,1,57.7500017623902
457,65,79221,6,0,P|400:66|356:92,1,68.2499968757631
206,223,79408,5,0,0:0:0:0:
258,295,79502,2,0,P|301:300|330:291,1,68.2499968757631
152,146,79689,5,0,0:0:0:0:
117,226,79783,2,0,P|127:273|151:297,1,68.2499968757631
246,141,79971,6,0,P|212:66|131:60,1,136.499993751526
80,88,80252,1,0,0:0:0:0:
80,88,80346,2,0,P|26:83|8:71,1,68.2499968757631
127,208,80533,2,0,P|151:154|151:121,1,68.2499968757631
46,273,80721,6,0,P|113:233|179:270,1,136.499993751526
209,321,81002,1,0,0:0:0:0:
209,321,81096,5,0,0:0:0:0:
289,313,81189,1,0,0:0:0:0:
325,239,81283,1,0,0:0:0:0:
291,164,81377,1,0,0:0:0:0:
202,166,81471,5,0,0:0:0:0:
458,350,81846,1,0,0:0:0:0:
475,61,82221,1,0,0:0:0:0:
341,184,82596,5,0,0:0:0:0:
343,197,82689,1,0,0:0:0:0:
345,210,82783,1,0,0:0:0:0:
347,223,82877,1,0,0:0:0:0:
348,238,82971,6,0,P|383:251|403:250,1,52.5
265,309,83158,1,0,0:0:0:0:
265,309,83252,1,0,0:0:0:0:
265,309,83346,2,0,P|241:274|236:249,1,52.5
228,174,83533,2,0,P|255:141|277:129,1,52.5
434,91,83721,6,0,P|400:88|371:81,1,52.5
229,0,83908,1,0,0:0:0:0:
229,0,84002,1,0,0:0:0:0:
229,0,84096,2,0,P|205:35|200:60,1,52.5
193,137,84283,2,0,P|220:169|242:181,1,52.5
376,228,84471,6,0,P|368:182|368:160,1,52.5
283,295,84658,1,0,0:0:0:0:
283,295,84752,1,0,0:0:0:0:
283,295,84846,2,0,P|307:328|330:339,1,52.5
412,339,85033,2,0,P|450:324|466:304,1,52.5
376,63,85221,6,0,P|353:70|316:74,1,52.5
133,235,85408,2,0,P|159:238|184:245,1,52.5
433,209,85596,1,0,0:0:0:0:
395,180,85689,1,0,0:0:0:0:
348,171,85783,1,0,0:0:0:0:
301,180,85877,1,0,0:0:0:0:
266,212,85971,6,0,P|260:171|243:137,1,52.5
171,342,86158,1,0,0:0:0:0:
171,342,86252,1,0,0:0:0:0:
171,342,86346,2,0,P|201:316|228:311,1,52.5
321,312,86533,2,0,P|344:322|362:341,1,52.5
158,222,86721,6,0,P|163:189|181:151,1,52.5
349,50,86908,1,0,0:0:0:0:
349,50,87002,1,0,0:0:0:0:
349,50,87096,2,0,P|316:75|295:81,1,52.5
202,76,87283,2,0,P|178:65|158:47,1,52.5
281,178,87471,6,0,P|312:170|360:175,1,52.5
437,278,87658,1,0,0:0:0:0:
437,278,87752,1,0,0:0:0:0:
437,278,87846,2,0,P|457:241|461:212,1,52.5
458,128,88033,2,0,P|446:104|428:85,1,52.5
324,317,88221,6,0,L|318:262,1,52.5
202,76,88408,1,0,0:0:0:0:
190,159,88502,1,0,0:0:0:0:
175,245,88596,6,0,L|191:152,1,87.5
421,98,88971,6,0,L|360:110,1,52.5
276,126,89158,1,0,0:0:0:0:
443,173,89346,6,0,L|382:185,1,52.5
298,201,89533,1,0,0:0:0:0:
464,249,89721,6,0,L|403:261,1,52.5
319,277,89908,1,0,0:0:0:0:
486,324,90096,6,0,L|425:336,1,52.5
341,352,90283,1,0,0:0:0:0:
17,264,90471,6,0,L|37:215,1,52.5
75,128,90658,1,0,0:0:0:0:
91,288,90846,6,0,L|111:239,1,52.5
149,152,91033,1,0,0:0:0:0:
166,313,91221,6,0,L|186:264,1,52.5
224,177,91408,6,0,P|255:196|271:218,1,52.5
285,343,91596,2,0,P|285:306|297:281,1,52.5
398,207,91783,2,0,P|366:224|338:227,1,52.5
86,59,91971,6,0,L|147:71,1,52.5
231,87,92158,1,0,0:0:0:0:
64,134,92346,6,0,L|125:146,1,52.5
209,162,92533,1,0,0:0:0:0:
43,210,92721,6,0,L|104:222,1,52.5
188,238,92908,1,0,0:0:0:0:
21,285,93096,6,0,L|82:297,1,52.5
166,313,93283,1,0,0:0:0:0:
354,172,93471,6,0,L|329:291,1,105
332,274,93752,1,0,0:0:0:0:
351,368,93846,2,0,P|391:352|412:333,1,52.5
245,298,94033,2,0,P|256:321|272:341,1,52.5
437,226,94221,1,0,0:0:0:0:
452,199,94314,1,0,0:0:0:0:
444,117,94408,6,0,L|430:48,1,68.2499968757631
354,172,94596,2,0,L|340:103,1,68.2499968757631
267,214,94783,2,0,L|253:145,1,68.2499968757631
144,93,94971,5,0,0:0:0:0:
144,93,95346,2,0,L|134:209,1,105
134,197,96096,2,0,P|154:192|163:190,2,26.25
386,54,96658,5,0,0:0:0:0:
386,54,96846,2,0,B|391:87|391:87|386:114|386:114|389:141,1,78.75
401,156,97221,6,0,P|409:176|410:186,1,26.25
371,182,97408,2,0,P|370:203|367:213,1,26.25
287,219,97596,6,0,P|292:206|297:198,6,13.125
351,289,97971,5,0,0:0:0:0:
351,289,98346,2,0,P|310:315|255:311,1,105
255,311,98908,2,0,P|248:331|245:343,2,26.25
285,232,99283,1,0,0:0:0:0:
112,162,99471,6,0,L|72:173,1,26.25
123,188,99658,2,0,L|89:212,1,26.25
147,211,99846,2,0,L|119:242,2,26.25
243,53,100221,6,0,B|250:81|271:107|271:107|225:124|225:124|268:156|257:230,1,204.749990627289
260,244,100596,6,0,P|280:245|299:249,1,36.749998878479
250,269,100783,2,0,P|231:272|213:273,1,36.749998878479
363,332,100971,6,0,P|413:285|412:223,1,105
391,173,101252,2,0,P|385:134|390:102,1,52.5
250,269,101439,1,0,0:0:0:0:
281,250,101533,2,0,P|321:249|351:254,1,52.5
181,332,101721,1,0,0:0:0:0:
150,351,101815,2,0,P|110:352|80:347,1,52.5
277,358,102002,1,0,0:0:0:0:
296,346,102096,5,0,0:0:0:0:
295,303,102190,1,0,0:0:0:0:
293,260,102284,1,0,0:0:0:0:
290,217,102378,1,0,0:0:0:0:
284,175,102471,6,0,P|241:172|220:179,1,52.5
380,227,102658,1,0,0:0:0:0:
401,197,102752,2,0,P|406:164|397:130,2,52.5
317,44,103033,1,0,0:0:0:0:
310,60,103127,1,0,0:0:0:0:
272,158,103221,6,0,P|323:139|379:166,1,105
401,197,103502,1,0,0:0:0:0:
417,216,103596,5,0,0:0:0:0:
452,194,103689,1,0,0:0:0:0:
470,156,103783,1,0,0:0:0:0:
461,114,103877,1,0,0:0:0:0:
395,60,103971,6,0,B|353:66|353:66|277:52,1,105
264,42,104252,1,0,0:0:0:0:
186,93,104346,2,0,L|197:154,1,52.5
173,3,104533,2,0,L|115:21,1,52.5
21,61,104721,5,0,0:0:0:0:
117,243,104908,1,0,0:0:0:0:
128,224,105002,1,0,0:0:0:0:
146,131,105096,6,0,P|101:136|67:157,1,52.5
2,304,105283,2,0,P|47:309|81:330,1,52.5
201,361,105471,6,0,P|255:316|230:260,1,105
242,267,105752,1,0,0:0:0:0:
128,224,105846,2,0,P|101:233|57:236,1,52.5
216,149,106033,2,0,P|241:152|266:161,1,52.5
358,277,106221,6,0,P|352:317|340:346,2,52.5
353,253,106502,1,0,0:0:0:0:
307,175,106596,5,0,0:0:0:0:
359,103,106689,1,0,0:0:0:0:
442,135,106783,1,0,0:0:0:0:
438,224,106877,1,0,0:0:0:0:
353,253,106971,6,0,B|309:272|262:250|262:250|236:253|203:276|203:276,1,146.999995513916
169,331,107252,2,0,B|158:324|191:347|217:350|217:350|264:328|308:347,1,146.999995513916
454,338,107533,1,0,0:0:0:0:
471,348,107627,1,0,0:0:0:0:
487,359,107721,6,0,B|469:257|469:257|473:198,1,146.999995513916
511,255,108002,1,0,0:0:0:0:
511,255,108096,6,0,B|392:317|390:197|279:264,1,236.250009012223
221,328,108471,5,0,0:0:0:0:
114,237,108658,5,0,0:0:0:0:
121,219,108752,1,0,0:0:0:0:
129,201,108846,1,0,0:0:0:0:
253,193,109033,5,0,0:0:0:0:
246,175,109127,1,0,0:0:0:0:
238,157,109221,1,0,0:0:0:0:
142,83,109408,5,0,0:0:0:0:
149,65,109502,1,0,0:0:0:0:
157,47,109596,1,0,0:0:0:0:
281,39,109783,5,0,0:0:0:0:
274,21,109877,1,0,0:0:0:0:
265,2,109971,6,0,P|336:16|390:5,1,94.499997116089
442,7,110252,1,0,0:0:0:0:
442,7,110346,6,0,P|454:84|441:115,1,94.499997116089
381,153,110627,1,0,0:0:0:0:
381,153,110721,6,0,P|325:141|260:159,1,94.499997116089
225,202,111002,1,0,0:0:0:0:
225,202,111096,6,0,P|253:156|250:95,1,94.499997116089
183,58,111377,1,0,0:0:0:0:
173,73,111471,6,0,P|97:83|56:71,1,94.499997116089
33,17,111752,1,0,0:0:0:0:
33,17,111846,6,0,P|41:86|31:152,1,94.499997116089
0,202,112127,1,0,0:0:0:0:
0,202,112220,6,0,P|51:228|87:231,1,94.499997116089
204,177,112502,1,0,0:0:0:0:
204,177,112596,6,0,P|218:228|213:273,1,94.499997116089
103,373,112877,1,0,0:0:0:0:
103,373,112971,6,0,P|172:354|210:359,1,94.499997116089
303,360,113252,1,0,0:0:0:0:
311,376,113346,5,0,0:0:0:0:
406,257,113533,5,0,0:0:0:0:
403,275,113627,1,0,0:0:0:0:
400,293,113721,1,0,0:0:0:0:
278,196,113908,5,0,0:0:0:0:
281,214,114002,1,0,0:0:0:0:
284,232,114096,1,0,0:0:0:0:
401,85,114283,5,0,0:0:0:0:
398,103,114377,1,0,0:0:0:0:
377,192,114471,5,0,0:0:0:0:
278,196,114658,1,0,0:0:0:0:
203,154,114846,1,0,0:0:0:0:
149,101,115033,1,0,0:0:0:0:
92,100,115221,5,0,0:0:0:0:
74,107,115408,1,0,0:0:0:0:
92,100,115596,1,0,0:0:0:0:
149,101,115783,1,0,0:0:0:0:
203,154,115971,5,0,0:0:0:0:
274,196,116158,1,0,0:0:0:0:
377,192,116346,1,0,0:0:0:0:
441,110,116533,1,0,0:0:0:0:
399,14,116721,5,0,0:0:0:0:
267,13,116908,1,0,0:0:0:0:
191,122,117096,1,0,0:0:0:0:
195,149,117189,1,0,0:0:0:0:
200,176,117283,1,0,0:0:0:0:
204,203,117377,1,0,0:0:0:0:
214,253,117471,6,0,P|160:269|75:256,1,110.249996635437
78,253,117846,6,0,P|61:275|53:287,3,36.749998878479
88,146,118221,6,0,P|142:130|227:143,1,110.249996635437
224,146,118596,6,0,P|241:124|249:112,3,36.749998878479
326,248,118971,6,0,L|314:362,1,110.249996635437
276,324,119346,6,0,P|251:319|229:313,3,36.749998878479
95,196,119721,5,0,0:0:0:0:
393,88,120096,1,0,0:0:0:0:
156,26,120471,6,0,P|142:71|145:105,1,68.2499968757631
324,266,120658,5,0,0:0:0:0:
390,194,120752,2,0,P|396:145|382:109,1,68.2499968757631
130,182,120939,5,0,0:0:0:0:
168,271,121033,2,0,P|210:296|248:298,1,68.2499968757631
309,45,121221,5,0,0:0:0:0:
212,30,121315,2,0,P|168:52|146:84,1,68.2499968757631
310,274,121502,5,0,0:0:0:0:
305,177,121596,2,0,P|273:138|238:123,1,68.2499968757631
78,283,121783,5,0,0:0:0:0:
142,354,121877,2,0,P|190:364|227:353,1,68.2499968757631
169,92,122064,5,0,0:0:0:0:
77,121,122158,2,0,P|47:160|42:199,1,68.2499968757631
397,181,122346,5,0,0:0:0:0:
358,92,122440,2,0,P|315:67|276:66,1,68.2499968757631
179,209,122627,5,0,0:0:0:0:
218,298,122721,2,0,P|301:318|360:275,1,136.499993751526
342,295,123002,1,0,0:0:0:0:
276,158,123096,6,0,P|273:197|286:236,1,68.2499968757631
397,181,123283,2,0,P|400:108|351:55,1,136.499993751526
170,129,123658,6,0,P|126:124|100:116,1,57.7500017623902
31,275,123846,2,0,P|59:268|87:266,2,57.7500017623902
155,332,124127,1,0,0:0:0:0:
176,341,124221,6,0,P|202:273|183:208,1,115.50000352478
176,215,124502,1,0,0:0:0:0:
67,182,124596,2,0,P|65:149|69:113,1,57.7500017623902
179,44,124783,2,0,P|181:77|177:113,1,57.7500017623902
39,292,124971,6,0,P|66:279|112:272,1,57.7500017623902
318,223,125158,2,0,P|291:210|245:203,1,57.7500017623902
45,163,125346,2,0,P|73:156|98:143,1,57.7500017623902
318,103,125533,2,0,P|289:96|264:83,1,57.7500017623902
138,9,125721,6,0,P|129:96|128:140,1,115.50000352478
128,123,126002,1,0,0:0:0:0:
183,205,126096,5,0,0:0:0:0:
278,222,126189,1,0,0:0:0:0:
363,172,126283,1,0,0:0:0:0:
378,74,126377,1,0,0:0:0:0:
308,4,126471,6,0,P|268:16|237:39,1,68.2499968757631
183,205,126658,5,0,0:0:0:0:
212,295,126752,2,0,P|245:318|286:322,1,68.2499968757631
186,97,126939,5,0,0:0:0:0:
97,130,127033,2,0,P|75:164|73:205,1,68.2499968757631
362,231,127221,5,0,0:0:0:0:
359,136,127315,2,0,P|333:104|295:89,1,68.2499968757631
125,302,127502,5,0,0:0:0:0:
209,345,127596,2,0,P|248:337|280:311,1,68.2499968757631
204,95,127783,5,0,0:0:0:0:
170,183,127877,2,0,P|181:221|210:250,1,68.2499968757631
442,114,128064,5,0,0:0:0:0:
368,53,128158,2,0,P|327:51|291:70,1,68.2499968757631
340,293,128346,5,0,0:0:0:0:
379,205,128440,2,0,P|369:165|342:135,1,68.2499968757631
111,320,128627,5,0,0:0:0:0:
209,345,128721,2,0,P|253:284|249:208,1,136.499993751526
112,209,129002,2,0,P|140:237|166:254,1,68.2499968757631
195,142,129189,5,0,0:0:0:0:
97,109,129283,2,0,P|28:146|14:220,1,136.499993751526
172,0,129658,6,0,P|168:37|171:75,1,57.7500017623902
260,216,129846,2,0,P|296:211|334:209,2,57.7500017623902
195,142,130127,1,0,0:0:0:0:
224,121,130221,6,0,P|290:122|366:105,1,115.50000352478
338,113,130502,1,0,0:0:0:0:
382,201,130596,2,0,P|406:186|424:164,1,57.7500017623902
427,68,130783,2,0,P|407:46|382:34,1,57.7500017623902
294,192,130971,5,0,0:0:0:0:
301,231,131064,1,0,0:0:0:0:
307,270,131158,1,0,0:0:0:0:
315,309,131252,1,0,0:0:0:0:
319,349,131346,6,0,P|349:347|382:351,1,57.7500017623902
224,296,131533,2,0,P|195:298|166:296,1,57.7500017623902
78,347,131721,5,0,0:0:0:0:
59,304,131814,1,0,0:0:0:0:
65,258,131908,1,0,0:0:0:0:
94,222,132002,1,0,0:0:0:0:
179,196,132096,5,0,0:0:0:0:
246,142,132189,1,0,0:0:0:0:
229,56,132283,1,0,0:0:0:0:
145,31,132377,1,0,0:0:0:0:
87,98,132471,6,0,B|87:108|53:113|53:113|150:160|139:79|249:126,1,204.749990627289
325,130,132846,2,0,B|346:158|346:158|231:148|194:118,1,136.499993751526
315,39,133127,1,0,0:0:0:0:
351,47,133221,6,0,B|385:68|413:73|413:73|409:124|412:166,1,136.499993751526
237,148,133502,2,0,B|238:108|228:81|228:81|274:59|309:35,1,136.499993751526
386,195,133783,2,0,B|350:213|332:235|332:235|290:206|252:188,1,136.499993751526
112,96,134158,5,0,0:0:0:0:
112,96,134252,1,0,0:0:0:0:
112,96,134346,2,0,P|94:170|123:232,1,136.499993751526
251,131,134721,6,0,P|205:143|179:159,1,68.2499968757631
336,235,134908,1,0,0:0:0:0:
351,213,135002,2,0,P|384:219|414:235,1,68.2499968757631
245,304,135189,1,0,0:0:0:0:
230,282,135283,2,0,P|196:288|166:304,1,68.2499968757631
361,348,135471,6,0,L|361:201,1,115.50000352478
296,104,135752,1,0,0:0:0:0:
281,127,135846,2,0,P|306:141|347:145,1,57.7500017623902
467,71,136033,2,0,P|438:75|413:89,1,57.7500017623902
466,280,136221,6,0,P|478:229|470:156,1,115.50000352478
472,166,136502,1,0,0:0:0:0:
329,232,136596,2,0,P|380:219|404:220,1,57.7500017623902
225,113,136783,2,0,P|276:126|300:125,1,57.7500017623902
207,272,136971,6,0,P|222:230|238:211,1,57.7500017623902
346,56,137158,2,0,P|361:80|368:108,1,57.7500017623902
397,325,137346,2,0,P|339:280|296:274,1,115.50000352478
137,339,137627,1,0,0:0:0:0:
113,340,137721,5,0,0:0:0:0:
82,305,137814,1,0,0:0:0:0:
77,258,137908,1,0,0:0:0:0:
86,212,138002,1,0,0:0:0:0:
183,186,138096,5,0,0:0:0:0:
253,127,138189,1,0,0:0:0:0:
222,39,138283,1,0,0:0:0:0:
129,38,138377,1,0,0:0:0:0:
97,131,138471,5,0,0:0:0:0:
123,122,138564,1,0,0:0:0:0:
150,113,138658,1,0,0:0:0:0:
177,105,138752,1,0,0:0:0:0:
252,78,138846,6,0,P|265:150|256:204,1,115.50000352478
259,191,139127,1,0,0:0:0:0:
217,278,139221,2,0,P|247:289|287:293,2,57.7500017623902
57,232,139596,2,0,P|123:212|171:189,1,115.50000352478
165,192,139877,1,0,0:0:0:0:
204,108,139971,6,0,P|238:127|256:155,1,57.7500017623902
259,229,140158,2,0,P|238:261|209:278,1,57.7500017623902
32,292,140346,6,0,P|31:253|46:223,1,57.7500017623902
109,183,140533,2,0,P|147:184|176:201,1,57.7500017623902
338,324,140721,6,0,P|355:278|355:236,1,57.7500017623902
285,13,140908,5,0,0:0:0:0:
218,74,141002,2,0,P|218:125|228:153,1,57.7500017623902
405,192,141189,5,0,0:0:0:0:
366,110,141283,2,0,P|317:95|287:96,1,57.7500017623902
219,273,141471,6,0,P|148:283|91:274,1,115.50000352478
23,212,141752,1,0,0:0:0:0:
23,212,141846,2,0,P|65:194|96:194,1,57.7500017623902
227,152,142033,2,0,P|198:146|173:132,1,57.7500017623902
66,0,142221,6,0,B|62:42|60:83|60:83|73:101|84:113,1,115.50000352478
155,28,142502,1,0,0:0:0:0:
172,43,142596,2,0,P|206:48|241:44,1,57.7500017623902
381,101,142783,2,0,P|352:99|323:104,1,57.7500017623902
164,243,142971,6,0,P|207:194|306:206,1,136.499993751526
274,188,143252,1,0,0:0:0:0:
264,369,143346,6,0,P|200:356|160:264,1,136.499993751526
161,300,143627,1,0,0:0:0:0:
325,219,143721,6,0,P|345:280|286:360,1,136.499993751526
316,342,144002,1,0,0:0:0:0:
255,278,144096,5,0,0:0:0:0:
295,270,144189,1,0,0:0:0:0:
335,262,144283,1,0,0:0:0:0:
375,253,144377,1,0,0:0:0:0:
414,242,144471,6,0,P|401:174|306:130,1,173.250005287171
224,115,144846,2,0,P|287:102|333:56,1,115.50000352478
105,33,145221,6,0,L|88:212,1,173.250005287171
95,288,145596,2,0,L|58:156,1,115.50000352478
205,282,145971,6,0,P|262:246|361:284,1,173.250005287171
431,230,146346,2,0,P|364:237|315:203,1,115.50000352478
205,62,146721,6,0,L|388:88,1,173.250005287171
452,93,147096,2,0,L|326:122,1,115.50000352478
147,347,147471,6,0,B|174:263|174:263|150:168,1,173.250005287171
196,100,147846,2,0,B|174:159|174:159|189:235,1,115.50000352478
489,260,148221,6,0,B|403:227|411:300|300:251,1,173.250005287171
253,309,148596,2,0,P|325:299|380:323,1,115.50000352478
461,59,148971,6,0,B|373:89|373:89|264:62,1,173.250005287171
197,112,149346,2,0,B|252:94|252:94|348:112,1,115.50000352478
73,291,149721,6,0,B|32:199|117:188|58:88,1,173.250005287171
124,52,150096,2,0,P|101:117|119:172,1,115.50000352478
438,291,150471,6,0,B|377:284|377:284|320:308|320:308|259:298,1,173.250005287171
195,316,150846,2,0,L|324:341,1,115.50000352478
356,99,151221,6,0,P|267:83|306:134,1,173.250005287171
290,181,151596,2,0,P|309:139|324:198,1,115.50000352478
64,238,151971,6,0,B|125:231|125:231|182:255|182:255|243:245,1,173.250005287171
307,263,152346,2,0,L|178:288,1,115.50000352478
460,118,152721,6,0,P|371:134|410:83,1,173.250005287171
394,36,153096,2,0,P|413:78|428:19,1,115.50000352478
116,24,153471,6,0,B|104:142|104:142|136:192,1,173.250005287171
205,230,153846,2,0,B|214:167|214:167|178:112,1,115.50000352478
118,338,154221,6,0,B|206:323|246:329|246:329|266:347|284:358,1,173.250005287171
376,317,154596,2,0,B|336:323|301:335|301:335|284:320|247:303,1,115.50000352478
477,225,154971,6,0,B|489:107|489:107|457:57,1,173.250005287171
388,19,155346,2,0,B|379:82|379:82|415:137,1,115.50000352478
221,264,155721,6,0,B|151:277|151:277|112:238,1,115.50000352478
58,70,156096,1,0,0:0:0:0:
78,104,156189,2,0,L|116:93,4,28.8750008811951
313,175,156471,6,0,P|321:143|319:110,1,57.7500017623902
278,35,156658,1,0,0:0:0:0:
367,149,156846,6,0,P|361:117|346:87,1,57.7500017623902
278,35,157033,1,0,0:0:0:0:
406,103,157221,6,0,P|388:76|361:55,1,57.7500017623902
278,35,157408,1,0,0:0:0:0:
422,45,157596,6,0,P|394:27|362:19,1,57.7500017623902
278,35,157783,1,0,0:0:0:0:
97,185,157971,6,0,P|119:207|150:222,1,57.7500017623902
235,224,158158,1,0,0:0:0:0:
92,244,158346,6,0,P|122:255|156:256,1,57.7500017623902
235,224,158533,1,0,0:0:0:0:
112,301,158721,6,0,P|144:299|175:286,1,57.7500017623902
235,224,158908,6,0,P|277:214|302:215,1,57.7500017623902
393,309,159096,2,0,P|363:277|351:255,1,57.7500017623902
390,130,159283,2,0,P|377:171|364:192,1,57.7500017623902
142,68,159471,6,0,L|205:55,1,57.7500017623902
288,36,159658,1,0,0:0:0:0:
175,133,159846,6,0,L|224:91,1,57.7500017623902
288,36,160033,1,0,0:0:0:0:
233,175,160221,6,0,L|257:115,1,57.7500017623902
288,36,160408,1,0,0:0:0:0:
305,183,160596,6,0,L|298:118,1,57.7500017623902
288,36,160783,1,0,0:0:0:0:
444,158,160971,6,0,L|423:219,1,57.7500017623902
398,300,161158,1,0,0:0:0:0:
371,154,161346,6,0,L|381:217,1,57.7500017623902
398,300,161533,1,0,0:0:0:0:
305,183,161721,6,0,L|344:233,1,57.7500017623902
398,300,161908,6,0,L|334:313,1,57.7500017623902
257,327,162096,2,0,L|193:340,1,57.7500017623902
120,354,162283,2,0,L|56:367,1,57.7500017623902
26,184,162471,6,0,P|69:165|100:165,1,57.7500017623902
169,176,162658,1,0,0:0:0:0:
49,99,162846,6,0,P|94:108|120:127,1,57.7500017623902
169,176,163033,1,0,0:0:0:0:
118,43,163221,6,0,P|149:78|158:107,1,57.7500017623902
169,176,163408,1,0,0:0:0:0:
205,38,163596,6,0,P|209:84|200:114,1,57.7500017623902
169,176,163783,1,0,0:0:0:0:
337,289,163971,6,0,P|299:261|283:234,1,57.7500017623902
258,169,164158,1,0,0:0:0:0:
251,311,164346,6,0,P|236:266|239:235,1,57.7500017623902
258,169,164533,1,0,0:0:0:0:
168,279,164721,6,0,P|182:234|203:211,1,57.7500017623902
258,169,164908,6,0,P|291:141|309:111,1,57.7500017623902
253,0,165096,2,0,P|260:42|277:73,1,57.7500017623902
404,83,165283,2,0,P|363:68|328:67,1,57.7500017623902
78,218,165471,6,0,L|75:156,1,57.7500017623902
72,67,165658,1,0,0:0:0:0:
166,186,165846,6,0,L|127:137,1,57.7500017623902
72,67,166033,1,0,0:0:0:0:
218,108,166221,6,0,L|158:91,1,57.7500017623902
72,67,166408,1,0,0:0:0:0:
214,14,166596,6,0,L|155:36,1,57.7500017623902
72,67,166783,1,0,0:0:0:0:
332,253,166971,6,0,L|279:286,1,57.7500017623902
204,333,167158,1,0,0:0:0:0:
260,192,167346,6,0,L|237:249,1,57.7500017623902
204,333,167533,1,0,0:0:0:0:
166,186,167721,6,0,L|181:246,1,57.7500017623902
204,333,167908,6,0,P|137:324|109:326,1,57.7500017623902
315,350,168096,2,0,P|339:347|349:345,6,28.8750008811951
414,263,168471,5,0,0:0:0:0:
414,263,168846,1,0,0:0:0:0:
324,192,169221,1,0,0:0:0:0:
82,266,170158,5,0,0:0:0:0:
82,266,170346,1,0,0:0:0:0:
144,180,170721,1,0,0:0:0:0:
190,283,170908,5,0,0:0:0:0:
190,283,171095,1,0,0:0:0:0:
258,196,171283,1,0,0:0:0:0:
344,331,171471,5,0,0:0:0:0:
344,331,171846,1,0,0:0:0:0:
413,239,172221,1,0,0:0:0:0:
308,161,172596,1,0,0:0:0:0:
160,288,173158,5,0,0:0:0:0:
160,288,173346,1,0,0:0:0:0:
35,84,173721,1,0,0:0:0:0:
381,89,174471,5,0,0:0:0:0:
381,89,174846,1,0,0:0:0:0:
307,192,175221,1,0,0:0:0:0:
235,106,175408,5,0,0:0:0:0:
235,106,175596,1,0,0:0:0:0:
189,208,175783,1,0,0:0:0:0:
343,349,176158,5,0,0:0:0:0:
343,349,176346,1,0,0:0:0:0:
261,283,176533,1,0,0:0:0:0:
361,229,176721,1,0,0:0:0:0:
361,229,177283,1,0,0:0:0:0:
242,147,177471,5,0,0:0:0:0:
242,147,177846,1,0,0:0:0:0:
157,246,178221,1,0,0:0:0:0:
242,147,178596,1,0,0:0:0:0:
53,62,179158,5,0,0:0:0:0:
53,62,179346,1,0,0:0:0:0:
242,147,179721,1,0,0:0:0:0:
181,38,179908,1,0,0:0:0:0:
121,146,180096,1,0,0:0:0:0:
126,178,180189,1,0,0:0:0:0:
134,210,180283,1,0,0:0:0:0:
141,242,180377,1,0,0:0:0:0:
152,288,180471,5,0,0:0:0:0:
185,304,180658,1,0,0:0:0:0:
222,306,180846,1,0,0:0:0:0:
258,297,181033,1,0,0:0:0:0:
304,240,181221,5,0,0:0:0:0:
287,273,181408,1,0,0:0:0:0:
258,297,181596,1,0,0:0:0:0:
222,306,181783,1,0,0:0:0:0:
265,93,181971,5,0,0:0:0:0:
312,95,182158,1,0,0:0:0:0:
356,110,182346,1,0,0:0:0:0:
389,143,182533,1,0,0:0:0:0:
403,235,182721,5,0,0:0:0:0:
406,188,182908,2,0,P|420:186|431:184,1,26.25
389,143,183096,1,0,0:0:0:0:
356,110,183283,1,0,0:0:0:0:
48,227,183471,5,0,0:0:0:0:
123,247,183658,1,0,0:0:0:0:
201,236,183846,1,0,0:0:0:0:
251,175,184033,1,0,0:0:0:0:
220,27,184221,5,0,0:0:0:0:
259,96,184408,1,0,0:0:0:0:
251,175,184596,1,0,0:0:0:0:
201,236,184783,1,0,0:0:0:0:
10,173,184971,5,0,0:0:0:0:
44,149,185158,1,0,0:0:0:0:
85,143,185346,1,0,0:0:0:0:
125,153,185533,1,0,0:0:0:0:
167,221,185721,5,0,0:0:0:0:
72,255,185908,2,0,L|74:207,1,26.25
201,93,186096,2,0,L|201:135,3,26.25
261,192,186471,5,0,0:0:0:0:
306,179,186658,1,0,0:0:0:0:
351,166,186846,1,0,0:0:0:0:
396,153,187033,1,0,0:0:0:0:
486,127,187221,5,0,0:0:0:0:
441,140,187408,2,0,L|452:184,1,26.25
396,153,187596,2,0,L|407:197,1,26.25
351,166,187783,1,0,0:0:0:0:
119,38,187971,5,0,0:0:0:0:
129,84,188158,2,0,L|174:74,1,26.25
139,130,188346,1,0,0:0:0:0:
148,176,188533,1,0,0:0:0:0:
167,268,188721,5,0,0:0:0:0:
158,222,188908,2,0,L|114:232,1,26.25
148,176,189096,1,0,0:0:0:0:
139,130,189283,2,0,L|181:119,1,26.25
309,42,189471,5,0,0:0:0:0:
56,227,189846,1,0,0:0:0:0:
350,359,190221,1,0,0:0:0:0:
309,42,190596,1,0,0:0:0:0:
231,121,190783,1,0,0:0:0:0:
337,151,190971,6,0,L|414:147,1,52.5
422,148,191252,1,0,0:0:0:0:
422,148,191346,2,0,L|418:191,1,26.25
361,231,191533,2,0,L|365:274,1,26.25
443,299,191721,1,0,0:0:0:0:
270,225,191908,6,0,L|236:230,1,26.25
307,93,192096,1,0,0:0:0:0:
345,98,192189,1,0,0:0:0:0:
384,103,192283,1,0,0:0:0:0:
422,109,192377,1,0,0:0:0:0:
256,192,193221,12,0,195096,0:0:0:0:
147,72,195471,6,0,P|117:106|107:145,1,68.2499968757631
392,293,195658,5,0,0:0:0:0:
419,201,195752,2,0,P|405:169|381:145,1,68.2499968757631
111,262,195939,5,0,0:0:0:0:
177,331,196033,2,0,P|210:334|243:325,1,68.2499968757631
335,27,196221,5,0,0:0:0:0:
249,67,196314,2,0,P|243:100|250:133,1,68.2499968757631
469,327,196502,5,0,0:0:0:0:
477,232,196595,2,0,P|450:210|418:200,1,68.2499968757631
111,262,196783,5,0,0:0:0:0:
189,316,196876,2,0,P|220:303|245:281,1,68.2499968757631
122,22,197064,5,0,0:0:0:0:
49,84,197158,2,0,P|47:117|57:150,1,68.2499968757631
328,187,197346,5,0,0:0:0:0:
310,92,197440,2,0,P|281:73|248:66,1,68.2499968757631
93,322,197627,5,0,0:0:0:0:
184,353,197721,2,0,P|214:337|241:213,1,136.499993751526
252,247,198002,1,0,0:0:0:0:
141,189,198096,6,0,P|156:246|182:270,1,68.2499968757631
361,266,198283,2,0,P|344:184|274:145,1,136.499993751526
4,328,198658,6,0,L|20:259,1,57.7500017623902
115,22,198846,2,0,L|128:78,2,57.7500017623902
41,153,199127,1,0,0:0:0:0:
26,179,199221,6,0,L|156:169,1,115.50000352478
134,196,199502,1,0,0:0:0:0:
90,292,199596,2,0,L|159:287,1,57.7500017623902
279,87,199783,2,0,L|221:91,1,57.7500017623902
271,236,199971,6,0,P|267:270|262:297,1,57.7500017623902
409,191,200158,2,0,P|412:219|417:248,1,57.7500017623902
279,87,200346,2,0,P|275:121|270:148,1,57.7500017623902
395,40,200533,2,0,P|398:68|403:97,1,57.7500017623902
169,253,200721,6,0,P|221:221|287:254,1,115.50000352478
274,249,201002,1,0,0:0:0:0:
334,320,201096,5,0,0:0:0:0:
425,312,201189,1,0,0:0:0:0:
462,227,201283,1,0,0:0:0:0:
407,152,201377,1,0,0:0:0:0:
314,153,201471,6,0,P|326:105|348:81,1,68.2499968757631
234,337,201658,5,0,0:0:0:0:
142,366,201752,2,0,P|96:346|76:321,1,68.2499968757631
243,88,201939,5,0,0:0:0:0:
314,153,202033,2,0,P|319:202|308:232,1,68.2499968757631
20,227,202221,5,0,0:0:0:0:
40,133,202315,2,0,P|79:103|111:98,1,68.2499968757631
400,281,202502,5,0,0:0:0:0:
314,324,202596,2,0,P|266:312|242:290,1,68.2499968757631
222,35,202783,5,0,0:0:0:0:
302,87,202877,2,0,P|315:134|308:166,1,68.2499968757631
102,300,203064,5,0,0:0:0:0:
107,204,203158,2,0,P|141:168|172:158,1,68.2499968757631
361,0,203346,5,0,0:0:0:0:
410,82,203440,2,0,P|401:130|381:156,1,68.2499968757631
107,204,203627,5,0,0:0:0:0:
175,137,203721,2,0,P|250:152|291:217,1,136.499993751526
285,196,204002,1,0,0:0:0:0:
180,298,204096,6,0,P|185:256|202:225,1,68.2499968757631
358,125,204283,2,0,P|397:190|380:263,1,136.499993751526
61,56,204658,6,0,P|104:46|146:28,1,57.7500017623902
285,196,204846,2,0,P|257:187|229:181,2,57.7500017623902
340,75,205127,1,0,0:0:0:0:
340,75,205221,2,0,P|260:47|202:35,1,115.50000352478
204,56,205502,1,0,0:0:0:0:
127,129,205596,2,0,P|137:171|151:199,1,57.7500017623902
0,269,205783,2,0,P|10:242|15:213,1,57.7500017623902
172,342,205971,5,0,0:0:0:0:
217,334,206064,1,0,0:0:0:0:
262,327,206158,1,0,0:0:0:0:
307,319,206252,1,0,0:0:0:0:
352,310,206346,2,0,P|312:296|280:284,1,57.7500017623902
131,234,206533,2,0,P|171:220|203:208,1,57.7500017623902
334,38,206721,5,0,0:0:0:0:
340,65,206814,1,0,0:0:0:0:
347,93,206908,1,0,0:0:0:0:
354,121,207002,1,0,0:0:0:0:
421,183,207096,5,0,0:0:0:0:
341,216,207189,1,0,0:0:0:0:
264,174,207283,1,0,0:0:0:0:
258,87,207377,1,0,0:0:0:0:
334,38,207471,6,0,B|367:25|411:47|411:47|451:112|532:85,1,204.749990627289
488,255,207846,2,0,P|517:171|476:103,1,136.499993751526
264,174,208127,1,0,0:0:0:0:
251,201,208221,6,0,B|290:206|356:176|356:176|360:230,1,136.499993751526
289,329,208502,2,0,B|273:292|214:250|214:250|259:220,1,136.499993751526
391,243,208783,2,0,B|367:274|360:346|360:346|311:322,1,136.499993751526
130,154,209158,5,0,0:0:0:0:
130,154,209252,1,0,0:0:0:0:
130,154,209346,2,0,B|143:200|143:200|116:240|137:294,1,136.499993751526
283,257,209721,6,0,L|215:251,1,68.2499968757631
331,132,209908,1,0,0:0:0:0:
318,161,210002,2,0,L|386:155,1,68.2499968757631
228,43,210189,1,0,0:0:0:0:
241,72,210283,2,0,L|173:66,1,68.2499968757631
434,7,210471,6,0,L|451:140,1,115.50000352478
461,133,210752,1,0,0:0:0:0:
318,161,210846,2,0,P|320:110|330:88,1,57.7500017623902
459,235,211033,2,0,P|413:258|389:261,1,57.7500017623902
209,158,211221,6,0,L|197:299,1,115.50000352478
318,161,211502,1,0,0:0:0:0:
341,188,211596,2,0,P|300:204|274:208,1,57.7500017623902
115,195,211783,2,0,P|83:164|69:141,1,57.7500017623902
234,15,211971,6,0,L|224:84,1,57.7500017623902
190,330,212158,2,0,L|198:272,1,57.7500017623902
139,92,212346,6,0,P|181:153|256:159,1,115.50000352478
477,61,212721,6,0,P|404:60|367:103,1,115.50000352478
379,213,213002,1,0,0:0:0:0:
411,223,213096,5,0,0:0:0:0:
347,174,213189,1,0,0:0:0:0:
267,187,213283,1,0,0:0:0:0:
223,255,213377,1,0,0:0:0:0:
260,341,213471,5,0,0:0:0:0:
288,341,213564,1,0,0:0:0:0:
316,341,213658,1,0,0:0:0:0:
344,340,213752,1,0,0:0:0:0:
430,336,213846,6,0,L|420:203,1,115.50000352478
447,134,214127,1,0,0:0:0:0:
462,115,214221,2,0,P|497:112|524:114,2,57.7500017623902
300,168,214596,2,0,P|287:98|309:46,1,115.50000352478
324,40,214877,1,0,0:0:0:0:
462,115,214971,6,0,L|393:112,1,57.7500017623902
150,48,215158,2,0,L|219:45,1,57.7500017623902
398,226,215346,2,0,L|456:229,1,57.7500017623902
213,271,215533,2,0,L|156:274,1,57.7500017623902
324,40,215721,6,0,P|334:89|322:133,1,68.2499968757631
78,277,215908,5,0,0:0:0:0:
103,191,216002,2,0,P|145:164|191:161,1,68.2499968757631
465,304,216189,5,0,0:0:0:0:
378,325,216283,2,0,P|334:301|308:263,1,68.2499968757631
429,37,216471,6,0,P|408:101|331:146,1,115.50000352478
213,162,216752,1,0,0:0:0:0:
220,139,216846,2,0,P|270:155|298:175,1,57.7500017623902
457,216,217033,2,0,P|407:232|379:252,1,57.7500017623902
217,374,217221,6,0,B|199:347|192:328|192:328|221:273|228:261,1,115.50000352478
298,237,217502,1,0,0:0:0:0:
329,254,217596,2,0,P|310:287|287:304,1,57.7500017623902
123,257,217783,2,0,P|114:219|120:192,1,57.7500017623902
268,37,217971,5,0,0:0:0:0:
211,191,218158,1,0,0:0:0:0:
204,156,218252,1,0,0:0:0:0:
197,121,218346,5,0,0:0:0:0:
315,324,218533,1,0,0:0:0:0:
322,289,218627,1,0,0:0:0:0:
329,254,218721,5,0,0:0:0:0:
83,322,218908,1,0,0:0:0:0:
83,322,219002,1,0,0:0:0:0:
83,322,219096,6,0,L|223:314,1,115.50000352478
127,45,219471,6,0,P|82:104|98:160,1,115.50000352478
358,230,219846,1,0,0:0:0:0:
358,230,220033,1,0,0:0:0:0:
257,18,220221,5,0,0:0:0:0:
251,51,220314,1,0,0:0:0:0:
245,85,220408,1,0,0:0:0:0:
115,271,220596,5,0,0:0:0:0:
149,249,220689,1,0,0:0:0:0:
188,241,220783,1,0,0:0:0:0:
228,247,220877,1,0,0:0:0:0:
260,271,220971,5,0,0:0:0:0:
415,50,221346,1,0,0:0:0:0:
415,50,221533,1,0,0:0:0:0:
155,17,221721,1,0,0:0:0:0:
415,50,222096,1,0,0:0:0:0:
31,184,222471,5,0,0:0:0:0:
338,296,223221,6,0,P|329:263|327:250,3,39.3750015020371
370,187,223596,5,0,0:0:0:0:
344,176,223689,1,0,0:0:0:0:
316,175,223783,1,0,0:0:0:0:
289,183,223877,1,0,0:0:0:0:
217,235,223971,6,0,P|200:188|205:163,1,57.7500017623902
296,49,224158,1,0,0:0:0:0:
296,49,224252,1,0,0:0:0:0:
296,49,224346,2,0,P|254:79|221:85,1,57.7500017623902
153,77,224533,2,0,P|108:50|90:22,1,57.7500017623902
404,21,224721,6,0,L|400:89,1,57.7500017623902
482,219,224908,1,0,0:0:0:0:
482,219,225002,1,0,0:0:0:0:
482,219,225096,2,0,P|444:182|430:177,1,57.7500017623902
345,165,225283,2,0,P|304:198|297:212,1,57.7500017623902
98,297,225471,6,0,L|161:297,1,57.7500017623902
266,384,225658,1,0,0:0:0:0:
266,384,225752,1,0,0:0:0:0:
266,384,225846,2,0,P|293:337|293:308,1,57.7500017623902
291,238,226033,2,0,P|262:192|236:178,1,57.7500017623902
84,77,226221,6,0,P|95:123|120:163,1,57.7500017623902
307,71,226408,1,0,0:0:0:0:
267,60,226502,1,0,0:0:0:0:
226,54,226596,2,0,P|285:39|364:20,1,115.50000352478
442,90,226877,1,0,0:0:0:0:
461,122,226971,6,0,P|409:168|332:166,1,115.50000352478
365,174,227252,1,0,0:0:0:0:
266,156,227346,2,0,L|265:230,1,57.7500017623902
399,297,227533,6,0,B|425:282|456:276|456:276|401:260|322:295,1,173.250005287171
250,326,227908,1,0,0:0:0:0:
234,353,228002,1,0,0:0:0:0:
219,380,228096,6,0,L|195:307,1,57.7500017623902
147,56,228283,2,0,L|123:129,1,57.7500017623902
33,245,228471,6,0,L|99:233,1,57.7500017623902
346,143,228658,2,0,L|232:164,1,115.50000352478
497,241,229033,6,0,P|466:235|432:222,1,57.7500017623902
58,52,229221,1,0,0:0:0:0:
29,358,229596,6,0,P|65:324|54:369,1,105
