osu file format v14

[General]
AudioFilename: audio.mp3
AudioLeadIn: 0
PreviewTime: 83378
Countdown: 0
SampleSet: Soft
StackLeniency: 0.6
Mode: 0
LetterboxInBreaks: 0
WidescreenStoryboard: 0

[Editor]
DistanceSpacing: 1.4
BeatDivisor: 4
GridSize: 32
TimelineZoom: 1.4

[Metadata]
Title:little explorer
TitleUnicode:little explorer
Artist:Harada Hitomi
ArtistUnicode:原田ひとみ
Creator:Cami
Version:Hard
Source:eden*
Tags:KKipalt Rolni contagious Rolniczy visual novel vn opening minori
BeatmapID:1962186
BeatmapSetID:939405

[Difficulty]
HPDrainRate:5
CircleSize:4
OverallDifficulty:6
ApproachRate:8
SliderMultiplier:1.3
SliderTickRate:1

[Events]
//Background and Video events
Video,0,"eden.flv"
0,0,"eden-bg.jpg",0,0
//Break Periods
2,40721,44914
2,54435,59485
//Storyboard Layer 0 (Background)
//Storyboard Layer 1 (Fail)
//Storyboard Layer 2 (Pass)
//Storyboard Layer 3 (Foreground)
//Storyboard Layer 4 (Overlay)
//Storyboard Sound Samples

[TimingPoints]
1950,428.571428571429,4,2,1,50,1,0
5378,-90.9090909090909,4,2,1,50,0,0
7092,-100,4,2,1,50,0,0
30450,-100,4,2,1,40,0,0
30878,-100,4,2,1,32,0,0
31307,-100,4,2,1,25,0,0
31735,-100,4,2,1,17,0,0
32164,-100,4,2,1,10,0,0
32807,-200,4,2,1,30,0,0
46521,-181.818181818182,4,2,1,30,0,0
60235,-133.333333333333,4,2,1,40,0,0
67092,-125,4,2,1,40,0,0
70521,-111.111111111111,4,2,1,40,0,0
74807,-100,4,2,1,40,0,0
84235,-100,4,2,1,60,0,1
118628,-100,4,2,1,60,0,0

[Colours]
Combo1 : 29,29,203
Combo2 : 151,189,200
Combo3 : 208,208,208
Combo4 : 105,146,205

[HitObjects]
334,231,1950,6,0,P|274:245|225:264,2,97.5,6|0|0,1:2|0:0|0:0,0:0:0:0:
399,168,2807,2,0,P|445:183|492:194,2,97.5,2|0|0,0:2|0:0|0:0,0:0:0:0:
303,146,3664,6,0,P|308:97|311:49,2,97.5,2|0|0,1:2|0:0|1:0,0:0:0:0:
303,146,4414,1,0,1:0:0:0:
303,146,4521,1,2,0:0:0:0:
168,158,4842,1,8,0:3:0:0:
45,169,5164,1,0,1:0:0:0:
45,169,5378,6,0,P|104:150|150:130,2,107.25000327301,6|0|0,1:2|0:0|0:0,0:0:0:0:
148,232,6235,2,0,P|207:251|253:271,2,107.25000327301,2|0|4,0:0|0:0|0:3,0:0:0:0:
156,240,6985,1,4,0:3:0:0:
156,240,7092,6,0,P|232:224|338:176,1,195,2|0,1:2|1:0,0:0:0:0:
416,103,7950,2,0,P|410:167|404:249,1,130,2|0,0:0|0:0,0:0:0:0:
288,339,8592,1,8,0:0:0:0:
288,339,8700,1,8,0:0:0:0:
288,339,8807,6,0,P|229:331|154:325,1,130,6|0,1:2|1:0,0:0:0:0:
72,252,9450,2,0,P|136:246|201:238,1,130,2|0,0:2|0:0,0:0:0:0:
278,175,10092,2,0,P|286:129|293:91,1,65,2|0,1:2|0:0,0:0:0:0:
289,110,10414,1,8,0:0:0:0:
289,110,10521,6,0,P|230:118|155:124,1,130,6|0,1:2|1:0,0:0:0:0:
73,197,11164,2,0,P|137:202|202:210,1,130,2|0,0:2|0:0,0:0:0:0:
296,278,11807,1,8,0:0:0:0:
324,292,11914,1,8,0:0:0:0:
356,292,12021,1,8,0:0:0:0:
385,278,12128,1,8,0:0:0:0:
405,252,12235,5,6,1:2:0:0:
256,192,12342,12,0,15235,0:0:0:0:
186,236,15664,6,0,P|183:169|175:97,1,130,6|8,1:2|0:0,0:0:0:0:
271,40,16307,2,0,P|264:85|262:132,1,65,2|0,0:0|1:0,0:0:0:0:
262,104,16628,1,0,0:0:0:0:
262,104,16735,1,0,1:0:0:0:
332,207,16950,1,8,0:0:0:0:
429,152,17164,5,2,0:0:0:0:
429,152,17271,1,2,0:0:0:0:
429,152,17378,2,0,P|422:216|419:281,1,130,2|8,1:2|0:0,0:0:0:0:
341,336,18021,2,0,P|338:271|331:206,1,130,2|0,0:0|1:0,0:0:0:0:
177,284,18664,2,0,P|211:293|260:254,1,97.5,10|0,0:0|0:0,0:0:0:0:
258,258,19092,6,0,B|182:240|201:290|116:272,1,130,2|8,1:2|0:0,0:0:0:0:
37,254,19735,2,0,P|46:284|54:316,1,65,0|0,0:0|1:0,0:0:0:0:
54,316,20057,1,0,0:0:0:0:
54,316,20164,1,0,1:0:0:0:
142,357,20378,1,8,0:0:0:0:
177,284,20592,1,2,1:2:0:0:
177,284,20700,1,2,0:0:0:0:
177,284,20807,6,0,B|209:287|209:287|250:276,1,65,6|0,1:2|0:0,0:0:0:0:
240,278,21128,1,2,0:0:0:0:
240,278,21235,2,0,B|271:269|271:269|303:272,1,65,10|0,0:2|0:0,0:0:0:0:
401,313,21664,2,0,P|391:245|391:223,1,65,2|0,1:2|0:0,0:0:0:0:
424,229,21985,1,2,0:0:0:0:
468,215,22092,2,0,P|478:283|478:305,1,65,8|8,0:2|0:0,0:0:0:0:
477,279,22414,1,8,0:0:0:0:
477,279,22521,6,0,B|435:275|435:275|393:299|393:299|334:293,1,130,6|8,1:2|0:0,0:0:0:0:
282,242,23164,1,0,0:0:0:0:
282,242,23271,1,0,0:0:0:0:
282,242,23378,2,0,P|270:181|262:153,1,65,2|0,0:0|1:0,0:0:0:0:
142,209,23807,2,0,P|154:270|162:298,1,65,10|0,0:0|0:0,0:0:0:0:
192,143,24235,6,0,P|137:127|67:172,1,130,2|8,1:2|0:0,0:0:0:0:
105,345,24878,2,0,P|160:361|230:316,1,130,2|0,0:2|1:0,0:0:0:0:
311,227,25521,2,0,P|257:230|239:233,1,65,10|2,0:0|0:0,0:0:0:0:
246,231,25842,1,2,0:0:0:0:
246,231,25950,6,0,P|257:173|259:92,1,130,2|8,1:2|0:0,0:0:0:0:
259,102,26592,1,0,1:0:0:0:
372,177,27021,1,0,1:0:0:0:
372,177,27235,2,0,P|414:166|444:163,2,65,8|0|0,0:0|1:0|1:0,0:0:0:0:
310,243,27878,1,8,0:0:0:0:
310,243,27985,1,8,0:0:0:0:
310,243,28092,2,0,P|272:235|230:230,1,65,10|0,0:0|1:0,0:0:0:0:
182,172,28521,1,8,0:0:0:0:
182,172,28735,1,8,0:0:0:0:
261,136,28950,2,0,P|299:144|341:149,1,65,10|0,0:0|1:0,0:0:0:0:
256,32,29378,5,6,1:2:0:0:
256,32,29592,1,0,1:0:0:0:
143,98,30021,1,0,1:0:0:0:
30,164,30450,1,0,1:0:0:0:
30,164,30878,1,0,1:0:0:0:
30,164,31307,1,0,1:0:0:0:
30,164,31735,1,0,1:0:0:0:
30,164,32164,1,0,1:0:0:0:
30,164,32807,5,2,0:0:0:0:
30,164,34950,6,0,P|68:151|102:153,1,65,2|0,0:0|0:0,0:0:0:0:
160,189,35807,1,2,0:0:0:0:
227,150,36235,2,0,P|229:98|233:40,1,97.5,2|0,0:0|0:0,0:0:0:0:
189,117,38807,6,0,P|207:162|212:178,1,65,2|0,0:0|0:0,0:0:0:0:
268,231,39664,2,0,P|261:266|249:340,1,97.5,2|2,0:0|0:0,0:0:0:0:
250,326,40521,1,0,0:0:0:0:
250,326,45664,5,2,0:0:0:0:
192,273,46092,1,2,0:0:0:0:
112,306,46521,5,2,0:0:0:0:
112,306,48664,1,2,0:0:0:0:
192,273,49092,1,2,0:0:0:0:
216,190,49521,1,2,0:0:0:0:
173,115,49950,6,0,P|118:98|62:94,1,107.25000327301,2|0,0:0|0:0,0:0:0:0:
68,93,52950,1,2,0:0:0:0:
131,150,53378,6,0,B|189:132|179:169|246:157,1,107.25000327301,2|2,0:0|0:0,0:0:0:0:
235,158,54235,1,0,0:0:0:0:
235,158,60235,5,2,1:2:0:0:
235,158,60450,2,0,P|242:200|242:224,1,48.750001859665,0|0,1:0|0:0,0:0:0:0:
311,240,60878,2,0,P|318:198|318:174,1,48.750001859665,0|0,1:0|0:0,0:0:0:0:
302,115,61307,1,0,1:0:0:0:
375,140,61521,2,0,P|413:135|433:135,1,48.750001859665,2|0,0:0|1:0,0:0:0:0:
483,184,61950,5,2,1:2:0:0:
483,184,62164,1,0,1:0:0:0:
428,240,62378,2,0,P|436:279|440:308,1,48.750001859665,2|0,0:0|1:0,0:0:0:0:
361,305,62807,2,0,P|353:266|349:237,1,48.750001859665,2|0,0:0|1:0,0:0:0:0:
364,180,63235,1,2,0:0:0:0:
274,245,63450,1,2,1:3:0:0:
199,220,63664,5,2,1:2:0:0:
199,220,63878,2,0,P|147:221|106:257,1,97.50000371933,0|0,1:2|1:0,0:0:0:0:
41,281,64521,2,0,P|36:248|35:221,1,48.750001859665,2|0,0:0|1:0,0:0:0:0:
72,164,64950,2,0,P|77:131|78:104,1,48.750001859665,2|0,0:0|1:0,0:0:0:0:
172,41,65378,5,2,1:2:0:0:
172,41,65592,1,0,1:2:0:0:
155,117,65807,1,2,0:0:0:0:
217,163,66021,2,0,P|283:168|334:180,1,97.50000371933,2|0,1:2|1:0,0:0:0:0:
385,224,66664,1,2,0:0:0:0:
346,106,66878,1,2,1:3:0:0:
385,224,67092,5,0,1:2:0:0:
385,224,67307,2,0,P|405:254|421:269,1,52,0|0,1:0|0:0,0:0:0:0:
349,313,67735,1,0,1:0:0:0:
349,313,67950,2,0,P|329:283|313:268,1,52,2|0,0:0|1:0,0:0:0:0:
194,271,68378,2,0,P|176:290|162:313,1,52,2|0,0:0|1:0,0:0:0:0:
256,215,68807,6,0,P|255:117|254:100,1,104,2|2,1:2|0:0,0:0:0:0:
254,111,69450,1,0,1:0:0:0:
139,67,69664,2,0,L|190:57,1,52,2|0,0:0|1:0,0:0:0:0:
322,57,70092,1,2,0:0:0:0:
190,57,70307,1,2,1:3:0:0:
322,57,70521,6,0,P|363:50|394:41,1,58.4999982147217,2|0,1:2|1:0,0:0:0:0:
475,133,70950,2,0,P|446:126|418:122,1,58.4999982147217,8|2,0:2|1:2,0:0:0:0:
300,213,71378,2,0,P|356:226|404:194,1,116.999996429443,2|8,0:0|0:0,0:0:0:0:
340,143,72021,1,0,1:0:0:0:
300,213,72235,6,0,P|313:250|318:280,1,58.4999982147217,2|0,1:2|1:0,0:0:0:0:
226,345,72664,1,8,0:0:0:0:
226,345,72878,1,2,1:2:0:0:
226,345,73092,2,0,P|213:308|208:278,1,58.4999982147217,2|0,1:2|1:0,0:0:0:0:
187,164,73521,2,0,P|180:192|170:219,1,58.4999982147217,10|0,0:2|1:0,0:0:0:0:
170,219,73950,6,0,B|208:210|208:210|240:217|240:217|292:204,1,116.999996429443,2|8,1:2|0:0,0:0:0:0:
411,153,74592,1,2,1:2:0:0:
350,110,74807,2,0,P|366:197|374:263,1,130,2|8,0:0|0:0,0:0:0:0:
343,309,75450,1,0,1:0:0:0:
256,288,75664,6,0,L|256:224,1,65,0|0,1:2|1:0,0:0:0:0:
183,111,76092,1,10,0:0:0:0:
183,111,76307,1,2,1:2:0:0:
183,111,76521,2,0,L|183:176,1,65,2|0,1:2|1:0,0:0:0:0:
134,284,76950,2,0,P|111:251|42:236,1,97.5,10|0,0:0|0:0,0:0:0:0:
58,233,77378,6,0,P|122:228|202:216,1,130,2|8,1:2|0:0,0:0:0:0:
266,188,78021,1,0,1:2:0:0:
266,188,78235,2,0,L|262:261,1,65,2|0,0:2|1:0,0:0:0:0:
341,146,78664,2,0,P|336:94|330:37,1,97.5,10|0,0:2|0:0,0:0:0:0:
331,48,79092,6,0,P|359:84|456:69,1,130,2|8,1:2|0:0,0:0:0:0:
500,148,79735,1,2,0:0:0:0:
500,148,79842,1,2,0:0:0:0:
500,148,79950,2,0,B|456:159|456:159|431:191|431:191|380:202,1,130,2|8,0:0|0:0,0:0:0:0:
317,166,80592,1,2,1:2:0:0:
232,222,80807,6,0,P|249:269|269:349,1,130,6|12,1:2|0:0,0:0:0:0:
145,201,81664,2,0,P|160:137|181:76,1,130,6|12,1:2|0:0,0:0:0:0:
240,11,82307,1,8,0:0:0:0:
240,11,82414,1,8,0:0:0:0:
240,11,82521,6,0,P|138:33|90:35,1,130,6|12,1:2|0:0,0:0:0:0:
40,17,83164,1,0,1:0:0:0:
0,107,83378,6,0,P|3:144|11:173,1,65,6|0,1:2|1:0,0:0:0:0:
78,259,83807,2,0,P|85:227|88:195,1,65,14|0,0:2|1:0,0:0:0:0:
164,326,84235,6,0,P|125:332|63:359,2,97.5,6|2|0,1:2|0:0|0:0,0:0:0:0:
244,277,85092,2,0,P|288:296|336:304,2,97.5,2|2|2,1:2|0:0|0:0,0:0:0:0:
176,218,85950,2,0,P|172:139|170:123,1,65,2|0,1:2|0:0,0:0:0:0:
173,153,86271,1,2,0:0:0:0:
173,153,86378,1,8,0:0:0:0:
237,97,86592,1,2,0:0:0:0:
316,125,86807,2,0,P|380:130|442:113,1,130,2|8,0:0|0:0,0:0:0:0:
498,179,87450,1,2,1:2:0:0:
498,179,87557,1,2,0:0:0:0:
498,179,87664,6,0,P|490:228|484:282,2,97.5,6|2|0,1:2|0:0|0:0,0:0:0:0:
396,215,88521,2,0,P|404:264|410:318,2,97.5,2|2|2,0:0|0:0|1:2,0:0:0:0:
310,168,89378,6,0,B|240:149|249:188|172:169,1,130,2|8,1:2|0:0,0:0:0:0:
118,117,90021,1,2,0:0:0:0:
40,157,90235,2,0,P|38:198|47:235,1,65,2|0,0:0|1:0,0:0:0:0:
91,306,90664,2,0,P|93:347|84:384,1,65,10|0,0:0|1:0,0:0:0:0:
88,370,90985,1,2,0:0:0:0:
88,370,91092,6,0,P|139:341|225:335,1,130,6|8,1:2|0:0,0:0:0:0:
289,290,91735,2,0,P|224:283|167:253,1,130,2|0,0:2|1:0,0:0:0:0:
239,182,92378,2,0,P|274:186|304:211,1,65,10|2,0:0|0:0,0:0:0:0:
297,202,92700,1,2,0:0:0:0:
297,202,92807,6,0,P|307:263|315:340,1,130,6|8,1:2|0:0,0:0:0:0:
417,375,93450,2,0,P|423:310|434:246,1,130,2|0,1:2|1:0,0:0:0:0:
483,173,94092,2,0,P|479:135|469:102,1,65,10|2,0:0|1:2,0:0:0:0:
471,109,94414,1,2,0:0:0:0:
471,109,94521,6,0,B|425:107|425:107|391:126|391:126|326:122,1,130,6|8,1:2|0:0,0:0:0:0:
277,66,95164,1,2,1:2:0:0:
238,169,95378,2,0,P|301:168|346:123,1,130,2|8,0:0|0:0,0:0:0:0:
413,185,96021,1,2,1:2:0:0:
413,185,96128,1,2,0:0:0:0:
413,185,96235,6,0,B|403:236|403:236|414:258|414:258|401:320,1,130,2|8,1:2|0:0,0:0:0:0:
334,359,96878,1,2,1:2:0:0:
334,359,97092,2,0,L|266:354,1,65,2|0,0:0|1:0,0:0:0:0:
171,288,97521,2,0,L|239:283,1,65,10|2,0:0|1:2,0:0:0:0:
235,283,97842,1,2,0:0:0:0:
235,283,97950,6,0,P|217:229|211:165,2,97.5,6|2|0,1:2|0:0|0:0,0:0:0:0:
311,225,98807,2,0,P|329:170|335:106,2,97.5,2|2|2,0:0|0:0|1:2,0:0:0:0:
400,222,99664,6,0,P|445:197|473:191,1,65,6|0,1:2|1:0,0:0:0:0:
457,193,99985,1,2,0:0:0:0:
457,193,100092,1,8,0:0:0:0:
468,280,100307,1,2,1:2:0:0:
470,359,100521,2,0,P|409:351|383:350,1,65,2|0,0:0|1:0,0:0:0:0:
335,290,100950,2,0,P|274:298|248:299,1,65,10|0,0:0|1:0,0:0:0:0:
270,298,101271,1,2,0:0:0:0:
270,298,101378,5,6,1:2:0:0:
256,32,102021,1,8,0:3:0:0:
256,32,102128,1,8,0:3:0:0:
256,32,102235,2,0,L|256:86,2,32.5,4|0|0,0:3|1:0|1:0,0:0:0:0:
183,79,102664,1,8,0:0:0:0:
154,94,102771,1,8,0:0:0:0:
122,97,102878,1,10,0:0:0:0:
91,87,102985,1,2,1:2:0:0:
67,65,103092,5,6,1:2:0:0:
19,136,103307,1,0,1:2:0:0:
19,136,103414,1,6,0:0:0:0:
66,216,103628,1,0,1:0:0:0:
66,216,103735,1,6,0:0:0:0:
15,294,103950,6,0,P|14:327|16:344,3,32.5,14|8|8|8,1:2|0:0|0:0|0:0,0:0:0:0:
44,341,104378,1,8,0:0:0:0:
74,351,104485,1,8,0:0:0:0:
106,349,104592,1,8,0:0:0:0:
135,335,104699,1,8,0:0:0:0:
157,311,104807,6,0,B|235:288|216:343|297:322,1,130,6|8,1:2|0:0,0:0:0:0:
362,263,105450,2,0,P|357:187|345:106,1,130,2|0,1:2|1:0,0:0:0:0:
455,93,106092,2,0,P|458:60|463:28,1,65,10|2,0:0|1:2,0:0:0:0:
463,28,106414,1,2,0:0:0:0:
463,28,106521,6,0,B|414:34|414:34|387:20|387:20|315:25,1,130,6|8,1:2|0:0,0:0:0:0:
244,70,107164,2,0,P|213:118|256:183,1,130,2|0,1:2|1:0,0:0:0:0:
341,218,107807,1,10,0:0:0:0:
299,304,108021,1,2,0:0:0:0:
299,304,108128,1,2,0:0:0:0:
299,304,108235,6,0,B|240:329|240:329|162:311,1,130,6|8,1:2|0:0,0:0:0:0:
109,261,108878,1,2,0:0:0:0:
109,261,108985,1,2,0:0:0:0:
109,261,109092,1,10,0:0:0:0:
153,192,109307,1,8,0:0:0:0:
114,118,109521,2,0,L|76:111,3,32.5,8|4|8|8,0:0|0:3|0:3|0:3,0:0:0:0:
61,80,109950,6,0,L|208:104,1,130,6|10,1:2|0:0,0:0:0:0:
275,120,110592,1,2,1:2:0:0:
275,120,110807,2,0,P|314:110|349:99,1,65,6|4,1:2|0:3,0:0:0:0:
337,102,111128,1,4,0:3:0:0:
337,102,111235,1,12,0:0:0:0:
429,92,111450,1,2,1:2:0:0:
483,170,111664,6,0,B|473:220|473:220|446:244|446:244|434:300,1,130,6|4,1:2|0:3,0:0:0:0:
444,292,112200,1,8,0:3:0:0:
444,292,112307,2,0,L|456:339,1,32.5,4|4,0:3|0:3,0:0:0:0:
461,354,112521,2,2,B|395:328|395:328|357:337|357:337|318:306|255:320,1,195,0|8,0:0|0:0,0:1:0:0:
175,359,113378,6,0,B|151:369|151:369|120:372,2,43.3333333333333,10|2|2,0:0|0:0|0:0,0:0:0:0:
191,327,113807,1,2,1:2:0:0:
109,260,114021,1,10,0:0:0:0:
109,260,114128,1,2,0:0:0:0:
109,260,114235,2,0,L|115:307,2,32.5,2|8|0,1:2|0:0|0:0,0:0:0:0:
97,171,114664,1,8,0:0:0:0:
97,138,114771,1,8,0:0:0:0:
108,108,114878,1,8,0:0:0:0:
128,82,114985,1,8,0:0:0:0:
155,65,115092,5,6,1:2:0:0:
256,192,115200,12,2,118628,0:2:0:0:
