osu file format v14

[General]
AudioFilename: audio.mp3
AudioLeadIn: 0
PreviewTime: 70911
Countdown: 0
SampleSet: Soft
StackLeniency: 0.5
Mode: 0
LetterboxInBreaks: 0
WidescreenStoryboard: 1

[Editor]
Bookmarks: 13904,27618
DistanceSpacing: 1
BeatDivisor: 4
GridSize: 32
TimelineZoom: 1.7

[Metadata]
Title:ever forever
TitleUnicode:ever forever
Artist:Harada Hitomi
ArtistUnicode:原田ひとみ
Creator:sinn
Version:Angel
Source:ef - a fairy tale of the two.
Tags:Yuukyuu no Tsubasa minori Tenmon 天門 the latter visual novel eroge japanese pop jpop j-pop vn video game galgame galge ed ending p4ndemonium
BeatmapID:3531719
BeatmapSetID:1716396

[Difficulty]
HPDrainRate:5
CircleSize:4
OverallDifficulty:7.5
ApproachRate:8.2
SliderMultiplier:1.6
SliderTickRate:1

[Events]
//Background and Video events
Video,-720,"edvid.flv"
0,0,"ef.jpg",0,0
//Break Periods
2,8647,21441
2,99504,111441
//Storyboard Layer 0 (Background)
//Storyboard Layer 1 (Fail)
//Storyboard Layer 2 (Pass)
//Storyboard Layer 3 (Foreground)
//Storyboard Layer 4 (Overlay)
//Storyboard Sound Samples

[TimingPoints]
-125,428.571428571429,4,2,5,50,1,0
946,-200,4,2,5,70,0,0
1268,-200,4,2,5,5,0,0
1589,-76.9230769230769,4,2,5,70,0,0
3303,-100,4,2,5,70,0,0
5017,-200,4,2,5,70,0,0
5124,-200,4,2,5,5,0,0
5660,-200,4,2,5,50,0,0
22160,-125,4,2,5,40,0,0
49589,-111.111111111111,4,2,5,50,0,0
59875,-100,4,2,5,60,0,0
71017,-400,4,2,5,65,0,0
71875,-83.3333333333333,4,2,5,75,0,1
84517,-83.3333333333333,4,1,0,75,0,1
84732,-83.3333333333333,4,2,5,75,0,1
92446,-76.9230769230769,4,2,5,75,0,1
95875,-200,4,2,5,60,0,0
95982,-200,4,2,5,5,0,0
96517,-200,4,2,5,60,0,0
99303,-90.9090909090909,4,2,5,65,0,0
112160,-200,4,2,5,65,0,0
113017,-90.9090909090909,4,2,5,65,0,1
150732,-111.111111111111,4,2,5,65,0,1
154160,-125,4,2,5,40,0,0
181589,-111.111111111111,4,2,5,50,0,0
191875,-100,4,2,5,60,0,0
203017,-400,4,2,5,65,0,0
203875,-83.3333333333333,4,2,5,75,0,1
216517,-83.3333333333333,4,1,0,75,0,1
216732,-83.3333333333333,4,2,5,75,0,1
224446,-76.9230769230769,4,2,5,75,0,1
226803,-76.9230769230769,4,1,0,75,0,1
226910,-76.9230769230769,4,2,5,75,0,1
227875,-153.846153846154,4,2,5,60,0,0
229589,-100,4,2,5,70,0,0
231303,-83.3333333333333,4,2,5,75,0,1
243946,-83.3333333333333,4,1,0,75,0,1
244053,-83.3333333333333,4,2,5,75,0,1
251874,-76.9230769230769,4,2,5,75,0,1
262160,-200,4,2,5,50,0,0
263874,-76.9230769230769,4,2,5,60,0,0
265267,-76.9230769230769,4,2,5,5,0,0
265321,-76.9230769230769,4,2,5,60,0,0
265374,-76.9230769230769,4,2,5,5,0,0
265428,-76.9230769230769,4,2,5,60,0,0
265482,-76.9230769230769,4,2,5,5,0,0
265535,-76.9230769230769,4,2,5,60,0,0
265589,-100,4,2,5,5,0,0
265642,-100,4,2,5,60,0,0
265910,-100,4,2,5,5,0,0
266017,-100,4,2,5,60,0,0
275874,-133.333333333333,4,2,5,40,0,0
275982,-133.333333333333,4,2,5,5,0,0
277160,-133.333333333333,4,2,5,40,0,0
277589,-200,4,2,5,40,0,0
277696,-200,4,2,5,5,0,0
278875,-200,4,2,5,40,0,0
279089,-133.333333333333,4,2,5,40,0,0

[Colours]
Combo1 : 43,255,255
Combo2 : 255,79,79
Combo3 : 36,36,255

[HitObjects]
254,117,946,5,2,3:2:0:0:
145,11,1161,2,0,L|154:76,1,60,12|0,0:3|0:0,0:0:0:0:
159,101,1590,6,0,L|58:79,1,103.999995239258,6|0,0:0|0:0,0:0:0:0:
179,124,1911,2,0,L|210:222,1,103.999995239258,2|0,3:2|0:0,0:0:0:0:
197,92,2233,2,0,L|231:53,1,51.999997619629,4|0,3:0|0:0,0:0:0:0:
148,120,2447,6,0,L|47:98,1,103.999995239258,6|0,0:0|0:0,0:0:0:0:
168,143,2768,2,0,L|199:241,1,103.999995239258,2|0,3:2|0:0,0:0:0:0:
186,112,3090,2,0,L|220:73,1,51.999997619629,4|0,3:0|0:0,0:0:0:0:
166,129,3304,5,6,0:0:0:0:
18,266,4161,2,0,P|54:335|138:340,1,160,12|4,0:3|0:3,0:0:0:0:
375,209,5018,6,0,P|327:190|275:185,1,100,6|0,0:0|0:0,0:0:0:0:
256,192,5661,1,2,0:0:0:0:
256,192,5768,12,6,8447,0:0:0:0:
454,39,22161,6,0,B|372:37|408:63|330:66,1,128,6|0,0:2|3:2,0:0:0:0:
263,27,22804,1,2,0:0:0:0:
249,20,22911,1,2,0:0:0:0:
254,113,23125,1,2,0:0:0:0:
269,107,23233,1,2,0:0:0:0:
323,209,23447,2,0,P|332:178|333:140,1,64,0|0,3:2|0:0,0:0:0:0:
180,85,23875,6,0,P|162:147|160:223,1,128,2|0,1:2|3:0,0:0:0:0:
242,188,24518,1,2,0:0:0:0:
257,193,24625,1,2,0:0:0:0:
232,274,24840,1,2,0:0:0:0:
216,276,24947,1,2,0:0:0:0:
162,366,25161,2,0,L|62:350,1,96,0|0,3:2|0:0,0:0:0:0:
45,362,25590,6,0,B|26:329|26:329|40:240,1,128,2|0,1:2|3:0,0:0:0:0:
95,178,26233,1,2,0:0:0:0:
110,183,26340,1,2,0:0:0:0:
72,103,26554,1,2,0:0:0:0:
58,110,26661,1,2,0:0:0:0:
182,43,26875,2,0,P|170:92|170:138,1,96,0|0,3:0|0:0,0:0:0:0:
182,161,27304,6,0,L|256:152,1,64,0|0,1:2|0:0,0:0:0:0:
314,116,27733,1,0,3:0:0:0:
257,55,27947,1,2,0:0:0:0:
260,39,28054,1,2,0:0:0:0:
337,21,28268,1,2,0:0:0:0:
341,36,28375,1,2,0:0:0:0:
415,115,28590,1,2,3:2:0:0:
407,159,28697,1,2,0:0:0:0:
399,203,28804,1,2,0:0:0:0:
304,355,29018,6,0,L|280:215,1,128,2|0,1:2|3:0,0:0:0:0:
325,159,29661,1,2,0:0:0:0:
330,144,29768,1,2,0:0:0:0:
256,100,29983,1,2,0:0:0:0:
260,115,30090,1,2,0:0:0:0:
200,194,30304,2,0,P|154:184|103:183,1,96,0|0,3:2|0:0,0:0:0:0:
85,199,30733,6,0,L|67:62,1,128,2|0,1:2|3:0,0:0:0:0:
122,9,31375,1,2,0:0:0:0:
138,13,31483,1,2,0:0:0:0:
177,78,31697,1,2,0:0:0:0:
162,84,31804,1,2,0:0:0:0:
277,21,32018,1,0,3:0:0:0:
255,103,32233,1,2,0:0:0:0:
346,173,32447,6,0,B|261:169|300:198|220:199,1,128,2|0,1:2|3:0,0:0:0:0:
157,157,33090,1,2,0:0:0:0:
141,160,33197,1,2,0:0:0:0:
139,241,33411,1,2,0:0:0:0:
154,247,33518,1,2,0:0:0:0:
205,336,33733,2,0,P|255:326|304:328,1,96,0|0,3:0|0:0,0:0:0:0:
322,342,34161,6,0,L|330:278,1,64,2|0,1:2|0:0,0:0:0:0:
384,215,34590,1,0,3:0:0:0:
450,274,34804,1,2,0:0:0:0:
455,289,34911,1,2,0:0:0:0:
477,198,35125,1,2,0:0:0:0:
483,183,35233,1,2,0:0:0:0:
390,123,35447,1,2,3:2:0:0:
433,111,35554,1,2,0:0:0:0:
476,99,35661,1,2,0:0:0:0:
319,13,35875,6,0,P|312:79|296:148,1,128,6|0,0:0|3:0,0:0:0:0:
234,95,36518,1,2,0:0:0:0:
229,80,36625,1,2,0:0:0:0:
161,132,36840,1,2,0:0:0:0:
157,147,36947,1,2,0:0:0:0:
228,227,37161,2,0,L|327:217,1,96,0|0,3:0|0:0,0:0:0:0:
348,209,37590,6,0,B|359:277|323:266|325:340,1,128,2|0,1:2|3:0,0:0:0:0:
410,319,38233,1,2,0:0:0:0:
414,334,38340,1,2,0:0:0:0:
485,365,38554,1,2,0:0:0:0:
490,350,38661,1,2,0:0:0:0:
459,253,38875,2,0,P|453:211|457:156,1,96,0|0,3:0|0:0,0:0:0:0:
476,141,39304,6,0,L|350:120,1,128,2|0,1:2|3:0,0:0:0:0:
292,67,39947,1,2,0:0:0:0:
287,52,40054,1,2,0:0:0:0:
216,95,40268,1,2,0:0:0:0:
212,110,40375,1,2,0:0:0:0:
296,178,40590,2,0,P|298:229|284:277,1,96,0|0,3:0|0:0,0:0:0:0:
273,294,41018,6,0,L|204:286,1,64,2|0,1:2|0:0,0:0:0:0:
146,233,41447,1,0,3:0:0:0:
296,178,41661,2,0,L|158:162,1,128,2|2,0:0|0:0,0:0:0:0:
148,87,42304,1,2,3:2:0:0:
148,87,42411,2,0,P|144:55|159:25,1,64,2|0,0:0|0:0,0:0:0:0:
182,35,42733,6,0,L|167:178,1,128,4|0,0:2|3:0,0:0:0:0:
64,115,43375,2,0,L|50:242,1,128,2|0,0:0|0:0,0:0:0:0:
166,247,44018,2,0,L|155:342,1,96,0|0,3:0|0:0,0:0:0:0:
155,369,44447,5,2,1:2:0:0:
79,329,44661,1,2,0:0:0:0:
79,329,44768,1,2,0:0:0:0:
79,329,44875,1,2,3:2:0:0:
155,369,45090,1,2,0:0:0:0:
0,327,45304,2,0,L|15:183,1,128,2|0,1:2|3:0,0:0:0:0:
68,138,45947,1,2,0:0:0:0:
68,138,46054,1,2,0:0:0:0:
68,138,46161,6,0,P|129:134|169:84,1,128,6|0,0:0|3:0,0:0:0:0:
159,6,46804,1,2,0:0:0:0:
174,12,46911,1,2,0:0:0:0:
251,29,47125,1,2,0:0:0:0:
245,44,47233,1,2,0:0:0:0:
261,128,47447,1,2,3:2:0:0:
261,128,47554,1,2,0:0:0:0:
261,128,47661,1,2,0:0:0:0:
175,200,47875,6,0,L|241:213,1,64,2|0,1:2|0:0,0:0:0:0:
259,235,48197,1,2,0:0:0:0:
259,235,48304,2,0,L|325:248,1,64,0|2,3:2|0:0,0:0:0:0:
347,251,48625,1,2,0:0:0:0:
413,316,48840,1,2,0:0:0:0:
417,301,48947,1,2,0:0:0:0:
505,244,49161,1,2,3:2:0:0:
497,200,49268,1,2,0:0:0:0:
489,156,49375,1,2,0:0:0:0:
340,10,49589,5,6,1:2:0:0:
340,10,50018,2,0,B|328:79|328:79|349:114,1,107.999996704102,8|0,3:2|0:0,0:0:0:0:
359,135,50447,2,0,L|281:119,1,71.9999978027344,2|0,1:2|0:0,0:0:0:0:
206,108,50875,1,8,0:0:0:0:
274,203,51090,1,2,0:0:0:0:
172,324,51304,6,0,P|165:247|149:176,1,143.999995605469,2|8,1:2|0:0,0:0:0:0:
97,110,51947,1,2,0:0:0:0:
32,158,52161,2,0,P|6:206|39:257,1,107.999996704102,2|0,1:2|0:0,0:0:0:0:
42,265,52590,1,8,0:0:0:0:
150,181,52804,1,2,0:0:0:0:
254,323,53018,5,2,1:2:0:0:
254,323,53447,2,0,P|302:309|363:318,1,107.999996704102,8|0,0:0|0:0,0:0:0:0:
378,328,53875,2,0,L|390:253,1,71.9999978027344,2|0,1:2|0:0,0:0:0:0:
354,177,54304,1,8,0:0:0:0:
262,235,54518,1,2,0:0:0:0:
179,98,54733,6,0,L|38:73,1,143.999995605469,2|8,1:2|0:0,0:0:0:0:
40,150,55375,1,2,0:0:0:0:
0,226,55590,2,0,P|78:226|123:171,1,143.999995605469,2|8,1:2|0:0,0:0:0:0:
184,62,56233,2,0,L|177:107,1,35.9999989013672,2|0,3:2|0:0,0:0:0:0:
256,256,56447,5,6,1:2:0:0:
256,256,56875,2,0,B|282:231|282:231|267:148,1,107.999996704102,8|0,0:0|0:0,0:0:0:0:
263,133,57304,2,0,L|346:150,1,71.9999978027344,2|0,1:2|0:0,0:0:0:0:
415,117,57733,1,8,0:0:0:0:
487,213,57947,1,2,0:0:0:0:
370,319,58161,6,0,B|315:308|315:308|286:327|286:327|228:315,1,143.999995605469,2|8,1:2|0:0,0:0:0:0:
161,364,58804,1,2,0:0:0:0:
99,302,59018,2,0,L|129:152,1,143.999995605469,2|8,1:2|0:0,0:0:0:0:
5,10,59661,1,12,0:3:0:0:
12,57,59768,1,12,0:3:0:0:
19,105,59875,6,0,B|120:104|65:62|178:65,1,160,6|8,1:2|0:0,0:0:0:0:
273,119,60518,2,0,P|238:139|189:134,1,80,2|2,0:0|1:2,0:0:0:0:
199,137,60840,1,2,0:0:0:0:
199,137,60947,1,2,0:0:0:0:
281,289,61161,2,0,L|294:209,1,80,8|0,0:0|0:0,0:0:0:0:
374,71,61590,6,0,B|367:149|425:136|411:227,2,160,2|8|2,1:2|0:0|1:2,0:0:0:0:
314,10,62661,1,2,0:0:0:0:
314,10,62768,1,2,0:0:0:0:
314,10,62875,1,8,0:0:0:0:
198,96,63090,1,12,2:3:0:0:
244,109,63197,1,12,2:3:0:0:
277,144,63304,6,0,P|267:208|260:312,1,160,6|8,1:2|0:0,0:0:0:0:
369,354,63947,2,0,P|374:322|377:270,1,80,2|2,0:0|1:2,0:0:0:0:
377,274,64268,1,2,0:0:0:0:
377,274,64375,1,2,0:0:0:0:
488,181,64590,2,0,P|483:213|479:265,1,80,8|0,0:0|0:2,0:0:0:0:
347,170,65018,6,0,L|184:188,2,160,2|8|2,1:2|0:0|1:2,0:0:0:0:
426,113,66090,1,2,0:0:0:0:
426,113,66197,1,2,0:0:0:0:
426,113,66304,1,8,0:0:0:0:
295,28,66518,1,4,0:3:0:0:
194,204,66733,5,4,0:0:0:0:
326,101,66947,1,4,0:3:0:0:
172,35,67161,1,8,0:0:0:0:
276,196,67375,1,4,0:3:0:0:
374,30,67590,1,10,1:2:0:0:
171,124,67804,1,4,0:3:0:0:
357,249,68018,1,8,0:0:0:0:
131,332,68233,1,4,0:3:0:0:
365,384,68447,5,12,0:0:0:0:
413,384,68554,1,0,0:0:0:0:
456,363,68661,1,4,0:3:0:0:
475,319,68768,1,0,0:0:0:0:
485,272,68875,1,8,0:0:0:0:
473,225,68983,1,0,0:0:0:0:
444,187,69090,1,4,0:3:0:0:
426,132,69197,1,0,0:0:0:0:
449,90,69304,6,0,L|493:100,1,40,14|0,0:0|0:0,0:0:0:0:
396,257,69518,2,0,L|356:248,1,40,4|0,0:3|0:0,0:0:0:0:
251,79,69733,2,0,L|295:89,1,40,12|0,0:0|0:0,0:0:0:0:
193,243,69947,2,0,L|153:234,1,40,4|0,0:3|0:0,0:0:0:0:
297,365,70161,5,14,0:0:0:0:
488,98,70590,1,14,0:0:0:0:
488,98,71018,6,0,L|449:90,1,40,2|2,0:0|0:0,0:0:0:0:
448,89,71875,6,0,P|453:139|448:191,1,95.9999970703126,6|0,0:0|0:0,0:0:0:0:
371,148,72304,1,8,0:0:0:0:
302,288,72518,1,2,0:0:0:0:
302,288,72625,1,2,0:0:0:0:
302,288,72733,2,0,P|297:238|302:186,1,95.9999970703126,2|0,1:2|0:0,0:0:0:0:
226,93,73161,2,0,P|159:101|125:177,1,143.999995605469,8|0,0:0|0:0,0:0:0:0:
137,184,73590,6,0,L|119:286,1,95.9999970703126,2|0,1:2|0:0,0:0:0:0:
201,249,74018,1,8,0:0:0:0:
293,335,74232,2,0,L|301:287,1,47.9999985351563,2|0,0:2|0:0,0:0:0:0:
301,192,74447,1,2,1:2:0:0:
221,323,74661,1,2,0:0:0:0:
372,297,74875,1,10,0:0:0:0:
224,173,75090,1,2,0:0:0:0:
406,112,75304,6,0,P|311:93|216:53,1,191.999994140625,2|8,1:2|0:0,0:0:0:0:
84,111,75947,1,2,0:0:0:0:
84,111,76054,1,2,0:0:0:0:
84,111,76160,1,2,1:2:0:0:
224,173,76375,1,2,0:0:0:0:
95,258,76590,1,8,0:0:0:0:
168,102,76804,2,0,P|162:132|154:157,1,47.9999985351563,2|0,0:0|0:0,0:0:0:0:
61,342,77018,6,0,P|113:294|185:301,1,143.999995605469,2|0,1:2|0:0,0:0:0:0:
202,313,77447,1,8,0:0:0:0:
316,191,77661,1,2,0:0:0:0:
316,191,77768,1,2,0:0:0:0:
316,191,77875,2,0,P|266:188|218:170,1,95.9999970703126,2|0,1:2|0:0,0:0:0:0:
87,112,78304,1,8,0:0:0:0:
210,28,78518,1,2,0:0:0:0:
135,184,78733,6,0,P|159:268|164:375,1,191.999994140625,6|8,0:0|0:0,0:0:0:0:
283,274,79375,1,2,0:2:0:0:
283,274,79483,1,2,0:0:0:0:
283,274,79590,2,0,L|384:294,1,95.9999970703126,2|0,1:2|0:0,0:0:0:0:
504,207,80018,2,0,P|465:152|391:145,1,143.999995605469,8|0,0:0|0:0,0:0:0:0:
378,163,80447,6,0,P|335:180|284:166,1,95.9999970703126,2|0,1:2|0:0,0:0:0:0:
158,88,80875,1,8,0:0:0:0:
292,8,81090,1,2,0:0:0:0:
292,8,81197,1,2,0:0:0:0:
292,8,81304,1,2,1:2:0:0:
211,160,81518,1,2,0:0:0:0:
128,8,81733,1,10,0:0:0:0:
299,94,81947,1,2,0:0:0:0:
122,167,82161,6,0,B|-3:142|-3:142|31:160|52:194,1,191.999994140625,6|8,1:2|0:0,0:0:0:0:
27,298,82804,2,0,P|51:291|68:273,1,47.9999985351563,6|0,3:2|0:0,0:0:0:0:
184,119,83018,2,0,P|199:168|180:217,2,95.9999970703126,2|0|8,1:2|0:0|0:0,0:0:0:0:
122,167,83661,1,0,0:0:0:0:
215,289,83875,6,0,L|316:276,1,95.9999970703126,4|0,0:0|0:0,0:0:0:0:
335,293,84197,1,0,0:0:0:0:
335,293,84304,2,0,L|436:280,1,95.9999970703126,8|4,0:0|1:2,0:0:0:0:
512,162,84733,2,0,B|448:149|448:149|415:104|415:104|340:88,1,191.999994140625,2|8,1:2|0:0,0:0:0:0:
182,35,85375,1,2,0:0:0:0:
231,25,85483,1,2,0:0:0:0:
280,15,85590,5,6,0:0:0:0:
193,141,85804,1,2,0:0:0:0:
109,13,86018,1,8,0:0:0:0:
271,99,86233,1,2,0:0:0:0:
271,99,86340,1,2,0:0:0:0:
271,99,86447,5,2,1:2:0:0:
100,183,86661,1,2,0:0:0:0:
188,352,86875,2,0,P|255:346|283:275,1,143.999995605469,8|0,0:0|0:0,0:0:0:0:
271,262,87304,6,0,P|255:220|268:168,1,95.9999970703126,2|0,1:2|0:0,0:0:0:0:
348,41,87733,1,8,0:0:0:0:
427,173,87947,1,2,0:0:0:0:
271,99,88161,1,2,1:2:0:0:
422,16,88375,1,2,0:0:0:0:
342,191,88590,1,10,0:0:0:0:
265,15,88804,1,2,0:0:0:0:
485,110,89018,6,0,P|440:98|386:101,1,95.9999970703126,2|0,1:2|0:0,0:0:0:0:
259,180,89447,1,8,0:0:0:0:
396,269,89661,1,2,0:0:0:0:
396,269,89768,1,2,0:0:0:0:
396,269,89875,1,2,1:2:0:0:
299,103,90090,1,0,0:0:0:0:
222,279,90304,2,0,L|77:251,1,143.999995605469,8|0,0:0|0:0,0:0:0:0:
61,265,90733,6,0,P|40:221|50:177,1,95.9999970703126,6|0,1:2|0:0,0:0:0:0:
101,32,91161,1,8,0:0:0:0:
224,139,91375,2,0,L|129:120,1,95.9999970703126,2|0,1:2|0:0,0:0:0:0:
50,176,91804,1,2,1:2:0:0:
101,32,92018,1,10,0:0:0:0:
168,211,92233,1,2,0:0:0:0:
168,211,92340,1,2,0:0:0:0:
168,211,92447,6,0,P|198:252|196:316,1,103.999995239258,4|0,0:0|0:0,0:0:0:0:
117,220,92768,2,0,P|160:247|180:294,1,103.999995239258,2|0,3:2|0:0,0:0:0:0:
109,275,93089,2,0,P|135:273|162:290,1,51.999997619629,4|0,3:0|0:0,0:0:0:0:
296,322,93304,6,0,P|245:327|191:293,1,103.999995239258,4|0,0:0|0:0,0:0:0:0:
313,273,93625,2,0,P|268:296|217:290,1,103.999995239258,2|0,3:2|0:0,0:0:0:0:
270,238,93947,2,0,P|258:261|230:276,1,51.999997619629,4|0,3:0|0:0,0:0:0:0:
100,182,94161,6,0,L|206:202,1,103.999995239258,6|0,1:2|0:0,0:3:0:0:
271,160,94483,1,2,0:0:0:0:
271,160,94590,2,0,P|292:117|277:55,1,103.999995239258,8|0,0:0|0:0,0:0:0:0:
227,14,94911,1,2,0:0:0:0:
227,14,95017,6,0,L|175:4,1,51.999997619629,2|0,1:2|0:0,0:3:0:0:
92,101,95232,2,0,L|143:110,1,51.999997619629,2|0,0:2|0:0,0:3:0:0:
213,216,95447,2,0,B|111:197|158:243|61:237,1,155.999992858887,8|0,0:2|0:0,0:0:0:0:
22,188,95875,6,0,L|38:290,1,100,6|0,3:2|0:0,0:0:0:0:
40,302,96518,1,2,0:0:0:0:
256,192,96625,12,4,99304,0:0:0:0:
45,371,112161,6,0,L|31:291,1,80,2|2,0:0|0:0,0:0:0:0:
31,292,112804,1,2,0:0:0:0:
161,140,113018,6,0,L|127:333,1,176.000005371094,6|10,0:0|0:0,0:0:0:0:
17,219,113661,1,0,3:0:0:0:
17,219,113768,1,2,0:0:0:0:
17,219,113875,2,0,P|12:177|31:135,1,88.000002685547,2|0,1:2|3:0,0:0:0:0:
46,116,114197,1,2,0:0:0:0:
46,116,114304,2,0,P|63:76|59:33,1,88.000002685547,10|0,0:0|3:0,0:0:0:0:
161,140,114733,6,0,B|271:140|212:90|332:97,1,176.000005371094,2|8,1:2|0:0,0:0:0:0:
472,27,115375,1,0,3:0:0:0:
472,27,115483,1,2,0:0:0:0:
472,27,115590,2,0,P|488:68|481:113,1,88.000002685547,2|0,1:2|3:0,0:0:0:0:
358,175,116018,2,0,L|370:229,1,44.0000013427735,8|0,0:0|0:0,0:0:0:0:
475,311,116233,2,0,L|484:268,1,44.0000013427735,2|0,3:2|0:0,0:0:0:0:
359,331,116447,6,0,P|319:317|267:309,1,88.000002685547,2|0,1:2|3:0,0:0:0:0:
255,326,116768,1,2,0:0:0:0:
255,326,116875,2,0,P|192:297|186:200,1,176.000005371094,8|2,0:0|1:2,0:0:0:0:
290,81,117518,1,0,3:0:0:0:
290,81,117625,1,2,0:0:0:0:
290,81,117733,2,0,P|311:117|305:170,1,88.000002685547,8|0,0:2|3:0,0:0:0:0:
300,187,118054,1,2,0:0:0:0:
300,187,118161,6,0,L|251:177,1,44.0000013427735,2|0,1:2|0:0,0:0:0:0:
187,56,118375,2,0,L|177:105,1,44.0000013427735,0|0,3:2|0:0,0:0:0:0:
94,246,118590,2,0,P|59:198|89:123,1,132.00000402832,8|0,0:0|0:0,0:0:0:0:
94,112,119018,5,2,1:2:0:0:
173,250,119233,1,0,3:0:0:0:
164,287,119340,1,2,0:0:0:0:
137,314,119447,1,10,0:0:0:0:
133,182,119661,2,0,P|156:179|182:171,1,44.0000013427735,0|0,3:0|0:0,0:0:0:0:
290,81,119875,5,6,1:2:0:0:
411,152,120089,1,0,3:0:0:0:
343,279,120304,1,8,0:0:0:0:
343,279,120411,1,2,0:0:0:0:
343,279,120518,2,0,L|347:236,1,44.0000013427735,0|0,3:0|0:0,0:0:0:0:
258,150,120732,2,0,L|254:193,1,44.0000013427735,2|0,1:2|0:0,0:0:0:0:
197,338,120947,1,0,3:2:0:0:
153,160,121161,2,0,P|85:180|80:236,1,132.00000402832,8|0,0:0|0:0,0:0:0:0:
90,257,121589,6,0,P|171:257|262:283,1,176.000005371094,2|8,1:2|0:0,0:0:0:0:
279,304,122125,1,2,0:0:0:0:
279,304,122232,1,0,3:0:0:0:
401,253,122447,2,0,B|403:143|350:190|352:88,1,176.000005371094,2|8,1:2|0:0,0:0:0:0:
505,56,123090,2,0,P|498:84|494:112,1,44.0000013427735,0|0,3:0|0:0,0:0:0:0:
507,253,123304,5,6,1:2:0:0:
500,298,123411,1,2,0:0:0:0:
479,336,123518,1,0,3:0:0:0:
441,358,123625,1,2,0:0:0:0:
396,357,123733,2,0,P|376:351|352:338,1,44.0000013427735,8|2,0:0|0:0,0:0:0:0:
281,256,123947,2,0,P|261:262|237:275,1,44.0000013427735,0|2,3:0|0:0,0:0:0:0:
143,384,124161,5,2,1:2:0:0:
99,379,124268,1,2,0:0:0:0:
62,358,124375,1,0,3:0:0:0:
40,320,124482,1,2,0:0:0:0:
41,275,124590,2,0,P|47:255|60:231,1,44.0000013427735,8|2,0:0|0:0,0:0:0:0:
142,160,124804,2,0,P|136:140|123:116,1,44.0000013427735,0|2,3:0|0:0,0:0:0:0:
31,12,125018,5,6,1:2:0:0:
205,98,125233,1,0,3:0:0:0:
23,162,125447,1,8,3:2:0:0:
229,264,125661,1,0,3:0:0:0:
229,264,125768,1,2,0:0:0:0:
229,264,125875,6,0,L|237:212,1,44.0000013427735,2|0,1:2|0:0,0:0:0:0:
132,76,126090,2,0,L|124:128,1,44.0000013427735,0|0,3:2|0:0,0:0:0:0:
123,304,126304,1,8,0:0:0:0:
268,139,126518,1,2,0:0:0:0:
363,367,126733,6,0,L|389:193,1,176.000005371094,6|8,0:2|0:0,0:0:0:0:
511,144,127375,2,0,L|504:187,1,44.0000013427735,0|0,3:2|0:0,0:0:0:0:
478,39,127590,2,0,P|396:29|345:102,1,176.000005371094,2|8,1:2|0:0,0:0:0:0:
389,192,128233,1,0,3:0:0:0:
287,243,128447,6,0,L|293:199,1,44.0000013427735,2|0,1:2|0:0,0:0:0:0:
251,122,128661,1,0,3:2:0:0:
389,192,128875,2,0,L|377:280,1,88.000002685547,8|0,0:2|3:0,0:0:0:0:
233,379,129304,6,0,P|211:346|214:299,1,88.000002685547,2|0,1:2|3:0,0:0:0:0:
234,290,129625,2,0,L|144:275,1,88.000002685547,2|0,0:0|0:0,0:0:0:0:
121,270,129947,1,0,3:2:0:0:
0,158,130161,6,0,P|67:110|150:154,1,176.000005371094,2|8,1:2|0:0,0:0:0:0:
63,318,130804,1,0,3:0:0:0:
63,318,130911,1,2,0:0:0:0:
63,318,131018,2,0,P|45:285|54:230,1,88.000002685547,0|0,1:2|3:0,0:0:0:0:
206,94,131447,2,0,P|224:127|215:182,1,88.000002685547,8|0,0:2|3:0,0:0:0:0:
147,265,131875,5,2,1:2:0:0:
295,206,132090,1,0,3:0:0:0:
249,357,132304,1,8,0:0:0:0:
218,175,132518,1,0,3:0:0:0:
384,255,132732,2,0,P|388:303|383:346,1,88.000002685547,2|0,1:2|3:0,0:0:0:0:
227,289,133160,2,0,P|225:265|227:243,1,44.0000013427735,8|0,0:2|0:0,0:0:0:0:
343,141,133375,2,0,P|345:165|342:186,1,44.0000013427735,0|0,3:0|0:0,0:0:0:0:
307,280,133590,5,2,1:2:0:0:
179,174,133804,1,0,3:0:0:0:
179,174,133911,1,2,0:0:0:0:
179,174,134018,1,10,0:0:0:0:
54,323,134233,2,0,P|139:309|228:288,1,176.000005371094,0|0,3:0|3:0,0:0:0:0:
342,184,134875,2,0,P|306:163|254:174,1,88.000002685547,8|0,0:0|3:0,0:0:0:0:
313,291,135303,6,0,P|349:312|401:301,1,88.000002685547,2|0,1:2|3:0,0:0:0:0:
393,305,135625,1,2,0:0:0:0:
393,305,135733,1,8,0:0:0:0:
512,186,135947,2,0,L|461:178,1,44.0000013427735,0|0,3:0|0:0,0:0:0:0:
397,233,136161,1,0,1:2:0:0:
503,331,136375,2,0,L|495:382,2,44.0000013427735,0|2|8,3:0|0:0|0:0,0:0:0:0:
472,261,136804,1,0,3:0:0:0:
366,374,137018,6,0,B|265:368|315:323|198:320,1,176.000005371094,6|8,1:2|0:0,0:0:0:0:
98,377,137661,2,0,P|44:352|43:276,1,132.00000402832,0|0,3:0|0:0,0:0:0:0:
48,266,138089,1,0,3:0:0:0:
143,139,138304,2,0,P|163:178|150:231,1,88.000002685547,8|0,0:0|3:0,0:0:0:0:
44,86,138732,6,0,P|40:72|33:55,1,29.3333342285157,2|2,1:2|3:2,0:0:0:0:
190,31,139017,2,0,P|136:63|145:142,1,146.666671142578,2|0,3:2|3:0,0:0:0:0:
252,105,139589,6,0,P|292:88|340:98,1,88.000002685547,2|0,1:2|3:0,0:0:0:0:
429,161,140017,1,8,0:0:0:0:
299,252,140232,1,0,3:0:0:0:
440,238,140447,6,0,B|376:224|376:224|353:183|353:183|286:169,1,176.000005371094,6|8,0:0|0:0,0:0:0:0:
186,216,141090,1,0,3:0:0:0:
176,374,141304,2,0,P|207:350|218:305,1,88.000002685547,2|0,1:2|3:0,0:0:0:0:
204,287,141625,2,0,L|288:311,1,88.000002685547,2|0,0:0|0:0,0:0:0:0:
314,319,141947,1,0,3:0:0:0:
79,340,142161,6,0,P|57:261|65:167,1,176.000005371094,2|8,1:2|0:0,0:0:0:0:
145,47,142804,2,0,P|167:126|159:220,1,176.000005371094,0|0,3:2|3:0,0:0:0:0:
275,117,143447,2,0,L|365:135,1,88.000002685547,8|0,0:0|0:0,0:0:0:0:
464,254,143875,6,0,L|419:263,1,44.0000013427735,2|0,1:2|0:0,0:0:0:0:
370,324,144090,1,0,3:0:0:0:
266,205,144304,2,0,P|312:211|345:246,1,88.000002685547,8|0,0:0|0:0,0:0:0:0:
459,177,144732,6,0,P|478:141|475:93,1,88.000002685547,2|0,1:2|3:0,0:0:0:0:
472,73,145053,2,0,L|375:56,1,88.000002685547,2|0,0:0|0:0,0:0:0:0:
359,55,145375,1,0,3:0:0:0:
384,167,145590,1,2,1:2:0:0:
256,46,145804,1,0,3:0:0:0:
236,221,146018,1,8,0:0:0:0:
317,117,146233,1,0,3:0:0:0:
163,263,146447,6,0,P|157:223|167:175,1,88.000002685547,2|0,1:2|3:0,0:0:0:0:
166,176,146768,1,2,0:0:0:0:
166,176,146875,1,8,0:0:0:0:
271,275,147090,2,0,L|267:328,1,44.0000013427735,0|0,3:0|0:0,0:0:0:0:
100,315,147304,6,0,P|80:235|100:144,1,176.000005371094,4|8,1:2|0:0,0:0:0:0:
214,40,147947,2,0,L|210:93,1,44.0000013427735,0|0,3:0|0:0,0:0:0:0:
269,195,148161,5,2,1:2:0:0:
284,153,148268,1,2,0:0:0:0:
317,124,148375,1,0,3:0:0:0:
361,119,148483,1,2,0:0:0:0:
401,134,148590,2,0,P|410:157|408:179,1,44.0000013427735,8|0,0:0|0:0,0:0:0:0:
334,260,148804,2,0,P|325:283|327:305,1,44.0000013427735,0|0,3:0|0:0,0:0:0:0:
242,372,149018,5,2,1:2:0:0:
212,339,149125,1,2,0:0:0:0:
170,323,149233,1,0,3:0:0:0:
126,323,149340,1,2,0:0:0:0:
90,349,149447,6,0,P|116:263|117:171,1,176.000005371094,8|2,0:0|1:2,0:0:0:0:
19,85,150090,2,0,L|26:137,1,44.0000013427735,0|0,3:0|0:0,0:0:0:0:
91,25,150304,1,8,0:0:0:0:
192,158,150518,1,0,3:0:0:0:
104,101,150733,6,0,P|239:62|386:60,1,287.999991210938,6|2,0:0|1:2,0:0:0:0:
472,96,151804,1,0,3:0:0:0:
396,150,152018,2,0,L|403:189,2,35.9999989013672,8|2|0,0:0|0:0|3:0,0:0:0:0:
315,181,152447,5,6,1:2:0:0:
387,259,152661,1,0,3:0:0:0:
381,291,152768,1,2,0:0:0:0:
375,323,152875,1,8,0:0:0:0:
303,275,153090,1,0,3:0:0:0:
218,373,153304,6,0,L|209:300,1,71.9999978027344,2|0,1:2|3:0,0:0:0:0:
112,253,153733,2,0,L|121:180,1,71.9999978027344,8|0,0:0|3:0,0:0:0:0:
120,181,154054,1,2,0:0:0:0:
120,181,154161,6,0,P|186:169|235:218,1,128,6|0,0:0|3:0,0:0:0:0:
283,141,154804,1,2,0:0:0:0:
281,125,154911,1,2,0:0:0:0:
356,89,155125,1,2,0:0:0:0:
358,105,155232,1,2,0:0:0:0:
429,170,155447,2,0,L|417:274,1,96,0|0,3:0|0:0,0:0:0:0:
415,292,155875,6,0,P|349:304|300:255,1,128,2|0,1:2|3:0,0:0:0:0:
344,193,156518,1,2,0:0:0:0:
346,177,156625,1,2,0:0:0:0:
281,125,156840,1,2,0:0:0:0:
279,141,156947,1,2,0:0:0:0:
221,217,157161,2,0,L|122:202,1,96,0|0,3:0|0:0,0:0:0:0:
100,198,157590,6,0,P|90:231|94:264,1,64,2|0,1:2|0:0,0:0:0:0:
128,335,158018,1,0,3:0:0:0:
198,289,158233,1,2,0:0:0:0:
214,291,158340,1,2,0:0:0:0:
240,370,158554,1,2,0:0:0:0:
224,368,158661,1,2,0:0:0:0:
298,307,158875,2,0,L|308:205,1,96,0|0,3:0|0:0,0:0:0:0:
311,186,159304,5,2,1:2:0:0:
395,225,159518,1,2,0:0:0:0:
395,225,159625,1,2,0:0:0:0:
395,225,159733,1,0,3:0:0:0:
464,177,159947,1,2,0:0:0:0:
480,183,160054,1,2,0:0:0:0:
401,131,160268,1,2,0:0:0:0:
385,135,160375,1,2,0:0:0:0:
496,65,160590,1,0,3:0:0:0:
457,50,160697,1,2,0:0:0:0:
433,16,160804,1,2,0:0:0:0:
295,83,161018,6,0,L|307:213,1,128,2|0,1:2|3:0,0:0:0:0:
270,287,161661,1,2,0:0:0:0:
273,303,161768,1,2,0:0:0:0:
207,240,161983,1,2,0:0:0:0:
205,224,162090,1,2,0:0:0:0:
161,324,162304,2,0,P|112:327|69:302,1,96,0|0,3:0|0:0,0:0:0:0:
54,286,162733,6,0,L|76:154,1,128,2|0,1:2|3:0,0:0:0:0:
29,97,163375,1,2,0:0:0:0:
14,103,163483,1,2,0:0:0:0:
71,27,163697,1,2,0:0:0:0:
70,11,163804,1,2,0:0:0:0:
137,106,164018,1,0,3:0:0:0:
157,25,164233,1,2,0:0:0:0:
270,5,164447,6,0,L|239:140,1,128,2|0,1:2|3:0,0:0:0:0:
185,191,165090,1,2,0:0:0:0:
170,185,165197,1,2,0:0:0:0:
245,247,165411,1,2,0:0:0:0:
260,241,165518,1,2,0:0:0:0:
186,305,165733,2,0,P|205:347|258:358,1,96,0|0,3:0|0:0,0:0:0:0:
271,344,166161,6,0,L|342:356,1,64,2|0,1:2|0:0,0:0:0:0:
412,325,166590,1,0,3:0:0:0:
363,258,166804,1,2,0:0:0:0:
348,262,166911,1,2,0:0:0:0:
432,215,167125,1,2,0:0:0:0:
447,219,167232,1,2,0:0:0:0:
347,161,167447,1,0,3:0:0:0:
334,122,167554,1,2,0:0:0:0:
342,81,167661,1,2,0:0:0:0:
479,11,167875,6,0,P|462:74|452:144,1,128,6|0,0:0|3:0,0:0:0:0:
447,219,168518,1,2,0:0:0:0:
432,215,168625,1,2,0:0:0:0:
348,262,168840,1,2,0:0:0:0:
363,258,168947,1,2,0:0:0:0:
459,321,169161,2,0,P|410:321|369:350,1,96,0|0,3:0|0:0,0:0:0:0:
363,371,169590,6,0,L|234:347,1,128,2|0,1:2|3:0,0:0:0:0:
164,307,170233,1,2,0:0:0:0:
162,323,170340,1,2,0:0:0:0:
238,273,170554,1,2,0:0:0:0:
236,257,170661,1,2,0:0:0:0:
141,192,170875,2,0,P|192:188|228:153,1,96,0|0,3:0|0:0,0:0:0:0:
239,138,171304,6,0,L|375:165,1,128,2|0,1:2|3:0,0:0:0:0:
445,139,171947,1,2,0:0:0:0:
441,123,172054,1,2,0:0:0:0:
500,199,172268,1,2,0:0:0:0:
496,215,172375,1,2,0:0:0:0:
391,262,172590,2,0,B|452:265|429:285|488:292,1,96,0|0,3:0|0:0,0:0:0:0:
506,285,173018,6,0,L|494:355,1,64,2|0,1:2|0:0,0:0:0:0:
419,382,173447,1,0,3:0:0:0:
358,326,173661,1,2,0:0:0:0:
343,320,173768,1,2,0:0:0:0:
266,378,173983,1,2,0:0:0:0:
251,384,174090,1,2,0:0:0:0:
162,311,174304,1,0,3:0:0:0:
198,291,174411,1,2,0:0:0:0:
239,299,174518,1,2,0:0:0:0:
353,195,174733,6,0,P|287:183|227:159,1,128,2|0,1:2|3:0,0:0:0:0:
171,107,175375,1,2,0:0:0:0:
175,91,175483,1,2,0:0:0:0:
101,153,175697,1,2,0:0:0:0:
105,168,175804,1,2,0:0:0:0:
31,80,176018,2,0,P|19:55|24:17,1,64,0|0,3:0|0:0,0:0:0:0:
101,153,176447,6,0,L|82:286,1,128,2|0,1:2|3:0,0:0:0:0:
169,259,177090,1,2,0:0:0:0:
169,259,177197,1,2,0:0:0:0:
169,259,177304,1,2,1:2:0:0:
154,354,177518,1,2,0:0:0:0:
169,259,177733,2,0,P|200:257|234:271,1,64,0|0,3:2|0:0,0:0:0:0:
343,373,178161,6,0,B|369:345|369:345|356:252,1,128,4|0,0:0|3:0,0:0:0:0:
307,189,178804,1,2,0:0:0:0:
291,191,178911,1,2,0:0:0:0:
363,128,179125,1,2,0:0:0:0:
379,126,179232,1,2,0:0:0:0:
275,76,179447,2,0,P|271:59|265:37,1,32,0|0,3:0|0:0,0:0:0:0:
344,46,179661,2,0,P|340:29|334:7,1,32,2|0,0:0|0:0,0:0:0:0:
413,15,179875,6,0,L|484:26,1,64,2|0,1:2|0:0,0:0:0:0:
501,44,180197,1,2,0:0:0:0:
501,44,180304,2,0,L|490:115,1,64,0|0,3:0|0:0,0:0:0:0:
477,128,180625,1,2,0:0:0:0:
512,209,180840,1,2,0:0:0:0:
512,209,180947,1,2,0:0:0:0:
413,268,181161,1,0,3:0:0:0:
394,231,181268,1,2,0:0:0:0:
400,190,181375,1,2,0:0:0:0:
495,352,181590,5,4,1:2:0:0:
495,352,182018,2,0,L|512:202,2,143.999995605469,8|0|8,0:0|3:0|0:0,0:0:0:0:
424,316,183090,1,2,0:0:0:0:
320,380,183304,6,0,P|255:362|252:283,1,143.999995605469,2|8,1:2|0:0,0:0:0:0:
293,227,183947,1,2,0:0:0:0:
201,147,184161,2,0,L|55:179,1,143.999995605469,2|8,1:2|0:0,0:0:0:0:
103,245,184804,1,2,0:0:0:0:
6,330,185018,5,2,1:2:0:0:
6,330,185447,2,0,P|36:318|78:323,1,71.9999978027344,8|0,0:0|0:0,0:0:0:0:
141,367,185875,2,0,P|174:380|221:378,1,71.9999978027344,2|0,1:2|0:0,0:0:0:0:
277,333,186304,2,0,L|282:291,1,35.9999989013672,8|0,0:0|0:0,0:0:0:0:
205,295,186518,2,0,L|211:252,1,35.9999989013672,2|0,0:0|0:0,0:0:0:0:
291,155,186733,6,0,B|199:148|243:186|153:187,1,143.999995605469,2|8,1:2|0:0,0:0:0:0:
88,144,187375,1,2,0:0:0:0:
128,75,187590,2,0,P|177:30|256:48,1,143.999995605469,2|8,1:2|0:0,0:0:0:0:
291,155,188233,2,0,L|299:110,1,35.9999989013672,2|0,0:0|0:0,0:0:0:0:
404,18,188447,5,6,1:2:0:0:
404,18,188875,2,0,B|433:48|433:48|413:125,1,107.999996704102,8|0,0:0|0:0,0:0:0:0:
406,137,189304,2,0,L|422:217,1,71.9999978027344,2|0,1:2|0:0,0:0:0:0:
483,277,189733,2,0,L|466:351,1,71.9999978027344,8|0,0:2|0:0,0:0:0:0:
354,384,190161,6,0,P|316:323|358:269,1,143.999995605469,2|8,1:2|0:0,0:0:0:0:
420,228,190804,1,0,0:0:0:0:
352,175,191018,2,0,L|201:203,1,143.999995605469,2|8,1:2|0:0,0:0:0:0:
31,107,191661,1,12,3:0:0:0:
74,108,191768,1,12,3:0:0:0:
105,138,191875,6,0,B|121:221|71:206|76:303,1,160,6|8,1:2|0:0,0:0:0:0:
187,384,192518,2,0,P|207:355|204:307,1,80,2|2,0:2|1:2,0:0:0:0:
205,311,192840,1,2,0:0:0:0:
205,311,192947,1,2,0:0:0:0:
323,204,193161,2,0,P|311:247|302:292,1,80,8|0,0:0|0:0,0:0:0:0:
190,168,193590,6,0,L|173:2,1,160,2|8,1:2|0:0,0:0:0:0:
266,58,194233,1,2,0:0:0:0:
352,0,194447,2,0,L|433:17,1,80,2|0,1:2|0:0,0:0:0:0:
431,17,194768,1,2,0:0:0:0:
431,17,194875,1,8,0:0:0:0:
510,164,195090,1,12,0:3:0:0:
468,181,195197,1,12,0:3:0:0:
424,169,195304,6,0,B|367:175|367:175|343:214|343:214|283:224,1,160,6|8,1:2|0:0,0:0:0:0:
161,152,195947,2,0,P|194:127|237:123,1,80,2|2,0:0|1:2,0:0:0:0:
231,122,196268,1,2,0:0:0:0:
231,122,196375,1,2,0:0:0:0:
227,290,196590,2,0,L|146:270,1,80,8|0,0:0|0:0,0:0:0:0:
27,163,197018,6,0,P|98:194|162:148,1,160,2|8,1:2|0:0,0:0:0:0:
168,47,197661,1,2,0:0:0:0:
90,115,197875,1,2,1:2:0:0:
253,83,198090,1,2,0:0:0:0:
253,83,198197,1,2,0:0:0:0:
253,83,198304,1,8,0:0:0:0:
335,220,198518,1,4,0:3:0:0:
160,151,198733,5,6,0:0:0:0:
327,132,198947,1,4,0:3:0:0:
219,260,199161,1,8,0:0:0:0:
249,71,199375,1,4,0:3:0:0:
399,192,199590,1,8,0:0:0:0:
181,142,199804,1,4,0:3:0:0:
357,4,200018,1,8,0:0:0:0:
296,237,200233,1,4,0:3:0:0:
149,30,200447,5,10,0:0:0:0:
101,21,200554,1,2,0:0:0:0:
55,36,200661,1,4,0:3:0:0:
31,77,200768,1,2,0:0:0:0:
32,124,200875,1,8,0:0:0:0:
61,162,200983,1,2,0:0:0:0:
78,206,201090,1,4,0:3:0:0:
81,253,201197,1,2,0:0:0:0:
67,299,201304,6,0,L|24:291,1,40,14|0,0:0|0:0,0:0:0:0:
238,243,201518,2,0,L|281:251,1,40,4|0,0:3|0:0,0:0:0:0:
61,162,201733,2,0,L|18:154,1,40,12|0,0:0|0:0,0:0:0:0:
232,106,201947,2,0,L|275:114,1,40,4|0,0:3|0:0,0:0:0:0:
101,21,202161,5,12,0:0:0:0:
27,291,202590,1,12,0:0:0:0:
27,291,203018,6,0,B|47:293|67:299,1,40,2|2,0:0|0:0,0:0:0:0:
66,298,203875,6,0,P|154:273|166:178,1,191.999994140625,6|8,0:0|0:0,0:0:0:0:
58,64,204518,1,2,0:0:0:0:
58,64,204625,1,2,0:0:0:0:
58,64,204733,2,0,P|50:114|55:164,1,95.9999970703126,2|0,1:2|0:0,0:0:0:0:
187,104,205161,2,0,P|195:54|190:4,1,95.9999970703126,8|0,0:2|0:0,0:0:0:0:
275,182,205590,6,0,P|259:278|269:375,1,191.999994140625,2|8,1:2|0:0,0:0:0:0:
365,278,206233,1,2,0:0:0:0:
365,278,206340,1,2,0:0:0:0:
365,278,206447,1,2,1:2:0:0:
474,372,206661,1,2,0:0:0:0:
511,233,206875,1,10,0:0:0:0:
395,362,207090,1,2,0:0:0:0:
352,195,207304,6,0,L|375:2,1,191.999994140625,2|8,1:2|0:0,0:0:0:0:
475,80,207947,1,2,0:0:0:0:
475,80,208054,1,2,0:0:0:0:
475,80,208161,1,2,1:2:0:0:
286,115,208375,1,2,0:0:0:0:
439,232,208590,1,10,0:0:0:0:
252,274,208804,1,2,0:0:0:0:
487,319,209018,6,0,B|358:312|421:361|299:360,1,191.999994140625,2|8,1:2|0:0,0:0:0:0:
164,276,209661,1,2,0:0:0:0:
164,276,209768,1,2,0:0:0:0:
164,276,209875,1,2,1:2:0:0:
352,195,210090,1,2,0:0:0:0:
210,48,210304,1,10,0:0:0:0:
252,274,210518,1,2,0:0:0:0:
397,96,210733,6,0,B|267:89|332:140|211:140,1,191.999994140625,6|8,0:0|0:0,0:0:0:0:
68,71,211375,1,2,0:0:0:0:
68,71,211483,1,2,0:0:0:0:
68,71,211590,1,2,1:2:0:0:
178,204,211804,1,2,0:0:0:0:
27,287,212018,2,0,P|20:242|25:188,1,95.9999970703126,8|0,0:0|0:0,0:0:0:0:
209,274,212447,6,0,P|216:319|211:373,1,95.9999970703126,2|0,1:2|0:0,0:0:0:0:
117,288,212875,1,8,0:0:0:0:
297,209,213090,1,2,0:0:0:0:
297,209,213197,1,2,0:0:0:0:
297,209,213304,1,2,1:2:0:0:
134,108,213518,1,2,0:0:0:0:
303,15,213733,1,10,0:0:0:0:
204,179,213947,1,2,0:0:0:0:
110,12,214161,6,0,P|43:47|53:161,1,191.999994140625,6|8,0:0|0:0,0:0:0:0:
164,251,214804,2,0,P|139:243|113:244,1,47.9999985351563,6|0,0:0|0:0,0:0:0:0:
111,98,215018,2,0,P|157:105|215:110,2,95.9999970703126,0|0|8,1:2|0:0|0:0,0:0:0:0:
45,152,215661,1,0,0:0:0:0:
110,12,215875,6,0,P|157:15|205:23,1,95.9999970703126,6|0,1:2|0:0,0:0:0:0:
271,72,216197,1,2,0:0:0:0:
271,72,216304,2,0,P|318:68|366:60,1,95.9999970703126,8|4,0:2|1:2,0:0:0:0:
484,187,216733,2,0,B|429:141|353:148|353:148|379:159|399:186,1,191.999994140625,2|8,1:2|0:0,0:0:0:0:
319,356,217375,1,2,0:0:0:0:
357,326,217483,1,2,0:0:0:0:
361,278,217590,6,0,P|301:213|217:248,1,191.999994140625,6|8,1:2|0:0,0:0:0:0:
107,384,218233,1,2,0:0:0:0:
107,384,218340,1,2,0:0:0:0:
107,384,218447,1,2,1:2:0:0:
284,289,218661,1,0,0:0:0:0:
139,149,218875,2,0,P|92:159|42:166,1,95.9999970703126,8|0,0:0|0:0,0:0:0:0:
183,18,219304,6,0,B|252:35|252:35|281:76|281:76|352:90,1,191.999994140625,2|8,1:2|0:0,0:0:0:0:
512,19,219947,1,2,0:0:0:0:
512,19,220054,1,2,0:0:0:0:
512,19,220161,1,2,1:2:0:0:
416,185,220375,1,2,0:0:0:0:
335,10,220590,1,10,0:0:0:0:
512,129,220804,1,2,0:0:0:0:
325,230,221018,6,0,L|131:191,1,191.999994140625,2|8,1:2|0:0,0:0:0:0:
0,296,221661,1,2,0:0:0:0:
0,296,221768,1,2,0:0:0:0:
0,296,221875,1,2,1:2:0:0:
58,112,222090,1,0,0:0:0:0:
160,274,222304,2,0,L|63:254,1,95.9999970703126,8|0,0:2|0:0,0:0:0:0:
0,49,222733,6,0,P|70:28|143:110,1,191.999994140625,6|8,0:0|0:0,0:0:0:0:
218,335,223375,2,0,P|288:356|361:274,1,191.999994140625,6|0,0:0|0:0,0:0:0:0:
285,99,224018,1,8,0:0:0:0:
135,218,224233,1,2,0:0:0:0:
135,218,224340,1,2,0:0:0:0:
135,218,224447,6,0,L|29:199,1,103.999995239258,6|0,1:2|0:0,0:0:0:0:
149,246,224768,2,0,L|43:227,1,103.999995239258,2|0,3:2|0:0,0:0:0:0:
160,282,225090,2,0,L|107:272,1,51.999997619629,4|0,3:3|0:0,0:0:0:0:
50,97,225304,6,0,L|31:203,1,103.999995239258,6|0,1:2|0:0,0:0:0:0:
78,83,225625,2,0,L|59:189,1,103.999995239258,2|0,3:2|0:0,0:0:0:0:
114,72,225947,2,0,L|104:125,1,51.999997619629,4|0,3:3|0:0,0:0:0:0:
175,190,226161,6,0,P|229:200|260:256,1,103.999995239258,6|0,1:2|0:0,0:0:0:0:
294,313,226483,1,2,0:0:0:0:
294,313,226590,2,0,P|334:339|402:330,1,103.999995239258,8|0,0:0|1:0,0:0:0:0:
462,306,226911,1,2,0:0:0:0:
462,306,227018,5,2,1:2:0:0:
420,126,227233,1,2,0:0:0:0:
375,138,227340,1,2,1:2:0:0:
345,174,227447,1,10,0:0:0:0:
338,220,227554,1,2,0:0:0:0:
356,263,227661,1,2,0:0:0:0:
512,229,227875,6,0,P|460:225|408:209,1,103.999995239258,6|2,0:0|0:0,0:0:0:0:
345,174,228518,1,2,0:0:0:0:
356,263,228733,2,0,L|346:317,1,51.999997619629,2|0,3:2|0:0,0:0:0:0:
264,303,229161,2,0,L|254:357,1,51.999997619629,2|0,3:2|0:0,0:0:0:0:
254,354,229483,1,2,0:0:0:0:
254,354,229590,6,0,B|169:339|211:374|130:362,1,120,6|0,0:0|0:0,0:0:0:0:
77,317,230018,2,0,P|52:268|79:202,1,120,6|0,0:0|0:0,0:0:0:0:
137,169,230447,2,0,P|148:189|151:208,1,40,6|0,0:0|0:0,0:0:0:0:
149,286,230661,1,2,0:2:0:0:
254,354,230875,2,0,P|311:353|337:300,1,120,4|0,0:0|0:0,0:0:0:0:
325,275,231304,6,0,P|367:297|418:290,1,95.9999970703126,6|0,1:2|0:0,0:0:0:0:
504,218,231733,1,8,0:0:0:0:
398,126,231947,1,2,0:0:0:0:
398,126,232054,1,2,0:0:0:0:
398,126,232161,2,0,P|386:174|380:225,1,95.9999970703126,2|0,1:2|0:0,0:0:0:0:
254,350,232590,2,0,P|245:278|227:208,1,143.999995605469,8|0,0:2|0:0,0:0:0:0:
219,177,233018,6,0,L|123:160,1,95.9999970703126,2|0,1:2|0:0,0:0:0:0:
24,139,233447,1,8,0:0:0:0:
100,324,233661,2,0,L|109:270,1,47.9999985351563,2|0,0:0|0:0,0:0:0:0:
62,210,233875,1,2,1:2:0:0:
14,377,234090,1,2,0:0:0:0:
184,345,234304,1,10,0:0:0:0:
5,275,234518,1,2,0:0:0:0:
163,165,234733,6,0,B|181:101|137:108|160:24|160:24|172:57|195:77,1,191.999994140625,2|8,1:2|0:0,0:0:0:0:
258,232,235375,1,2,0:0:0:0:
258,232,235483,1,2,0:0:0:0:
258,232,235590,1,2,1:2:0:0:
409,148,235804,1,2,0:0:0:0:
266,51,236018,1,8,0:0:0:0:
339,208,236233,1,2,0:0:0:0:
417,54,236447,6,0,P|471:68|503:156,1,143.999995605469,2|0,1:2|0:0,0:0:0:0:
489,167,236875,2,0,P|481:217|484:268,1,95.9999970703126,8|0,0:0|0:0,0:0:0:0:
347,370,237303,1,2,1:2:0:0:
391,203,237518,1,2,0:0:0:0:
497,340,237733,1,10,0:0:0:0:
299,262,237947,1,2,0:0:0:0:
489,167,238161,6,0,B|522:127|519:80|492:44|492:44|422:53,1,191.999994140625,4|8,0:0|0:0,0:0:0:0:
303,178,238804,1,2,0:0:0:0:
303,178,238911,1,2,0:0:0:0:
303,178,239018,2,0,P|339:202|401:199,1,95.9999970703126,2|0,1:2|0:0,0:0:0:0:
307,51,239447,2,0,L|161:25,1,143.999995605469,8|0,0:0|0:0,0:0:0:0:
139,9,239875,6,0,B|113:43|113:43|122:103,1,95.9999970703126,2|0,1:2|0:0,0:0:0:0:
197,218,240304,1,8,0:0:0:0:
248,118,240518,2,0,L|175:105,1,47.9999985351563,2|0,0:0|0:0,0:0:0:0:
78,168,240733,1,2,1:2:0:0:
245,280,240947,1,2,0:0:0:0:
52,338,241161,1,10,0:0:0:0:
149,162,241375,1,2,0:0:0:0:
254,357,241590,6,0,B|374:360|312:309|444:321,1,191.999994140625,6|8,1:2|0:0,0:0:0:0:
494,156,242233,2,0,P|508:181|506:209,1,47.9999985351563,6|0,3:2|0:0,0:0:0:0:
391,242,242447,2,0,P|368:204|383:157,1,95.9999970703126,2|0,1:2|0:0,0:0:0:0:
434,3,242875,2,0,P|457:41|442:88,1,95.9999970703126,8|0,0:2|0:0,0:0:0:0:
442,87,243197,1,2,0:0:0:0:
442,87,243304,6,0,P|396:79|343:65,1,95.9999970703126,6|0,1:2|0:0,0:0:0:0:
288,19,243625,1,2,0:0:0:0:
288,19,243732,2,0,P|242:27|189:41,1,95.9999970703126,8|4,0:2|1:2,0:0:0:0:
145,93,244054,1,2,0:0:0:0:
145,93,244161,6,0,P|152:120|156:140,1,47.9999985351563,2|0,1:2|0:0,0:0:0:0:
204,249,244375,2,0,P|208:225|214:202,1,47.9999985351563,2|0,0:0|0:0,0:0:0:0:
283,97,244590,2,0,P|290:124|294:144,1,47.9999985351563,10|0,0:2|0:0,0:0:0:0:
332,277,244804,2,0,P|336:253|342:230,1,47.9999985351563,2|2,0:2|0:0,0:0:0:0:
442,87,245018,6,0,P|477:211|491:298,2,191.999994140625,6|8|2,1:2|0:0|1:2,0:0:0:0:
365,1,246090,1,0,0:0:0:0:
217,43,246304,2,0,P|248:100|323:116,1,143.999995605469,8|0,0:0|0:0,0:0:0:0:
347,106,246733,6,0,L|335:205,1,95.9999970703126,2|0,1:2|0:0,0:0:0:0:
254,296,247161,1,8,0:0:0:0:
168,158,247375,1,2,0:0:0:0:
168,158,247483,1,2,0:0:0:0:
168,158,247590,1,2,1:2:0:0:
335,201,247804,1,2,0:0:0:0:
182,286,248018,1,10,0:0:0:0:
258,109,248233,1,2,0:0:0:0:
338,283,248447,6,0,B|400:289|455:313|455:313|426:291|408:262,1,191.999994140625,2|8,1:2|0:0,0:0:0:0:
460,101,249090,1,2,0:0:0:0:
460,101,249197,1,2,0:0:0:0:
460,101,249304,2,0,P|496:121|495:176,1,95.9999970703126,2|0,1:2|0:0,0:0:0:0:
334,204,249733,2,0,P|330:168|334:107,1,95.9999970703126,8|0,0:0|0:0,0:0:0:0:
358,92,250054,1,2,0:0:0:0:
358,92,250161,6,0,P|349:25|276:17,1,143.999995605469,6|0,1:2|0:0,0:0:0:0:
259,83,250590,1,8,0:0:0:0:
334,204,250804,2,0,P|370:208|431:204,1,95.9999970703126,2|2,0:0|1:2,0:0:0:0:
358,92,251233,1,0,0:0:0:0:
250,184,251447,2,0,L|259:288,1,95.9999970703126,8|0,0:0|0:0,0:0:0:0:
265,309,251768,1,2,0:0:0:0:
265,309,251875,6,0,P|215:300|171:348,1,103.999995239258,6|0,1:2|0:0,0:0:0:0:
252,383,252197,2,0,P|201:374|176:330,1,103.999995239258,2|0,3:2|0:0,0:0:0:0:
104,301,252518,2,0,P|96:325|98:351,1,51.999997619629,4|0,0:3|0:0,0:0:0:0:
145,223,252732,6,0,P|195:232|239:184,1,103.999995239258,6|0,1:2|0:0,0:0:0:0:
158,149,253054,2,0,P|207:156|233:199,1,103.999995239258,2|0,3:2|3:0,0:0:0:0:
307,231,253375,2,0,P|314:206|312:180,1,51.999997619629,4|0,0:3|0:0,0:0:0:0:
266,312,253590,6,0,P|316:322|374:337,1,103.999995239258,6|0,1:2|0:0,0:0:0:0:
446,318,253911,1,2,0:0:0:0:
446,318,254018,2,0,P|474:279|466:216,1,103.999995239258,8|0,0:0|0:0,0:0:0:0:
412,181,254340,1,2,0:0:0:0:
412,181,254447,6,0,P|406:159|409:131,1,51.999997619629,2|0,1:2|0:0,0:0:0:0:
492,59,254661,2,0,P|498:81|495:109,1,51.999997619629,2|0,0:2|0:0,0:0:0:0:
382,57,254875,2,0,L|276:70,1,103.999995239258,8|0,0:0|0:0,0:0:0:0:
208,44,255197,1,2,0:0:0:0:
208,44,255304,6,0,B|69:20|69:20|103:46|115:75,1,207.999990478516,6|8,1:2|0:0,0:0:0:0:
22,197,255947,2,0,L|230:164,1,207.999990478516,2|0,0:0|0:0,0:0:0:0:
227,164,256483,1,2,0:0:0:0:
227,164,256590,1,8,0:0:0:0:
369,251,256804,2,0,P|347:264|321:268,1,51.999997619629,2|0,0:0|0:0,0:0:0:0:
206,253,257018,5,6,1:2:0:0:
206,253,257125,1,2,0:0:0:0:
206,253,257232,2,0,L|214:305,1,51.999997619629,2|0,0:0|0:0,0:0:0:0:
326,183,257447,1,8,0:2:0:0:
326,183,257554,1,2,0:0:0:0:
326,183,257660,2,0,L|334:131,1,51.999997619629,2|0,0:0|0:0,0:0:0:0:
172,64,257875,5,2,1:2:0:0:
172,64,257982,1,2,0:0:0:0:
172,64,258090,2,0,L|180:116,1,51.999997619629,2|0,0:0|0:0,0:0:0:0:
384,57,258304,1,8,0:2:0:0:
384,57,258411,1,2,0:0:0:0:
384,57,258517,2,0,L|392:5,1,51.999997619629,2|0,0:0|0:0,0:0:0:0:
503,193,258733,6,0,P|456:170|401:177,1,103.999995239258,6|0,1:2|0:0,0:0:0:0:
384,250,259054,2,0,P|337:273|282:266,1,103.999995239258,2|0,3:2|0:0,0:0:0:0:
231,214,259375,2,0,L|225:162,1,51.999997619629,4|0,3:3|0:0,0:0:0:0:
91,75,259590,6,0,P|138:98|193:91,1,103.999995239258,6|0,1:2|0:0,0:0:0:0:
210,18,259911,2,0,P|257:-5|312:2,1,103.999995239258,2|0,3:2|0:0,0:0:0:0:
363,55,260232,2,0,L|369:107,1,51.999997619629,4|0,3:3|0:0,0:0:0:0:
482,247,260447,6,0,B|412:234|412:234|373:255,1,103.999995239258,6|0,1:2|0:0,0:0:0:0:
329,306,260768,1,2,0:0:0:0:
329,306,260875,2,0,L|218:290,1,103.999995239258,8|0,0:0|0:0,0:0:0:0:
165,340,261197,1,2,0:0:0:0:
165,340,261304,6,0,P|110:302|116:218,1,155.999992858887,2|0,1:2|0:0,0:0:0:0:
184,182,261733,2,0,P|193:139|190:80,1,103.999995239258,8|0,0:0|0:0,0:0:0:0:
72,14,262161,6,0,P|61:65|64:136,1,120,6|2,1:2|0:0,0:0:0:0:
64,132,263233,2,0,L|12:121,1,53.3333333333333,12|0,3:0|3:0,0:3:0:0:
127,207,263822,1,12,0:3:0:0:
127,207,263929,6,0,P|177:199|222:234,1,103.999995239258,12|0,0:0|0:0,0:0:0:0:
280,276,264250,2,0,P|330:284|375:249,1,103.999995239258,12|0,0:0|0:0,0:0:0:0:
410,186,264572,2,0,L|435:32,1,155.999992858887,12|0,0:0|0:0,0:0:0:0:
357,34,265000,2,0,L|347:98,1,51.999997619629,12|0,0:0|0:0,0:0:0:0:
276,145,265215,6,0,P|265:135|256:124,1,25.9999988098145,10|0,0:0|0:0,0:0:0:0:
265,161,265322,2,0,P|251:154|240:145,1,25.9999988098145,10|0,0:0|0:0,0:0:0:0:
261,178,265429,2,0,P|246:174|233:169,1,25.9999988098145,10|0,0:0|0:0,0:0:0:0:
263,194,265536,2,0,P|248:194|234:193,1,25.9999988098145,10|0,0:0|0:0,0:0:0:0:
270,211,265642,6,0,P|277:249|336:276,1,100,4|0,0:0|0:0,0:0:0:0:
412,298,266018,2,0,B|306:289|357:328|254:325,1,160,8|2,0:0|1:2,0:0:0:0:
179,376,266661,1,2,0:0:0:0:
179,376,266768,1,2,0:0:0:0:
179,376,266875,2,0,P|164:343|177:298,1,80,8|0,0:0|0:0,0:0:0:0:
308,186,267304,6,0,L|145:160,1,160,2|8,1:2|0:0,0:0:0:0:
82,93,267947,1,2,0:0:0:0:
21,167,268161,2,0,P|2:202|8:247,1,80,2|0,1:2|0:0,0:0:0:0:
116,312,268589,2,0,P|135:277|129:232,1,80,8|0,0:2|0:0,0:0:0:0:
82,93,269018,6,0,P|142:50|226:76,1,160,2|8,1:2|0:0,0:0:0:0:
291,136,269661,1,2,0:0:0:0:
225,206,269875,2,0,L|241:374,1,160,2|8,1:2|0:0,0:0:0:0:
322,315,270518,1,2,0:0:0:0:
454,372,270732,6,0,B|476:268|476:268|444:217,1,160,2|8,1:2|0:0,0:0:0:0:
374,160,271375,1,2,0:0:0:0:
314,235,271589,2,0,L|322:319,1,80,2|0,1:2|0:0,0:0:0:0:
235,356,272018,2,0,P|230:338|232:311,1,40,8|0,0:0|0:0,0:0:0:0:
184,164,272232,2,0,P|189:182|187:209,1,40,2|0,0:0|0:0,0:0:0:0:
116,290,272447,5,14,1:2:0:0:
108,74,272768,1,10,3:2:0:0:
290,191,273090,1,4,0:3:0:0:
67,204,273304,5,14,1:2:0:0:
218,18,273625,1,10,3:2:0:0:
254,256,273947,1,4,0:3:0:0:
34,90,274161,6,0,L|118:76,1,80,6|0,1:2|0:0,0:0:0:0:
138,92,274483,1,2,0:0:0:0:
138,92,274590,1,10,0:0:0:0:
218,18,274804,1,2,0:0:0:0:
326,113,275018,6,0,P|289:126|246:118,1,80,12|0,0:3|0:0,0:0:0:0:
231,105,275340,1,2,0:0:0:0:
231,105,275447,2,0,L|217:188,1,80,8|0,0:0|0:0,0:0:0:0:
87,289,275876,6,0,B|166:263|166:263|145:214|80:200|15:275|58:356|136:370|179:316,1,360.000013732911,6|0,0:0|0:0,0:0:0:0:
294,85,277376,1,2,0:0:0:0:
294,85,277483,1,2,0:0:0:0:
294,85,277590,2,0,B|256:110|265:157|265:157|313:314,1,240.000009155274,6|0,0:0|3:0,0:0:0:0:
312,172,279090,2,0,L|261:187,1,30.0000011444092,2|2,0:0|0:0,0:0:0:0:
236,195,279303,5,6,0:0:0:0:
256,192,279410,12,4,281071,0:0:0:0:
256,192,281125,12,4,286232,0:0:0:0:
