osu file format v14

[General]
AudioFilename: emotionalflutter.mp3
AudioLeadIn: 0
PreviewTime: 79511
Countdown: 0
SampleSet: Soft
StackLeniency: 0.7
Mode: 0
LetterboxInBreaks: 0
WidescreenStoryboard: 1

[Editor]
DistanceSpacing: 1.2
BeatDivisor: 4
GridSize: 32
TimelineZoom: 1

[Metadata]
Title:emotional flutter
TitleUnicode:emotional flutter
Artist:Harada Hitomi
ArtistUnicode:原田ひとみ
Creator:Wafu
Version:Normal
Source:ef - a fairy tale of the two.
Tags:minori visual novel
BeatmapID:393896
BeatmapSetID:161376

[Difficulty]
HPDrainRate:5
CircleSize:4
OverallDifficulty:5
ApproachRate:5
SliderMultiplier:1.2
SliderTickRate:1

[Events]
//Background and Video events
Video,0,"emotionalflutter.avi"
0,0,"bg.jpg",0,0
//Break Periods
//Storyboard Layer 0 (Background)
//Storyboard Layer 1 (Fail)
//Storyboard Layer 2 (Pass)
//Storyboard Layer 3 (Foreground)
//Storyboard Sound Samples

[TimingPoints]
40784,545.454545454546,4,2,1,30,1,0
40784,-133.333333333333,4,2,1,30,0,0
58238,-100,4,2,2,40,0,0
67511,-100,4,2,2,40,0,0
67647,-100,4,2,2,40,0,0
80056,-86.9565217391304,4,2,2,50,0,1
80602,-86.9565217391304,4,2,3,50,0,1
80738,-86.9565217391304,4,2,2,50,0,1
95874,-86.9565217391304,4,2,3,50,0,1
96011,-86.9565217391304,4,2,2,50,0,1
99693,-86.9565217391304,4,2,1,40,0,0
103238,-86.9565217391304,4,2,2,40,0,0
104056,-86.9565217391304,4,2,1,40,0,0
104602,-86.9565217391304,4,2,3,40,0,0
104738,-86.9565217391304,4,2,1,40,0,0
107329,-86.9565217391304,4,2,2,40,0,0
108420,-86.9565217391304,4,2,1,30,0,0
114965,-86.9565217391304,4,2,1,20,0,0
117147,-86.9565217391304,4,2,2,50,0,0

[Colours]
Combo1 : 206,255,244
Combo2 : 255,210,117
Combo3 : 255,239,174
Combo4 : 177,177,218
Combo5 : 204,203,220
Combo6 : 179,255,243

[HitObjects]
332,70,40784,6,0,P|376:72|415:94,1,90.0000034332276,2|0,0:0|0:0,0:0:0:0:
325,291,42420,1,0,0:0:0:0:
221,323,42965,6,0,P|176:321|137:299,1,90.0000034332276,2|0,0:0|0:0,0:0:0:0:
108,254,43784,2,0,L|112:209,1,45.0000017166138,0|0,0:0|0:0,0:0:0:0:
236,105,44874,1,0,0:0:0:0:
284,80,45147,6,0,P|369:94|401:174,1,180.000006866455,2|0,0:0|0:0,0:0:0:0:
294,191,46784,1,0,0:0:0:0:
191,157,47329,6,0,P|146:159|109:183,1,90.0000034332276,2|0,0:0|0:0,0:0:0:0:
410,304,49511,6,0,P|485:228|462:122,1,225.000008583069,2|0,0:0|0:0,0:0:0:0:
416,95,51147,1,0,0:0:0:0:
317,138,51693,6,0,P|276:155|231:152,2,90.0000034332276,2|0|0,0:0|0:0|0:0,0:0:0:0:
352,35,53329,1,0,0:0:0:0:
426,113,53874,6,0,L|433:202,1,90.0000034332276,2|0,0:0|0:0,0:0:0:0:
395,303,54965,1,0,0:0:0:0:
289,281,55511,2,0,L|244:287,1,45.0000017166138,0|0,0:0|0:0,0:0:0:0:
190,291,56056,6,0,P|132:226|154:142,1,180.000006866455,2|0,0:0|0:0,0:0:0:0:
229,65,57693,1,0,0:0:0:0:
357,129,58238,6,0,L|476:132,2,120,2|8|2,0:0|0:0|0:0,0:0:0:0:
243,217,59874,1,8,0:0:0:0:
140,317,60420,6,0,P|99:277|99:218,1,120,2|8,0:0|0:0,0:0:0:0:
155,173,61238,1,0,0:0:0:0:
215,133,61511,2,0,P|215:74|173:33,1,120,2|8,0:0|0:0,0:0:0:0:
66,130,62602,5,2,0:0:0:0:
102,269,63147,1,8,0:0:0:0:
245,285,63693,2,0,P|299:264|357:278,1,120,2|8,0:0|0:0,0:0:0:0:
416,319,64511,1,0,0:0:0:0:
478,283,64784,6,0,L|485:163,2,120,2|8|2,0:0|0:0|0:0,0:0:0:0:
351,352,66420,1,8,0:0:0:0:
211,315,66965,6,0,P|141:224|195:124,1,240,2|2,0:0|0:0,0:0:0:0:
329,69,68602,1,8,0:0:0:0:
418,181,69147,6,0,P|461:191|506:186,2,90,2|0|10,0:0|0:0|0:0,0:0:0:0:
349,157,70238,2,0,P|305:146|260:151,2,90,2|0|2,0:0|0:0|0:0,0:0:0:0:
256,192,71329,12,2,75693,0:0:0:0:
296,128,76784,5,2,0:0:0:0:
155,160,77329,1,8,0:0:0:0:
191,299,77874,6,0,P|245:320|300:299,2,120,2|8|10,0:0|0:0|0:0,0:0:0:0:
93,192,79511,1,8,0:0:0:0:
211,77,80056,6,0,P|310:55|393:112,1,207.000003948212,6|0,0:0|0:0,0:0:0:0:
416,191,81147,2,0,L|394:327,1,138.000002632141,2|8,0:0|0:0,0:0:0:0:
230,345,82238,5,6,0:0:0:0:
82,268,82784,1,12,0:0:0:0:
133,109,83329,2,0,P|189:73|256:80,1,138.000002632141,6|8,0:0|0:0,0:0:0:0:
330,117,84147,1,0,0:0:0:0:
344,198,84420,6,0,L|353:335,2,138.000002632141,6|8|2,0:0|0:0|0:0,0:0:0:0:
189,137,86056,1,8,0:0:0:0:
59,239,86602,6,0,P|63:305|122:334,1,138.000002632141,2|8,0:0|0:0,0:0:0:0:
284,297,87693,2,0,P|318:295|351:305,2,69.0000013160706,2|0|8,0:0|0:0|0:0,0:0:0:0:
132,231,88784,6,0,L|118:94,1,138.000002632141,2|8,0:0|0:0,0:0:0:0:
184,44,89602,1,0,0:0:0:0:
244,99,89874,2,0,P|288:149|355:151,1,138.000002632141,2|8,0:0|0:0,0:0:0:0:
500,71,90965,6,0,P|530:130|508:193,2,138.000002632141,2|12|2,0:0|0:0|0:0,0:0:0:0:
337,34,92602,1,8,0:0:0:0:
260,181,93147,6,0,P|195:201|126:203,1,138.000002632141,2|8,0:0|0:0,0:0:0:0:
69,140,93965,1,0,0:0:0:0:
42,218,94238,1,2,0:0:0:0:
156,337,94784,1,8,0:0:0:0:
256,205,95329,6,0,P|382:185|431:303,1,276.000005264282,2|2,0:0|0:0,0:0:0:0:
280,372,96965,2,0,B|211:364,1,69.0000013160706,8|0,0:0|0:0,0:0:0:0:
130,347,97511,6,0,P|99:286|114:220,1,138.000002632141,2|8,0:0|0:0,0:0:0:0:
230,101,98602,1,2,0:0:0:0:
267,262,99147,1,8,0:0:0:0:
103,235,99693,6,0,B|99:186|99:186|79:143|93:99,1,138.000002632141,2|8,0:0|0:0,0:0:0:0:
257,127,100784,1,0,0:0:0:0:
398,41,101329,2,0,L|466:50,1,69.0000013160706,8|0,0:0|0:0,0:0:0:0:
506,122,101874,6,0,B|521:187|476:187|499:255,2,138.000002632141,2|8|0,0:0|0:0|0:0,0:0:0:0:
344,158,103511,1,8,0:0:0:0:
193,89,104056,6,0,P|68:122|67:250,1,276.000005264282,2|0,0:0|0:0,0:0:0:0:
209,336,105693,1,8,0:0:0:0:
316,208,106238,6,0,P|373:173|439:187,1,138.000002632141,2|8,0:0|0:0,0:0:0:0:
404,349,107329,1,2,0:0:0:0:
331,309,107602,1,2,0:0:0:0:
260,351,107874,1,8,0:0:0:0:
256,192,108420,12,10,117147,0:0:0:0:
