osu file format v14

[General]
AudioFilename: emotionalflutter.mp3
AudioLeadIn: 0
PreviewTime: 79511
Countdown: 0
SampleSet: Soft
StackLeniency: 0.7
Mode: 0
LetterboxInBreaks: 0
WidescreenStoryboard: 1

[Editor]
DistanceSpacing: 1.2
BeatDivisor: 4
GridSize: 32
TimelineZoom: 1

[Metadata]
Title:emotional flutter
TitleUnicode:emotional flutter
Artist:Harada Hitomi
ArtistUnicode:原田ひとみ
Creator:Wafu
Version:Hard
Source:ef - a fairy tale of the two.
Tags:minori visual novel
BeatmapID:393895
BeatmapSetID:161376

[Difficulty]
HPDrainRate:7
CircleSize:4
OverallDifficulty:7
ApproachRate:7
SliderMultiplier:1.4
SliderTickRate:1

[Events]
//Background and Video events
Video,0,"emotionalflutter.avi"
0,0,"bg.jpg",0,0
//Break Periods
//Storyboard Layer 0 (Background)
//Storyboard Layer 1 (Fail)
//Storyboard Layer 2 (Pass)
//Storyboard Layer 3 (Foreground)
//Storyboard Sound Samples

[TimingPoints]
40784,545.454545454546,4,2,1,30,1,0
40784,-133.333333333333,4,2,1,30,0,0
58238,-100,4,2,2,40,0,0
80056,-86.9565217391304,4,2,2,50,0,1
99693,-86.9565217391304,4,2,1,40,0,0
103238,-86.9565217391304,4,2,2,40,0,0
104056,-86.9565217391304,4,2,1,40,0,0
107329,-86.9565217391304,4,2,2,40,0,0
108420,-86.9565217391304,4,2,1,30,0,0
114965,-86.9565217391304,4,2,1,20,0,0
117147,-86.9565217391304,4,2,2,50,0,0

[Colours]
Combo1 : 206,255,244
Combo2 : 255,210,117
Combo3 : 255,239,174
Combo4 : 177,177,218
Combo5 : 204,203,220
Combo6 : 179,255,243

[HitObjects]
388,239,40784,6,0,L|392:291,2,52.5000020027161,2|0|0,0:0|0:0|0:0,0:0:0:0:
111,139,42420,1,0,0:0:0:0:
82,206,42693,1,0,0:0:0:0:
88,277,42965,6,0,P|138:336|214:339,1,157.500006008148,2|0,0:0|0:0,0:0:0:0:
258,281,44056,1,0,0:0:0:0:
310,66,44874,1,0,0:0:0:0:
383,74,45147,6,0,P|432:132|426:208,1,157.500006008148,2|0,0:0|0:0,0:0:0:0:
370,256,46238,2,0,L|266:269,1,105.000004005432
120,290,47329,6,0,P|95:297|73:312,2,52.5000020027161,2|0|0,0:0|0:0|0:0,0:0:0:0:
386,304,49511,6,0,P|425:188|321:126,1,262.500010013581,2|0,0:0|0:0,0:0:0:0:
249,140,51147,1,0,0:0:0:0:
189,183,51420,1,0,0:0:0:0:
118,207,51693,6,0,P|68:197|37:156,1,105.000004005432,2|0,0:0|0:0,0:0:0:0:
53,84,52511,1,0,0:0:0:0:
110,130,52784,2,0,L|214:133,1,105.000004005432
353,85,53874,6,0,P|402:102|433:144,2,105.000004005432,2|0|0,0:0|0:0|0:0,0:0:0:0:
281,99,55238,1,0,0:0:0:0:
230,152,55511,2,0,L|175:157,1,52.5000020027161
111,189,56056,6,0,P|93:262|139:322,1,157.500006008148,2|0,0:0|0:0,0:0:0:0:
212,335,57147,2,0,L|316:343,1,105.000004005432
454,205,58238,6,0,P|470:138|432:82,1,140,2|8,0:0|0:0,0:0:0:0:
335,65,59056,1,0,0:0:0:0:
335,65,59193,1,0,0:0:0:0:
335,65,59329,2,0,L|264:75,2,70,2|0|8,0:0|0:0|0:0,0:0:0:0:
388,253,60420,6,0,P|342:303|274:310,1,140,2|8,0:0|0:0,0:0:0:0:
194,252,61238,1,0,0:0:0:0:
194,252,61374,1,0,0:0:0:0:
194,252,61511,2,0,P|125:258|79:309,1,140,2|8,0:0|0:0,0:0:0:0:
169,347,62329,1,0,0:0:0:0:
263,322,62602,6,0,P|295:261|275:195,3,140,2|8|2|8,0:0|0:0|0:0|0:0,0:0:0:0:
213,119,64511,1,0,0:0:0:0:
157,200,64784,6,0,L|17:198,2,140,2|8|2,0:0|0:0|0:0,0:0:0:0:
299,65,66420,1,8,0:0:0:0:
446,191,66965,6,0,P|441:259|385:298,1,140,2|8,0:0|0:0,0:0:0:0:
297,254,67784,1,2,0:0:0:0:
297,254,67920,1,2,0:0:0:0:
297,254,68056,2,0,P|262:252|229:263,1,70,2|2,0:0|0:0,0:0:0:0:
207,275,68465,1,2,0:0:0:0:
187,289,68602,2,0,P|154:300|119:298,1,70,8|2,0:0|0:0,0:0:0:0:
39,241,69147,6,0,P|30:189|40:138,2,105,2|0|10,0:0|0:0|0:0,0:0:0:0:
127,282,70238,2,0,P|135:333|125:384,2,105,2|0|2,0:0|0:0|0:0,0:0:0:0:
256,192,71329,12,2,74602,0:0:0:0:
277,128,75693,6,0,P|192:206|302:239,1,280,2|2,0:0|0:0,0:0:0:0:
437,133,77329,1,8,0:0:0:0:
437,133,77874,6,0,L|449:97,3,35,2|0|2|0,0:0|0:0|0:0|0:0,0:0:0:0:
347,170,78420,2,0,L|335:206,3,35,8|0|2|2,0:0|0:0|0:0|0:0,0:0:0:0:
294,88,78965,2,0,L|306:52,3,35,10|0|2|8,0:0|0:0|0:0|0:0,0:0:0:0:
208,132,79511,2,0,P|175:140|140:140,1,70,8|2,0:0|0:0,0:0:0:0:
48,73,80056,6,0,P|24:147|59:218,1,161.000003070831,6|8,0:0|0:0,0:0:0:0:
162,264,80874,1,0,0:0:0:0:
162,264,81011,1,0,0:0:0:0:
162,264,81147,2,0,L|153:344,2,80.5000015354157,2|0|8,0:0|0:0|0:0,0:0:0:0:
240,183,81965,1,0,0:0:0:0:
315,266,82238,6,0,P|381:307|459:295,2,161.000003070831,6|12|6,0:0|0:0|0:0,0:0:0:0:
344,156,83602,1,0,0:0:0:0:
258,82,83874,2,0,L|178:89,1,80.5000015354157,8|0,0:0|0:0,0:0:0:0:
84,153,84420,6,0,P|73:230|124:288,1,161.000003070831,6|8,0:0|0:0,0:0:0:0:
237,289,85238,1,0,0:0:0:0:
237,289,85374,1,0,0:0:0:0:
237,289,85511,2,0,P|276:284|313:299,2,80.5000015354157,2|0|8,0:0|0:0|0:0,0:0:0:0:
139,346,86329,1,0,0:0:0:0:
63,262,86602,6,0,L|56:102,1,161.000003070831,2|8,0:0|0:0,0:0:0:0:
156,50,87420,1,2,0:0:0:0:
156,50,87556,1,2,0:0:0:0:
156,50,87693,2,0,P|192:67|232:69,1,80.5000015354157,2|0,0:0|0:0,0:0:0:0:
343,55,88238,2,0,P|382:57|419:74,1,80.5000015354157,8|2,0:0|0:0,0:0:0:0:
481,169,88784,6,0,P|478:247|421:300,1,161.000003070831,2|8,0:0|0:0,0:0:0:0:
309,289,89602,1,0,0:0:0:0:
309,289,89738,1,0,0:0:0:0:
309,289,89874,2,0,L|304:208,2,80.5000015354157,2|0|8,0:0|0:0|0:0,0:0:0:0:
208,340,90693,1,0,0:0:0:0:
103,299,90965,6,0,L|94:138,2,161.000003070831,2|12|2,0:0|0:0|0:0,0:0:0:0:
208,340,92329,1,0,0:0:0:0:
295,269,92602,2,0,P|331:253|371:256,1,80.5000015354157,8|0,0:0|0:0,0:0:0:0:
481,282,93147,6,0,P|518:214|487:142,1,161.000003070831,2|8,0:0|0:0,0:0:0:0:
397,75,93965,1,0,0:0:0:0:
397,75,94102,1,0,0:0:0:0:
397,75,94238,2,0,L|316:80,1,80.5000015354157,2|0,0:0|0:0,0:0:0:0:
211,120,94784,2,0,L|130:125,1,80.5000015354157,8|0,0:0|0:0,0:0:0:0:
105,138,95193,1,0,0:0:0:0:
79,152,95329,6,0,P|43:219|86:283,2,161.000003070831,2|8|2,0:0|0:0|0:0,0:0:0:0:
174,214,96693,1,0,0:0:0:0:
263,145,96965,2,0,L|344:136,1,80.5000015354157,8|0,0:0|0:0,0:0:0:0:
441,80,97511,5,2,0:0:0:0:
441,80,97784,1,2,0:0:0:0:
469,188,98056,2,0,L|508:194,2,40.2500007677078,8|2|2,0:0|0:0|0:0,0:0:0:0:
387,267,98602,1,2,0:0:0:0:
387,267,98874,1,2,0:0:0:0:
361,157,99147,1,8,0:0:0:0:
361,157,99420,1,2,0:0:0:0:
276,79,99693,6,0,B|206:68|206:68|171:45|120:59,1,161.000003070831,2|8,0:0|0:0,0:0:0:0:
74,162,100511,1,0,0:0:0:0:
74,162,100647,1,0,0:0:0:0:
74,162,100784,2,0,L|68:242,1,80.5000015354157
177,270,101329,2,0,L|183:190,1,80.5000015354157,8|0,0:0|0:0,0:0:0:0:
214,81,101874,6,0,B|293:57|293:106|372:78,1,161.000003070831,2|8,0:0|0:0,0:0:0:0:
484,64,102693,1,0,0:0:0:0:
484,64,102829,1,0,0:0:0:0:
484,64,102965,2,0,L|489:145,2,80.5000015354157,0|2|8,0:0|0:0|0:0,0:0:0:0:
484,64,103647,1,2,0:0:0:0:
484,64,103784,1,2,0:0:0:0:
372,40,104056,6,0,P|295:42|248:104,2,161.000003070831,2|8|0,0:0|0:0|0:0,0:0:0:0:
369,210,105693,2,0,L|362:291,1,80.5000015354157,8|0,0:0|0:0,0:0:0:0:
278,366,106238,6,0,P|200:379|132:339,1,161.000003070831,2|8,0:0|0:0,0:0:0:0:
117,227,107056,1,0,0:0:0:0:
225,196,107329,1,2,0:0:0:0:
225,196,107602,1,2,0:0:0:0:
317,259,107874,1,8,0:0:0:0:
317,259,108147,1,2,0:0:0:0:
256,192,108420,12,10,117147,0:0:0:0:
