osu file format v14

[General]
AudioFilename: audio.mp3
AudioLeadIn: 0
PreviewTime: 63026
Countdown: 0
SampleSet: Soft
StackLeniency: 0.7
Mode: 0
LetterboxInBreaks: 0
WidescreenStoryboard: 1

[Editor]
Bookmarks: 1182,11731,22280,32830,43379,53929,64478,85577,96127,99423,109972,115247,120521,141620,152170,160082,162719,167994,173269,178543,183818,193049,195686,216785,227335,237884
DistanceSpacing: 0.8
BeatDivisor: 4
GridSize: 32
TimelineZoom: 1

[Metadata]
Title:Overdrive
TitleUnicode:Overdrive
Artist:Harada Hitomi
ArtistUnicode:原田ひとみ
Creator:Shirahane Suou
Version:Extreme
Source:VALKYRIE DRIVE -MERMAID-
Tags:j-rock jrock ヒゲドライバー hige driver ゆよゆっぺ yuyoyuppe ヴァルキリードライヴ マーメイド japanese anime opening rock 百合 yuri addy2607 fuju maot nexusqi
BeatmapID:2606405
BeatmapSetID:1254187

[Difficulty]
HPDrainRate:5.5
CircleSize:4
OverallDifficulty:9
ApproachRate:9.3
SliderMultiplier:1.9
SliderTickRate:1

[Events]
//Background and Video events
0,0,"bg.jpg",0,0
//Break Periods
2,110171,114693
//Storyboard Layer 0 (Background)
//Storyboard Layer 1 (Fail)
//Storyboard Layer 2 (Pass)
//Storyboard Layer 3 (Foreground)
//Storyboard Layer 4 (Overlay)
//Storyboard Sound Samples

[TimingPoints]
1182,329.67032967033,4,2,1,40,1,0
10742,-100,4,2,1,5,0,0
10907,-100,4,2,1,50,0,0
11731,-133.333333333333,4,2,1,40,0,0
22280,-111.111111111111,4,2,2,50,0,0
22610,-111.111111111111,4,2,1,50,0,0
27555,-111.111111111111,4,2,2,50,0,0
27885,-111.111111111111,4,2,1,50,0,0
31511,-249.999999999999,4,2,1,50,0,0
32171,-111.111111111111,4,2,1,50,0,0
32830,-90.9090909090908,4,2,2,70,0,0
33160,-90.9090909090908,4,2,1,70,0,0
38105,-90.9090909090908,4,2,2,70,0,0
38434,-90.9090909090908,4,2,1,70,0,0
43379,-133.333333333333,4,2,2,50,0,0
43709,-133.333333333333,4,2,1,50,0,0
48654,-133.333333333333,4,2,2,50,0,0
48984,-133.333333333333,4,2,1,50,0,0
53929,-111.111111111111,4,2,1,50,0,0
59203,-111.111111111111,4,2,2,50,0,0
59533,-111.111111111111,4,2,1,50,0,0
61841,-111.111111111111,4,2,2,50,0,0
62006,-111.111111111111,4,2,1,50,0,0
63160,-285.714285714286,4,2,1,50,0,0
63819,-142.857142857143,4,2,1,50,0,0
64478,-90.9090909090909,4,2,1,70,0,1
69753,-90.9090909090909,4,2,2,70,0,1
70083,-90.9090909090909,4,2,1,70,0,1
80302,-90.9090909090909,4,2,2,70,0,1
80632,-90.9090909090909,4,2,1,70,0,1
84258,-133.333333333333,4,2,1,45,0,0
84835,-133.333333333333,4,2,1,45,0,0
84918,-133.333333333333,4,2,1,45,0,0
85165,-133.333333333333,4,2,1,45,0,0
85247,-133.333333333333,4,2,1,45,0,0
85577,-90.9090909090909,4,2,2,70,0,0
85907,-90.9090909090909,4,2,1,70,0,0
90852,-90.9090909090909,4,2,2,70,0,0
91182,-90.9090909090909,4,2,1,70,0,0
94808,-90.9090909090909,4,2,2,70,0,0
94973,-90.9090909090909,4,2,1,70,0,0
99423,329.67032967033,4,2,1,60,1,0
99423,-111.111111111111,4,2,1,60,0,0
108653,-111.111111111111,4,2,2,60,0,0
108818,-111.111111111111,4,2,1,60,0,0
109972,-111.111111111111,4,2,2,50,0,0
110137,-111.111111111111,4,2,1,50,0,0
116565,-111.111111111111,4,2,2,50,0,0
116895,-111.111111111111,4,2,1,50,0,0
117884,-111.111111111111,4,2,2,50,0,0
118049,-111.111111111111,4,2,1,50,0,0
119203,-222.222222222222,4,2,1,50,0,0
120192,-111.111111111111,4,2,1,50,0,0
120521,-90.9090909090909,4,2,1,70,0,1
125796,-90.9090909090909,4,2,2,70,0,1
126126,-90.9090909090909,4,2,1,70,0,1
136346,-90.9090909090909,4,2,2,70,0,1
136675,-90.9090909090909,4,2,1,70,0,1
140302,-133.333333333333,4,2,1,45,0,0
140879,-133.333333333333,4,2,1,45,0,0
140961,-133.333333333333,4,2,1,45,0,0
141208,-133.333333333333,4,2,1,45,0,0
141291,-133.333333333333,4,2,1,45,0,0
141620,-90.9090909090909,4,2,2,70,0,0
141950,-90.9090909090909,4,2,1,70,0,0
150851,-90.9090909090909,4,2,2,70,0,0
150933,-90.9090909090909,4,2,1,70,0,0
152170,-90.9090909090909,4,2,2,70,0,0
152335,-90.9090909090909,4,2,1,70,0,0
154807,-90.9090909090909,4,2,2,70,0,0
154972,-90.9090909090909,4,2,1,70,0,0
157444,-90.9090909090909,4,2,2,70,0,0
157609,-90.9090909090909,4,2,1,70,0,0
162719,-111.111111111111,4,2,2,60,0,0
163049,-111.111111111111,4,2,1,60,0,0
167994,-90.9090909090909,4,2,2,70,0,0
168159,-90.9090909090909,4,2,1,70,0,0
170631,-90.9090909090909,4,2,2,70,0,0
170796,-90.9090909090909,4,2,1,70,0,0
173269,-111.111111111111,4,2,2,60,0,0
173598,-111.111111111111,4,2,1,60,0,0
178543,-90.9090909090909,4,2,2,70,0,0
178708,-90.9090909090909,4,2,1,70,0,0
183818,-111.111111111111,4,2,2,60,0,0
184148,-111.111111111111,4,2,1,60,0,0
186455,-111.111111111111,4,2,2,60,0,0
186785,-111.111111111111,4,2,1,60,0,0
189093,-111.111111111111,4,2,2,60,0,0
189423,-111.111111111111,4,2,1,60,0,0
193049,-222.222222222222,4,2,1,60,0,0
195686,-90.9090909090909,4,2,1,70,0,1
200961,-90.9090909090909,4,2,2,70,0,1
201291,-90.9090909090909,4,2,1,70,0,1
203598,-90.9090909090909,4,2,2,70,0,1
203763,-90.9090909090909,4,2,1,70,0,1
211510,-90.9090909090909,4,2,2,70,0,1
211840,-90.9090909090909,4,2,1,70,0,1
215466,-133.333333333333,4,2,1,45,0,0
216043,-133.333333333333,4,2,1,45,0,0
216126,-133.333333333333,4,2,1,45,0,0
216373,-133.333333333333,4,2,1,45,0,0
216455,-133.333333333333,4,2,1,45,0,0
216785,-90.9090909090909,4,2,1,70,0,0
222060,-90.9090909090909,4,2,2,70,0,0
222390,-90.9090909090909,4,2,1,70,0,0
227335,-90.9090909090909,4,2,2,70,0,1
227417,-90.9090909090909,4,2,2,70,0,0
227499,-90.9090909090909,4,2,1,70,0,0
232609,-90.9090909090909,4,2,2,70,0,1
232939,-90.9090909090909,4,2,1,70,0,1
236565,-90.9090909090909,4,2,2,70,0,1
236730,-90.9090909090909,4,2,1,70,0,1
237719,-90.9090909090909,4,2,1,70,0,0

[Colours]
Combo1 : 234,183,183
Combo2 : 188,191,192
Combo3 : 241,215,171
Combo4 : 171,168,179

[HitObjects]
256,192,6456,12,0,10742,0:0:0:0:
109,264,10908,5,2,0:3:0:0:
164,104,11072,1,8,0:0:0:0:
90,168,11236,1,0,1:0:0:0:
183,201,11401,1,8,0:0:0:0:
206,199,11483,1,4,0:3:0:0:
230,197,11565,1,4,0:3:0:0:
254,196,11648,1,4,0:3:0:0:
277,194,11731,6,0,P|283:228|287:264,1,71.2500027179719,6|0,1:2|0:0,0:0:0:0:
391,144,12061,2,0,P|384:178|380:214,1,71.2500027179719,2|0,1:2|0:0,0:0:0:0:
281,189,12390,2,0,P|287:223|291:259,1,71.2500027179719,2|0,1:2|0:0,0:0:0:0:
386,138,12720,2,0,P|379:172|375:208,1,71.2500027179719,2|0,1:2|0:0,0:0:0:0:
305,78,13050,5,2,1:2:0:0:
305,78,13214,1,0,0:0:0:0:
474,194,13379,1,2,1:2:0:0:
474,194,13544,1,0,0:0:0:0:
394,67,13709,1,2,1:2:0:0:
394,67,13874,2,0,L|384:162,1,71.2500027179719,2|0,0:0|1:0,0:0:0:0:
291,259,14203,1,2,0:0:0:0:
291,259,14368,6,0,L|283:188,1,71.2500027179719,0|0,1:0|0:0,0:0:0:0:
182,94,14698,2,0,L|174:164,1,71.2500027179719,2|2,1:2|0:0,0:0:0:0:
299,264,15028,2,0,L|291:193,1,71.2500027179719,0|2,1:0|0:0,0:0:0:0:
177,87,15357,2,0,L|169:157,1,71.2500027179719,0|2,1:0|0:0,0:0:0:0:
157,286,15687,6,0,P|102:243|35:259,2,142.500005435944,0|0|0,1:0|1:0|1:0,0:0:0:0:
337,367,16676,2,0,P|301:370|267:374,1,71.2500027179719,0|0,1:0|0:0,0:0:0:0:
299,264,17006,6,0,P|331:276|366:271,1,71.2500027179719,6|0,1:2|0:0,0:0:0:0:
456,154,17335,2,0,P|443:186|448:221,1,71.2500027179719,2|0,1:2|0:0,0:0:0:0:
303,269,17665,2,0,P|335:281|370:276,1,71.2500027179719,2|0,1:2|0:0,0:0:0:0:
462,153,17995,2,0,P|449:185|454:220,1,71.2500027179719,2|0,1:2|0:0,0:0:0:0:
458,384,18324,5,2,1:2:0:0:
458,384,18489,1,0,0:0:0:0:
512,303,18654,1,2,1:2:0:0:
512,303,18819,1,0,0:0:0:0:
368,356,18984,2,0,L|292:346,1,71.2500027179719,2|0,1:2|0:0,0:0:0:0:
202,267,19313,2,0,P|240:241|309:254,1,106.875004076958,2|0,1:2|0:0,0:0:0:0:
319,255,19643,6,0,P|322:183|330:113,2,142.500005435944,0|0|0,1:0|1:0|1:0,0:0:0:0:
204,356,20632,2,0,P|168:352|132:350,1,71.2500027179719,0|0,1:0|0:0,0:0:0:0:
1,256,20962,6,0,B|36:242|71:254|71:254|103:266|140:251,1,142.500005435944,2|0,1:2|1:0,0:0:0:0:
267,113,21621,2,0,P|236:94|160:154,1,142.500005435944,2|2,1:2|1:3,0:0:0:0:
318,255,22280,6,0,P|361:249|404:247,1,85.4999973907472,6|0,1:2|0:0,0:0:0:0:
502,150,22610,1,2,1:2:0:0:
502,150,22775,2,0,P|459:147|416:142,1,85.4999973907472,2|0,0:0|1:0,0:0:0:0:
304,29,23105,2,0,P|325:64|323:107,1,85.4999973907472,2|0,0:0|1:0,0:0:0:0:
232,188,23434,1,2,3:2:0:0:
232,188,23517,1,0,3:3:0:0:
232,188,23599,6,0,P|143:177|54:171,1,170.999994781494,0|2,1:0|1:2,0:0:0:0:
0,76,24094,2,0,P|44:85|87:54,1,85.4999973907472,0|0,3:3|1:0,0:0:0:0:
201,0,24423,2,0,P|181:37|191:78,1,85.4999973907472,2|0,0:0|1:0,0:0:0:0:
298,248,24753,1,2,3:2:0:0:
298,248,24835,1,0,3:3:0:0:
298,248,24918,6,0,B|330:217|339:173|339:173|301:147|296:103,1,170.999994781494,2|0,1:2|1:0,0:0:0:0:
380,21,25412,1,2,0:2:0:0:
380,21,25577,2,0,P|421:15|458:36,1,85.4999973907472,2|2,1:2|0:2,0:0:0:0:
406,112,25907,1,2,1:2:0:0:
512,205,26072,1,0,3:3:0:0:
512,205,26154,1,0,3:3:0:0:
512,205,26236,6,0,P|499:269|489:382,2,170.999994781494,0|2|2,1:0|1:2|1:2,0:0:0:0:
375,333,27225,1,2,1:2:0:0:
461,287,27390,1,10,0:0:0:0:
461,287,27473,1,0,0:0:0:0:
461,287,27555,6,0,P|397:236|317:254,1,170.999994781494,6|2,1:2|1:2,0:0:0:0:
234,309,28050,2,0,P|229:266|222:224,1,85.4999973907472,2|0,0:2|1:0,0:0:0:0:
140,156,28379,2,0,P|132:198|128:240,1,85.4999973907472,2|0,0:2|1:0,0:0:0:0:
9,384,28709,1,2,0:2:0:0:
9,384,28791,1,0,0:0:0:0:
9,384,28874,6,0,P|69:329|148:352,1,170.999994781494,4|0,1:2|1:0,0:0:0:0:
13,248,29368,1,2,0:2:0:0:
140,156,29533,1,2,1:2:0:0:
128,240,29698,1,2,0:2:0:0:
0,151,29863,1,10,0:2:0:0:
4,119,29945,1,8,0:0:0:0:
9,87,30027,1,8,0:0:0:0:
13,55,30110,1,8,0:0:0:0:
18,24,30192,5,2,1:3:0:0:
18,24,31511,6,0,P|44:50|122:45,1,114,2|0,0:2|0:0,0:0:0:0:
191,14,32171,1,2,0:2:0:0:
218,199,32335,5,0,1:0:0:0:
271,125,32500,2,0,P|223:104|149:141,1,128.249996086121,8|0,0:0|0:0,0:0:0:0:
156,131,32830,6,0,B|126:178|126:178|142:246,1,104.500003189087,6|0,1:2|0:0,0:0:0:0:
293,384,33160,2,0,B|323:337|323:337|307:269,1,104.500003189087,10|0,0:0|0:0,0:0:0:0:
271,125,33489,2,0,B|318:155|318:155|386:139,1,104.500003189087,2|2,1:2|1:2,0:0:0:0:
512,23,33819,1,10,0:2:0:0:
337,55,33984,1,2,0:2:0:0:
460,213,34149,6,0,L|470:104,1,104.500003189087,2|0,1:2|1:2,0:0:0:0:
298,300,34478,2,0,L|288:191,1,104.500003189087,10|0,0:2|0:0,0:0:0:0:
494,326,34808,2,0,P|440:320|391:361,1,104.500003189087,2|2,1:2|1:2,0:0:0:0:
203,263,35138,1,14,0:0:0:0:
378,165,35302,1,2,0:0:0:0:
222,0,35467,6,0,L|214:116,1,104.500003189087,6|2,1:2|1:2,0:0:0:0:
203,263,35797,1,8,0:0:0:0:
71,89,35962,2,0,L|79:205,1,104.500003189087,2|2,1:2|1:2,0:0:0:0:
90,352,36292,1,0,1:2:0:0:
215,241,36456,6,0,P|263:224|313:238,1,104.500003189087,10|2,0:0|1:2,0:0:0:0:
489,319,36786,1,0,1:2:0:0:
421,136,36951,2,0,L|408:260,1,104.500003189087,2|10,1:2|0:0,0:0:0:0:
389,384,37280,1,0,1:2:0:0:
323,138,37445,5,2,1:2:0:0:
509,215,37610,1,2,1:2:0:0:
275,327,37775,1,10,0:0:0:0:
246,300,37857,1,8,0:0:0:0:
229,265,37939,1,8,0:3:0:0:
227,226,38022,1,8,0:3:0:0:
238,189,38105,6,0,P|185:179|120:208,1,104.500003189087,6|0,1:2|0:0,0:0:0:0:
34,33,38434,2,0,P|52:82|109:124,1,104.500003189087,10|0,0:0|0:0,0:0:0:0:
0,290,38764,2,0,P|34:249|41:178,1,104.500003189087,2|2,1:2|1:2,0:0:0:0:
135,25,39094,1,10,0:2:0:0:
227,226,39258,1,2,0:2:0:0:
375,91,39423,6,0,B|324:76|324:76|274:89,1,104.500003189087,2|0,1:2|1:2,0:0:0:0:
317,282,39753,2,0,B|332:231|332:231|318:181,1,104.500003189087,10|0,0:2|0:0,0:0:0:0:
127,225,40083,2,0,B|178:240|178:240|227:226,1,104.500003189087,2|2,1:2|1:2,0:0:0:0:
253,4,40412,1,14,0:0:0:0:
180,148,40577,1,2,0:0:0:0:
376,92,40742,5,6,1:2:0:0:
161,40,40907,1,2,1:2:0:0:
318,181,41072,1,10,0:2:0:0:
253,4,41236,1,2,1:2:0:0:
226,225,41401,1,2,1:2:0:0:
101,110,41566,1,2,1:2:0:0:
274,89,41731,1,10,0:2:0:0:
126,224,41896,1,2,1:2:0:0:
313,277,42061,6,0,P|332:227|313:175,1,104.500003189087,14|0,0:0|1:2,0:0:0:0:
256,374,42390,2,0,L|380:387,1,104.500003189087,10|0,0:0|1:2,0:0:0:0:
511,244,42720,1,14,0:0:0:0:
410,206,42885,1,10,0:0:0:0:
410,206,42967,1,8,0:0:0:0:
410,206,43050,2,0,L|422:268,1,52.2500015945435,8|0,1:2|0:0,0:0:0:0:
484,384,43214,1,10,0:0:0:0:
484,384,43296,1,8,0:0:0:0:
484,384,43379,6,0,L|511:244,1,142.500005435944,6|10,1:2|0:0,0:0:0:0:
461,128,43874,2,0,P|429:112|393:111,1,71.2500027179719,2|0,0:0|0:0,0:0:0:0:
293,190,44203,1,2,1:2:0:0:
411,206,44368,1,8,0:0:0:0:
284,85,44533,6,0,P|289:20|354:22,1,142.500005435944,2|2,1:2|1:2,0:0:0:0:
293,190,45028,2,0,P|222:183|150:178,1,142.500005435944,10|0,0:0|0:0,0:0:0:0:
0,136,45522,1,2,1:2:0:0:
90,40,45687,2,0,P|86:75|84:111,1,71.2500027179719,10|2,0:2|0:0,0:0:0:0:
0,247,46017,6,0,P|36:234|116:303,1,142.500005435944,2|10,1:3|0:0,0:0:0:0:
199,384,46511,2,0,P|201:348|207:313,1,71.2500027179719,2|0,0:0|0:0,0:0:0:0:
293,190,46841,1,2,1:2:0:0:
323,308,47006,1,10,0:0:0:0:
186,210,47171,6,0,P|178:140|169:69,1,142.500005435944,0|0,1:0|1:2,0:0:0:0:
283,0,47665,2,0,P|278:35|274:70,1,71.2500027179719,8|0,0:0|3:3,0:0:0:0:
288,104,47912,1,0,3:0:0:0:
288,104,47995,1,0,3:0:0:0:
365,47,48160,1,0,1:0:0:0:
293,190,48324,1,8,0:0:0:0:
468,93,48489,1,8,0:3:0:0:
468,93,48572,1,4,0:3:0:0:
468,93,48654,6,0,P|474:164|477:236,1,142.500005435944,4|10,1:2|0:0,0:0:0:0:
499,355,49149,2,0,P|460:338|417:346,1,71.2500027179719,2|2,0:2|0:0,0:0:0:0:
314,221,49478,1,2,1:2:0:0:
396,250,49643,1,10,0:0:0:0:
266,328,49808,6,0,L|178:310,1,71.2500027179719,2|2,1:2|0:0,0:0:0:0:
140,165,50138,1,2,1:2:0:0:
29,266,50302,2,0,L|117:248,1,71.2500027179719,8|2,0:0|0:0,0:0:0:0:
238,167,50632,1,2,0:0:0:0:
197,314,50797,1,2,1:2:0:0:
47,172,50962,2,0,P|48:136|54:101,1,71.2500027179719,10|0,0:0|0:0,0:0:0:0:
240,29,51291,5,2,1:3:0:0:
240,29,51621,2,0,B|224:62|239:94|239:94|254:127|234:178,1,142.500005435944,10|0,0:0|0:0,0:0:0:0:
325,64,52116,1,0,1:0:0:0:
160,131,52280,1,8,0:0:0:0:
321,210,52445,1,0,1:0:0:0:
107,293,52610,6,0,P|161:250|226:270,1,142.500005435944,2|8,1:2|0:0,0:0:0:0:
398,344,53105,1,0,0:0:0:0:
306,384,53269,2,0,L|313:291,1,71.2500027179719,2|0,1:2|0:0,0:0:0:0:
408,156,53599,1,10,0:0:0:0:
494,260,53764,1,2,0:0:0:0:
494,260,53846,1,4,0:3:0:0:
494,260,53929,6,0,L|387:253,1,85.4999973907472,4|0,1:2|1:0,0:0:0:0:
289,180,54258,1,10,0:0:0:0:
394,13,54423,2,0,B|428:40|444:83|444:83|409:109|408:155,1,170.999994781494,2|2,1:2|1:2,0:0:0:0:
496,161,54918,1,8,0:0:0:0:
339,84,55083,6,0,P|253:88|168:93,1,170.999994781494,2|2,1:2|1:2,0:0:0:0:
40,7,55577,2,0,P|78:49|69:108,1,85.4999973907472,10|0,0:0|0:0,0:0:0:0:
153,2,55907,1,0,1:0:0:0:
0,80,56072,1,2,1:2:0:0:
138,195,56236,2,0,P|98:179|56:183,1,85.4999973907472,10|2,0:0|0:0,0:0:0:0:
227,244,56566,6,0,P|242:204|238:162,1,85.4999973907472,0|0,1:0|1:0,0:0:0:0:
141,295,56896,1,10,0:0:0:0:
328,301,57061,2,0,B|373:258|373:258|354:135,1,170.999994781494,2|2,1:2|1:2,0:0:0:0:
285,59,57555,1,10,0:0:0:0:
488,0,57720,6,0,B|443:43|443:43|462:166,1,170.999994781494,0|0,1:0|1:0,0:0:0:0:
509,291,58214,2,0,P|469:270|412:279,1,85.4999973907472,8|0,0:0|0:0,0:0:0:0:
285,209,58544,1,2,1:2:0:0:
326,332,58709,1,0,1:0:0:0:
373,175,58874,2,0,L|365:89,1,85.4999973907472,12|0,0:0|0:0,0:0:0:0:
202,1,59203,6,0,L|194:86,1,85.4999973907472,4|0,1:2|0:0,0:0:0:0:
59,209,59533,2,0,L|51:123,1,85.4999973907472,0|2,1:0|1:2,0:0:0:0:
211,0,59863,2,0,L|203:85,1,85.4999973907472,2|0,1:2|1:0,0:0:0:0:
187,274,60192,1,2,1:2:0:0:
367,140,60357,1,2,1:2:0:0:
367,140,60440,1,0,1:0:0:0:
367,140,60522,6,0,P|322:127|264:150,1,85.4999973907472,4|0,1:2|0:0,0:0:0:0:
317,316,60852,2,0,P|330:271|307:213,1,85.4999973907472,0|2,1:0|1:2,0:0:0:0:
203,85,61182,2,0,P|190:130|213:187,1,85.4999973907472,2|2,1:2|1:2,0:0:0:0:
128,355,61511,1,0,1:0:0:0:
93,200,61676,1,0,1:0:0:0:
317,316,61841,6,0,L|424:305,1,85.4999973907472,4|8,1:2|0:0,0:0:0:0:
442,228,62088,1,8,0:0:0:0:
442,228,62171,2,0,L|399:223,1,42.7499986953736,8|8,1:2|0:0,0:0:0:0:
332,177,62335,2,0,L|289:181,1,42.7499986953736,8|8,0:0|0:0,0:0:0:0:
409,135,62500,5,8,1:2:0:0:
428,110,62582,1,8,0:0:0:0:
435,79,62664,1,8,0:0:0:0:
429,48,62747,1,8,0:0:0:0:
409,23,62829,1,8,1:2:0:0:
381,8,62912,1,8,0:0:0:0:
349,8,62994,1,8,0:0:0:0:
320,21,63076,1,8,0:0:0:0:
300,45,63160,6,0,P|261:74|206:68,1,99.7499969558717,2|0,1:1|0:0,0:0:0:0:
16,66,63819,6,0,P|51:44|109:51,1,99.7499969558717,2|0,0:1|0:0,0:0:0:0:
107,50,64149,2,0,P|112:82|110:115,1,66.4999979705811,8|2,0:3|0:0,0:0:0:0:
74,273,64478,5,6,1:0:0:0:
212,71,64643,1,0,0:0:0:0:
206,343,64808,5,10,0:2:0:0:
287,112,64973,1,0,0:0:0:0:
354,384,65138,5,2,1:2:0:0:
372,139,65303,1,0,0:0:0:0:
170,259,65467,5,10,0:2:0:0:
428,314,65632,1,0,0:0:0:0:
355,54,65797,5,6,1:2:0:0:
286,301,65962,1,0,0:0:0:0:
276,32,66127,5,10,0:2:0:0:
170,259,66291,1,0,0:0:0:0:
202,0,66456,5,2,1:2:0:0:
59,203,66621,1,0,0:0:0:0:
360,190,66786,2,0,P|317:162|266:165,1,104.500003189087,10|0,0:2|0:0,0:0:0:0:
125,358,67116,5,6,1:2:0:0:
291,257,67280,1,2,0:0:0:0:
57,103,67445,1,8,0:0:0:0:
225,348,67610,5,2,0:2:0:0:
265,165,67775,1,2,1:2:0:0:
25,319,67940,1,0,0:0:0:0:
200,94,68105,5,10,0:2:0:0:
159,279,68269,1,2,0:2:0:0:
381,106,68434,1,4,1:2:0:0:
349,330,68599,5,2,0:2:0:0:
265,165,68764,1,10,0:2:0:0:
512,317,68929,1,0,0:0:0:0:
229,369,69094,6,0,L|111:357,1,104.500003189087,6|2,1:2|0:0,0:0:0:0:
28,167,69423,1,8,0:0:0:0:
227,33,69588,1,8,0:3:0:0:
227,33,69671,1,4,0:3:0:0:
227,33,69753,6,0,B|207:107|207:107|230:160|230:160|209:231,1,209.000006378174,6|10,1:2|0:0,0:0:0:0:
320,91,70247,1,2,0:0:0:0:
132,174,70412,2,0,L|27:167,1,104.500003189087,0|0,1:0|0:0,0:0:0:0:
224,334,70742,1,10,0:0:0:0:
223,117,70907,1,2,0:0:0:0:
223,117,70989,1,8,0:0:0:0:
223,117,71072,6,0,P|262:167|405:148,1,209.000006378174,0|10,1:0|0:0,0:0:0:0:
489,360,71566,1,2,0:0:0:0:
489,360,71649,1,0,0:0:0:0:
489,360,71731,2,0,P|511:313|502:263,1,104.500003189087,0|0,1:0|0:0,0:0:0:0:
320,91,72061,1,8,0:0:0:0:
152,290,72225,1,2,0:0:0:0:
152,290,72308,1,8,0:0:0:0:
152,290,72390,6,0,P|64:306|13:258,1,156.750004783631,6|2,1:2|0:0,0:0:0:0:
16,265,72720,2,0,L|16:146,1,104.500003189087,8|2,0:0|0:0,0:0:0:0:
203,12,73050,1,0,1:0:0:0:
101,207,73214,1,2,0:2:0:0:
62,13,73379,1,10,0:2:0:0:
264,174,73544,1,2,0:2:0:0:
264,174,73627,1,0,0:0:0:0:
264,174,73709,6,0,L|253:304,1,104.500003189087,12|0,0:0|1:0,0:0:0:0:
424,93,74039,2,0,L|435:223,1,104.500003189087,12|0,0:0|1:0,0:0:0:0:
255,278,74368,1,14,0:2:0:0:
306,61,74533,1,0,1:2:0:0:
377,271,74698,1,14,0:0:0:0:
412,287,74780,1,8,0:0:0:0:
451,287,74862,1,4,1:3:0:0:
486,271,74945,1,4,0:3:0:0:
512,243,75027,5,4,1:0:0:0:
335,367,75192,1,0,0:0:0:0:
460,174,75357,5,10,0:2:0:0:
255,278,75522,1,0,0:2:0:0:
444,85,75687,5,2,1:2:0:0:
195,166,75852,1,0,0:0:0:0:
451,287,76017,5,10,0:2:0:0:
356,53,76182,1,0,0:0:0:0:
128,254,76346,5,6,1:2:0:0:
378,225,76511,1,0,0:0:0:0:
89,137,76676,5,10,0:2:0:0:
336,143,76841,1,0,0:0:0:0:
84,9,77006,5,2,1:2:0:0:
356,53,77171,1,0,0:0:0:0:
226,277,77335,2,0,L|202:153,1,104.500003189087,10|0,0:2|0:0,0:0:0:0:
327,380,77665,5,6,1:2:0:0:
128,254,77830,1,0,0:0:0:0:
363,233,77995,1,8,0:0:0:0:
196,377,78160,1,2,0:0:0:0:
318,144,78324,2,0,B|363:118|363:118|427:149,1,104.500003189087,2|0,1:2|0:0,0:0:0:0:
436,370,78654,1,10,0:0:0:0:
226,277,78819,1,2,0:0:0:0:
494,211,78984,6,0,L|515:96,1,104.500003189087,4|0,1:2|0:0,0:0:0:0:
299,41,79313,2,0,L|320:156,1,104.500003189087,10|2,0:0|0:0,0:0:0:0:
108,259,79643,1,4,1:2:0:0:
186,73,79808,1,0,0:0:0:0:
186,73,79890,1,0,0:0:0:0:
186,73,79973,2,0,L|201:160,1,52.2500015945435,10|0,0:2|0:0,0:0:0:0:
322,258,80138,1,8,0:3:0:0:
322,258,80220,1,4,0:3:0:0:
322,258,80302,6,0,P|250:252|190:334,1,156.750004783631,6|0,1:2|0:0,0:0:0:0:
188,334,80632,1,2,1:2:0:0:
60,157,80797,1,2,0:2:0:0:
71,368,80962,1,2,1:2:0:0:
224,220,81127,1,2,0:2:0:0:
17,260,81291,1,2,1:2:0:0:
181,85,81456,1,8,0:0:0:0:
181,85,81539,1,8,0:0:0:0:
181,85,81621,6,0,L|367:118,1,156.750004783631,6|0,1:2|0:0,0:0:0:0:
365,122,81951,1,2,1:2:0:0:
148,255,82116,1,2,0:2:0:0:
357,316,82280,1,2,1:2:0:0:
253,134,82445,1,2,0:2:0:0:
205,349,82610,1,2,1:2:0:0:
379,220,82775,1,2,1:2:0:0:
379,220,82857,1,0,0:0:0:0:
379,220,82940,5,12,0:0:0:0:
164,89,83105,1,8,0:3:0:0:
141,117,83187,1,4,0:3:0:0:
153,156,83270,1,0,1:3:0:0:
319,367,83434,5,12,0:0:0:0:
419,128,83599,1,8,0:3:0:0:
391,105,83681,1,4,0:3:0:0:
352,117,83764,1,0,1:3:0:0:
74,232,83929,5,8,0:0:0:0:
98,262,84011,1,8,0:0:0:0:
134,277,84093,1,8,0:3:0:0:
172,274,84176,1,4,0:3:0:0:
205,253,84258,5,2,1:3:0:0:
218,246,84588,6,0,P|261:226|335:259,1,106.875004076958,2|0,0:0|0:0,0:0:0:0:
331,252,84918,2,0,L|320:126,1,106.875004076958,2|0,0:0|0:0,0:0:0:0:
220,59,85247,5,4,0:3:0:0:
220,59,85577,6,0,B|243:105|243:105|225:171,1,104.500003189087,6|0,1:2|0:0,0:0:0:0:
43,180,85907,2,0,B|71:137|71:137|137:119,1,104.500003189087,10|0,0:0|0:0,0:0:0:0:
237,273,86236,2,0,B|185:269|185:269|137:221,1,104.500003189087,2|2,1:2|1:2,0:0:0:0:
318,61,86566,1,10,0:2:0:0:
349,283,86731,1,2,0:2:0:0:
499,171,86896,6,0,L|375:162,1,104.500003189087,2|0,1:2|1:2,0:0:0:0:
292,384,87225,2,0,L|396:376,1,104.500003189087,10|0,0:2|0:0,0:0:0:0:
254,177,87555,2,0,P|229:224|242:282,1,104.500003189087,2|2,1:2|1:2,0:0:0:0:
42,377,87885,1,14,0:0:0:0:
134,206,88050,1,2,0:0:0:0:
349,283,88214,6,0,L|360:166,1,104.500003189087,6|2,1:2|1:2,0:0:0:0:
373,15,88544,1,8,0:0:0:0:
181,85,88709,2,0,L|298:96,1,104.500003189087,2|2,1:2|1:2,0:0:0:0:
449,109,89039,1,0,1:2:0:0:
268,235,89203,6,0,L|151:246,1,104.500003189087,10|2,0:0|1:2,0:0:0:0:
0,259,89533,1,0,1:2:0:0:
67,69,89698,2,0,L|78:186,1,104.500003189087,2|10,1:2|0:0,0:0:0:0:
91,337,90028,1,0,1:2:0:0:
176,153,90192,5,2,1:2:0:0:
0,259,90357,1,2,1:2:0:0:
208,334,90522,2,0,L|312:324,1,104.500003189087,10|8,0:0|0:3,0:0:0:0:
470,212,90852,6,0,B|424:185|424:185|374:198,1,104.500003189087,6|0,1:2|0:0,0:0:0:0:
398,384,91182,2,0,B|424:338|424:338|411:288,1,104.500003189087,10|0,0:0|0:0,0:0:0:0:
298,134,91511,2,0,B|271:179|271:179|284:229,1,104.500003189087,2|2,1:2|1:2,0:0:0:0:
393,87,91841,1,10,0:2:0:0:
213,55,92006,1,2,0:2:0:0:
374,198,92171,6,0,L|494:185,1,104.500003189087,2|0,1:2|1:2,0:0:0:0:
312,323,92500,2,0,L|192:310,1,104.500003189087,10|0,0:2|0:0,0:0:0:0:
48,210,92830,2,0,P|98:184|165:204,1,104.500003189087,2|2,1:2|1:2,0:0:0:0:
312,35,93160,1,14,0:0:0:0:
124,77,93324,1,2,0:0:0:0:
284,229,93489,5,14,0:0:0:0:
213,55,93654,1,12,0:2:0:0:
143,190,93819,1,0,1:0:0:0:
318,20,93984,5,0,1:0:0:0:
135,204,94149,1,0,1:0:0:0:
115,62,94313,1,0,1:0:0:0:
361,140,94478,5,8,0:0:0:0:
204,299,94643,1,8,0:0:0:0:
378,384,94808,6,0,L|366:274,1,104.500003189087,4|0,1:2|1:0,0:0:0:0:
232,91,95138,2,0,L|243:194,1,104.500003189087,8|0,0:0|1:0,0:0:0:0:
344,20,95467,1,12,0:0:0:0:
149,193,95632,1,8,0:0:0:0:
114,194,95714,1,8,0:0:0:0:
85,175,95796,1,8,1:2:0:0:
72,144,95879,1,8,0:0:0:0:
78,110,95961,1,8,0:0:0:0:
103,86,96044,1,8,0:0:0:0:
136,80,96127,6,0,B|178:105|178:105|247:87,1,104.500003189087,2|0,1:3|0:0,0:0:0:0:
328,102,96374,6,0,B|286:77|286:77|217:95,1,104.500003189087,8|0,0:0|0:0,0:0:0:0:
269,171,96621,6,0,B|311:196|311:196|380:178,1,104.500003189087,2|0,1:3|0:0,0:0:0:0:
461,193,96868,6,0,B|419:168|419:168|350:186,1,104.500003189087,8|0,0:0|0:0,0:0:0:0:
403,258,97116,5,4,1:2:0:0:
464,73,97280,1,8,0:0:0:0:
464,73,97363,1,8,0:0:0:0:
464,73,97445,2,0,L|393:66,1,52.2500015945435,4|0,1:2|0:0,0:0:0:0:
245,31,97610,1,8,0:0:0:0:
271,59,97692,1,8,0:0:0:0:
285,95,97774,1,8,0:0:0:0:
284,134,97857,1,8,0:0:0:0:
268,170,97940,2,0,L|275:241,1,52.2500015945435,0|0,1:0|0:0,0:0:0:0:
183,358,98105,5,8,0:0:0:0:
156,329,98187,1,8,0:0:0:0:
142,293,98269,1,8,0:0:0:0:
143,254,98352,1,8,0:0:0:0:
160,219,98435,2,0,L|153:148,1,52.2500015945435,0|8,1:0|0:3,0:0:0:0:
64,32,98599,2,0,L|58:83,1,52.2500015945435,4|0,0:3|1:1,0:0:0:0:
49,195,98764,5,4,0:3:0:0:
49,195,99423,5,6,1:2:0:0:
158,72,99587,2,0,L|258:82,1,85.4999973907472,0|2,1:0|0:0,0:0:0:0:
243,80,99917,1,0,1:0:0:0:
154,167,100082,1,10,0:0:0:0:
262,287,100247,2,0,L|272:187,1,85.4999973907472,0|2,1:0|0:0,0:0:0:0:
270,201,100576,5,0,1:0:0:0:
156,318,100741,1,2,1:2:0:0:
345,365,100906,2,0,L|445:355,1,85.4999973907472,0|2,1:0|0:0,0:0:0:0:
430,356,101236,1,0,1:0:0:0:
360,178,101401,1,10,0:2:0:0:
512,245,101565,2,0,L|426:253,1,85.4999973907472,2|0,1:2|0:0,0:0:0:0:
426,252,101895,5,2,1:2:0:0:
437,91,102060,1,4,1:2:0:0:
267,172,102225,2,0,L|181:164,1,85.4999973907472,0|2,1:0|0:2,0:0:0:0:
181,164,102554,1,2,1:2:0:0:
288,36,102719,1,8,0:0:0:0:
360,178,102884,2,0,L|352:264,1,85.4999973907472,2|0,1:2|0:0,0:0:0:0:
352,263,103214,5,2,1:2:0:0:
181,356,103379,1,0,1:0:0:0:
256,247,103543,2,0,L|264:333,1,85.4999973907472,0|0,1:0|0:0,0:0:0:0:
264,332,103873,1,0,1:0:0:0:
152,230,104038,1,8,0:0:0:0:
291,158,104203,1,0,1:0:0:0:
199,5,104368,2,0,P|165:44|188:128,1,128.249996086121,12|0,0:0|0:0,0:0:0:0:
192,135,104697,5,6,1:2:0:0:
335,62,104862,2,0,L|420:70,1,85.4999973907472,0|2,1:0|0:0,0:0:0:0:
420,70,105192,1,0,1:0:0:0:
468,271,105357,1,10,0:0:0:0:
382,163,105521,2,0,L|467:171,1,85.4999973907472,0|2,1:0|0:2,0:0:0:0:
467,171,105851,5,0,1:2:0:0:
345,272,106016,1,2,1:2:0:0:
476,356,106181,2,0,L|467:270,1,85.4999973907472,0|2,1:2|0:2,0:0:0:0:
468,271,106511,1,0,1:0:0:0:
346,376,106675,1,10,0:2:0:0:
248,241,106840,2,0,L|256:155,1,85.4999973907472,0|2,1:0|0:2,0:0:0:0:
256,156,107170,5,0,1:2:0:0:
345,272,107335,1,4,1:2:0:0:
214,353,107499,2,0,L|128:344,1,85.4999973907472,0|0,1:2|0:0,0:0:0:0:
128,344,107829,1,0,1:0:0:0:
2,261,107994,1,8,0:0:0:0:
127,155,108159,2,0,L|118:240,1,85.4999973907472,0|0,1:0|0:0,0:0:0:0:
117,240,108489,5,0,1:0:0:0:
39,98,108653,1,12,0:0:0:0:
193,56,108818,2,0,L|278:65,1,85.4999973907472,0|8,1:0|0:0,0:0:0:0:
420,143,109148,1,8,0:3:0:0:
420,143,109230,1,4,0:3:0:0:
420,143,109313,6,0,L|352:153,1,42.7499986953736,0|0,1:0|0:0,0:0:0:0:
265,247,109477,2,0,L|307:253,1,42.7499986953736,0|0,1:0|0:0,0:0:0:0:
396,359,109642,1,8,0:0:0:0:
418,337,109724,1,8,0:0:0:0:
430,307,109806,1,8,0:3:0:0:
431,275,109889,1,4,0:3:0:0:
419,246,109971,5,4,1:2:0:0:
419,246,115247,6,0,L|411:160,1,85.4999973907472,4|0,1:2|0:0,0:0:0:0:
505,28,115576,2,0,L|512:113,1,85.4999973907472,2|2,1:2|0:2,0:0:0:0:
413,251,115906,2,0,L|405:165,1,85.4999973907472,0|2,1:2|0:0,0:0:0:0:
386,14,116236,1,0,1:2:0:0:
512,114,116401,1,2,0:0:0:0:
318,98,116565,6,0,L|232:105,1,85.4999973907472,4|0,1:2|0:0,0:0:0:0:
129,231,116895,2,0,L|214:238,1,85.4999973907472,0|2,1:2|0:0,0:0:0:0:
324,92,117225,2,0,L|238:99,1,85.4999973907472,2|2,1:2|0:0,0:0:0:0:
278,303,117554,1,8,0:3:0:0:
298,278,117636,1,8,0:3:0:0:
308,248,117718,1,4,0:3:0:0:
307,216,117801,1,4,0:3:0:0:
295,186,117884,6,0,L|337:182,1,42.7499986953736,12|0,0:0|0:0,0:0:0:0:
457,167,118049,1,4,0:3:0:0:
444,184,118131,1,4,0:3:0:0:
437,204,118213,1,0,1:0:0:0:
438,225,118296,1,0,1:0:0:0:
445,245,118379,2,0,P|465:294|448:335,1,85.4999973907472,12|8,0:0|0:3,0:0:0:0:
355,376,118708,1,0,1:0:0:0:
346,348,118790,1,0,1:0:0:0:
329,326,118872,1,8,0:0:0:0:
306,310,118955,1,8,0:0:0:0:
278,303,119037,1,8,0:0:0:0:
250,305,119120,1,8,0:0:0:0:
224,317,119203,6,0,B|213:257|213:257|233:217|233:217|223:150,1,170.999994781494,2|2,1:1|1:1,0:0:0:0:
393,261,120192,6,0,P|364:268|288:275,1,85.4999973907472,8|2,0:3|0:0,0:0:0:0:
106,247,120521,5,6,1:0:0:0:
339,184,120686,1,0,0:0:0:0:
84,164,120850,5,10,0:2:0:0:
323,93,121015,1,0,0:0:0:0:
58,85,121181,5,2,1:2:0:0:
330,3,121346,1,0,0:0:0:0:
309,274,121510,5,10,0:2:0:0:
141,65,121675,1,0,0:2:0:0:
145,370,121840,5,6,1:2:0:0:
230,136,122005,1,0,0:0:0:0:
282,384,122170,5,10,0:2:0:0:
315,139,122335,1,0,0:0:0:0:
411,384,122499,5,2,1:2:0:0:
400,120,122664,1,0,0:0:0:0:
172,242,122829,2,0,L|276:256,1,104.500003189087,10|0,0:2|0:0,0:0:0:0:
110,132,123159,5,6,1:2:0:0:
70,317,123324,1,2,0:0:0:0:
268,140,123488,1,8,0:0:0:0:
195,348,123653,5,2,0:2:0:0:
67,219,123818,1,2,1:2:0:0:
299,347,123983,1,0,0:0:0:0:
375,98,124148,5,10,0:2:0:0:
276,256,124313,1,2,0:2:0:0:
502,143,124477,1,4,1:2:0:0:
283,31,124642,5,2,0:2:0:0:
357,215,124807,1,10,0:2:0:0:
191,9,124972,1,0,0:0:0:0:
439,47,125137,6,0,L|427:177,1,104.500003189087,6|2,1:2|0:0,0:0:0:0:
266,284,125466,1,8,0:0:0:0:
145,105,125631,1,8,0:3:0:0:
145,105,125714,1,4,0:3:0:0:
145,105,125796,6,0,B|221:91|221:91|268:117|268:117|387:97,1,209.000006378174,6|10,1:2|0:0,0:0:0:0:
158,228,126291,1,2,0:0:0:0:
364,344,126455,2,0,L|354:239,1,104.500003189087,0|0,1:0|0:0,0:0:0:0:
293,13,126785,1,10,0:0:0:0:
511,173,126950,1,2,0:0:0:0:
511,173,127032,1,8,0:0:0:0:
511,173,127115,6,0,P|461:105|328:114,1,209.000006378174,0|10,1:0|0:0,0:0:0:0:
74,161,127609,1,2,0:0:0:0:
203,0,127774,2,0,L|210:120,1,104.500003189087,0|0,1:0|0:0,0:0:0:0:
115,350,128104,1,8,0:0:0:0:
352,217,128269,1,2,0:0:0:0:
352,217,128351,1,8,0:0:0:0:
352,217,128433,6,0,P|308:182|209:210,1,156.750004783631,6|2,1:2|0:0,0:0:0:0:
215,202,128763,2,0,P|196:148|216:93,1,104.500003189087,8|2,0:0|0:0,0:0:0:0:
275,279,129093,1,0,1:0:0:0:
91,143,129258,1,2,0:2:0:0:
304,41,129423,2,0,L|426:54,1,104.500003189087,10|2,0:2|0:2,0:0:0:0:
487,343,129752,5,12,0:0:0:0:
350,136,129917,1,0,1:0:0:0:
270,376,130082,1,12,0:0:0:0:
486,195,130247,1,0,1:0:0:0:
208,104,130412,1,14,0:2:0:0:
376,290,130576,1,0,1:2:0:0:
168,357,130741,1,14,0:0:0:0:
145,325,130823,1,8,0:0:0:0:
135,287,130905,1,4,1:3:0:0:
140,248,130988,1,4,0:3:0:0:
158,214,131070,5,4,1:0:0:0:
330,384,131236,1,0,0:0:0:0:
208,104,131401,5,10,0:2:0:0:
376,290,131565,1,0,0:0:0:0:
301,41,131730,5,2,1:2:0:0:
451,237,131895,1,0,0:0:0:0:
391,0,132060,5,10,0:2:0:0:
225,189,132225,1,0,0:0:0:0:
455,325,132390,5,6,1:2:0:0:
378,81,132554,1,0,0:0:0:0:
381,368,132719,5,10,0:2:0:0:
300,120,132884,1,0,0:0:0:0:
288,384,133049,5,2,1:2:0:0:
209,104,133214,1,0,0:0:0:0:
455,180,133379,2,0,P|412:208|360:206,1,104.500003189087,10|0,0:2|0:0,0:0:0:0:
136,34,133708,5,6,1:2:0:0:
116,281,133873,1,0,0:0:0:0:
300,120,134038,1,8,0:0:0:0:
270,364,134203,1,2,0:0:0:0:
54,161,134368,2,0,L|174:186,1,104.500003189087,2|0,1:2|0:0,0:0:0:0:
338,32,134697,1,10,0:0:0:0:
407,284,134862,1,2,0:0:0:0:
512,91,135027,6,0,P|463:70|403:84,1,104.500003189087,4|0,1:2|0:0,0:0:0:0:
263,222,135357,2,0,P|326:224|376:171,1,104.500003189087,10|2,0:0|0:0,0:0:0:0:
181,31,135686,1,4,1:2:0:0:
146,274,135850,1,0,0:0:0:0:
289,119,136015,1,10,0:2:0:0:
41,77,136181,1,8,0:3:0:0:
41,77,136263,1,4,0:3:0:0:
41,77,136346,6,0,B|30:135|30:135|48:167|48:167|33:233,1,156.750004783631,6|0,1:2|0:0,0:0:0:0:
27,255,136675,1,2,1:2:0:0:
137,111,136840,1,2,0:2:0:0:
215,311,137005,1,2,1:2:0:0:
289,119,137170,1,2,0:2:0:0:
127,270,137335,1,2,1:2:0:0:
361,355,137499,1,8,0:0:0:0:
361,355,137582,1,8,0:0:0:0:
361,355,137664,6,0,B|403:320|403:320|389:205,1,156.750004783631,6|0,1:2|0:0,0:0:0:0:
382,183,137994,1,2,1:2:0:0:
494,370,138159,1,2,0:2:0:0:
300,269,138324,1,2,1:2:0:0:
489,161,138488,1,2,0:2:0:0:
311,55,138653,1,2,1:2:0:0:
202,290,138818,1,2,1:2:0:0:
202,290,138901,1,0,1:0:0:0:
202,290,138983,5,12,0:0:0:0:
393,137,139148,1,8,0:3:0:0:
399,169,139230,1,4,0:3:0:0:
404,202,139312,1,0,1:3:0:0:
192,121,139477,5,12,0:0:0:0:
98,333,139642,1,8,0:3:0:0:
93,358,139724,1,4,0:3:0:0:
89,384,139806,1,0,1:3:0:0:
299,172,139972,5,8,0:0:0:0:
303,133,140054,1,8,0:0:0:0:
307,94,140136,1,8,0:3:0:0:
311,55,140219,1,4,0:3:0:0:
316,16,140301,5,2,1:3:0:0:
312,1,140631,6,0,P|279:34|211:25,1,106.875004076958,2|0,0:0|0:0,0:0:0:0:
202,24,140961,2,0,L|195:149,1,106.875004076958,2|0,0:0|0:0,0:0:0:0:
189,225,141291,5,4,0:3:0:0:
185,242,141620,6,0,B|236:253|236:253|298:223,1,104.500003189087,6|0,1:2|0:0,0:0:0:0:
391,62,141950,2,0,B|355:100|355:100|350:169,1,104.500003189087,10|0,0:2|0:0,0:0:0:0:
485,335,142280,1,2,1:2:0:0:
454,150,142444,1,2,1:2:0:0:
308,323,142609,1,8,0:2:0:0:
467,130,142774,6,0,L|477:255,1,104.500003189087,2|0,0:2|1:0,0:0:0:0:
290,335,143104,2,0,L|281:230,1,104.500003189087,2|8,1:2|0:0,0:0:0:0:
268,36,143433,1,2,0:0:0:0:
97,129,143598,2,0,P|150:118|214:150,1,104.500003189087,2|2,1:2|1:2,0:0:0:0:
384,253,143928,1,14,0:0:0:0:
143,215,144093,1,2,0:0:0:0:
290,126,144258,6,0,L|281:230,1,104.500003189087,2|0,1:2|1:0,0:0:0:0:
466,338,144587,2,0,L|475:234,1,104.500003189087,10|0,0:2|1:0,0:0:0:0:
331,348,144917,1,2,1:2:0:0:
411,132,145082,1,2,1:2:0:0:
466,338,145247,1,8,0:2:0:0:
280,230,145412,6,0,L|169:240,1,104.500003189087,2|0,1:2|1:0,0:0:0:0:
43,379,145741,2,0,B|74:336|74:336|56:260,1,104.500003189087,2|12,1:2|0:0,0:0:0:0:
52,92,146071,1,2,1:2:0:0:
0,180,146236,2,0,B|47:203|47:203|119:172,1,104.500003189087,2|2,1:2|1:2,0:0:0:0:
252,40,146565,1,10,0:2:0:0:
233,22,146647,1,8,0:0:0:0:
210,11,146729,1,8,0:3:0:0:
184,8,146812,1,4,0:3:0:0:
163,19,146895,6,0,L|171:126,1,104.500003189087,6|0,1:2|0:0,0:0:0:0:
369,227,147225,2,0,L|376:122,1,104.500003189087,10|0,0:2|0:0,0:0:0:0:
268,268,147554,1,2,1:2:0:0:
466,191,147719,1,2,1:2:0:0:
252,273,147884,1,8,0:2:0:0:
321,37,148049,6,0,B|368:13|368:13|440:44,1,104.500003189087,2|0,0:2|1:0,0:0:0:0:
232,95,148379,2,0,B|208:47|208:47|239:-24,1,104.500003189087,2|8,1:2|0:0,0:0:0:0:
376,122,148708,1,2,0:0:0:0:
181,173,148873,2,0,L|285:181,1,104.500003189087,2|2,1:2|1:2,0:0:0:0:
396,383,149203,1,14,0:0:0:0:
252,273,149368,1,2,0:0:0:0:
449,191,149532,5,2,1:2:0:0:
455,190,149614,1,2,0:2:0:0:
461,189,149696,1,2,1:2:0:0:
467,188,149779,1,2,0:2:0:0:
473,187,149861,1,10,0:2:0:0:
479,186,149944,1,2,0:2:0:0:
485,185,150026,1,2,1:2:0:0:
491,184,150108,1,2,0:2:0:0:
497,183,150192,5,2,1:2:0:0:
507,166,150274,1,2,0:2:0:0:
512,147,150356,1,2,1:2:0:0:
509,128,150439,1,2,0:2:0:0:
498,112,150521,1,10,0:2:0:0:
483,100,150604,1,2,0:2:0:0:
464,95,150686,1,2,1:2:0:0:
445,98,150768,1,2,0:2:0:0:
428,107,150851,5,14,0:2:0:0:
412,76,150933,1,2,0:2:0:0:
393,50,151015,1,2,1:2:0:0:
367,30,151098,1,2,0:2:0:0:
338,15,151180,1,10,0:2:0:0:
307,7,151263,1,2,0:2:0:0:
273,6,151345,1,2,1:2:0:0:
242,14,151427,1,2,0:2:0:0:
212,24,151510,5,14,0:2:0:0:
217,72,151593,1,2,0:0:0:0:
223,123,151674,1,10,0:0:0:0:
230,173,151757,1,8,0:0:0:0:
282,195,151839,5,8,1:2:0:0:
275,244,151923,1,8,0:0:0:0:
269,295,152005,1,8,0:0:0:0:
262,345,152087,1,8,0:0:0:0:
225,372,152170,6,0,B|146:359|146:359|102:383|102:383|-9:364,1,209.000006378174,6|0,1:2|0:0,0:0:0:0:
182,273,152664,1,0,1:0:0:0:
109,91,152829,2,0,B|60:144|60:144|82:301,1,209.000006378174,8|2,0:0|1:2,0:0:0:0:
266,183,153324,6,0,L|137:170,1,104.500003189087,2|0,1:2|0:0,0:0:0:0:
338,285,153653,2,0,L|441:274,1,104.500003189087,2|0,1:2|1:0,0:0:0:0:
412,29,153983,2,0,B|362:47|341:104|341:104|374:138|370:198,1,209.000006378174,2|2,0:0|1:2,0:0:0:0:
259,13,154477,1,2,1:2:0:0:
456,121,154642,1,2,0:0:0:0:
266,179,154807,6,0,L|49:164,1,209.000006378174,6|0,1:2|0:0,0:0:0:0:
211,268,155302,1,0,1:0:0:0:
322,79,155466,2,0,B|365:135|365:135|355:289,1,209.000006378174,8|2,0:0|1:2,0:0:0:0:
203,372,155961,6,0,L|211:254,1,104.500003189087,2|0,1:2|0:0,0:0:0:0:
152,66,156291,1,0,1:0:0:0:
24,198,156455,2,0,L|146:182,1,104.500003189087,0|0,1:0|0:0,0:0:0:0:
265,34,156785,1,14,0:0:0:0:
100,58,156950,1,0,1:0:0:0:
100,58,157032,1,0,0:0:0:0:
100,58,157115,2,0,L|160:67,1,52.2500015945435,10|8,0:0|0:0,0:0:0:0:
248,154,157280,1,8,0:0:0:0:
248,154,157362,1,8,0:0:0:0:
248,154,157444,6,0,L|372:135,1,104.500003189087,4|0,1:2|1:0,0:0:0:0:
320,342,157774,2,0,B|292:298|292:298|317:234,1,104.500003189087,12|0,0:0|1:0,0:0:0:0:
404,47,158104,1,12,0:0:0:0:
225,239,158269,1,0,1:0:0:0:
437,278,158433,2,0,B|464:236|464:236|442:179,1,104.500003189087,0|0,1:0|1:0,0:0:0:0:
185,21,158763,5,12,0:0:0:0:
26,138,158928,1,0,1:0:0:0:
225,239,159093,2,0,L|333:228,1,104.500003189087,12|0,0:0|1:0,0:0:0:0:
132,297,159423,1,8,0:0:0:0:
105,270,159505,1,8,0:0:0:0:
95,232,159587,1,0,1:0:0:0:
104,195,159670,1,0,1:0:0:0:
131,167,159752,1,4,0:3:0:0:
133,154,159834,1,4,0:3:0:0:
135,141,159916,1,0,1:0:0:0:
137,128,159999,1,0,1:0:0:0:
140,116,160082,6,0,L|248:105,1,104.500003189087,8|8,0:0|0:0,0:0:0:0:
350,255,160412,1,0,1:0:0:0:
415,66,160576,1,12,0:0:0:0:
482,268,160742,1,12,0:0:0:0:
310,156,160906,1,0,1:0:0:0:
402,383,161071,1,8,0:0:0:0:
471,161,161236,1,8,0:0:0:0:
276,344,161401,5,0,1:0:0:0:
482,268,161565,1,12,0:0:0:0:
310,156,161730,2,0,L|206:166,1,104.500003189087,12|0,0:0|1:0,0:0:0:0:
30,349,162060,1,8,0:0:0:0:
48,321,162142,1,8,0:0:0:0:
55,288,162225,1,8,0:0:0:0:
49,255,162307,1,8,0:0:0:0:
30,228,162390,1,8,0:0:0:0:
11,201,162472,1,8,0:0:0:0:
5,168,162554,1,8,0:0:0:0:
12,135,162637,1,8,0:0:0:0:
30,107,162719,6,0,P|72:103|115:100,1,85.4999973907472,4|0,1:2|0:0,0:0:0:0:
255,23,163049,2,0,P|212:19|169:16,1,85.4999973907472,2|0,1:2|0:0,0:0:0:0:
31,120,163379,2,0,P|73:116|116:113,1,85.4999973907472,2|0,1:2|0:0,0:0:0:0:
259,14,163708,2,0,P|216:10|173:7,1,85.4999973907472,2|0,1:2|3:0,0:0:0:0:
187,178,164038,6,0,P|213:129|208:87,1,85.4999973907472,2|0,1:2|0:0,0:0:0:0:
357,233,164368,2,0,P|330:184|335:142,1,85.4999973907472,2|0,1:2|0:0,0:0:0:0:
194,185,164697,2,0,P|220:136|215:94,1,85.4999973907472,2|0,1:2|0:0,0:0:0:0:
351,239,165027,2,0,P|324:190|329:148,1,85.4999973907472,2|0,1:2|3:0,0:0:0:0:
150,284,165357,6,0,L|262:273,1,85.4999973907472,2|0,1:2|0:0,0:0:0:0:
410,333,165686,2,0,L|324:341,1,85.4999973907472,2|0,1:2|0:0,0:0:0:0:
145,280,166016,2,0,L|230:271,1,85.4999973907472,2|0,1:2|0:0,0:0:0:0:
417,337,166346,2,0,L|331:345,1,85.4999973907472,2|0,1:2|3:0,0:0:0:0:
325,161,166675,6,0,P|367:144|409:154,1,85.4999973907472,2|0,1:2|0:0,0:0:0:0:
512,0,167005,2,0,P|470:17|428:7,1,85.4999973907472,2|8,1:2|0:0,0:0:0:0:
511,181,167335,2,0,P|494:139|504:97,1,85.4999973907472,2|8,1:2|0:0,0:0:0:0:
331,0,167664,2,0,P|348:42|338:84,1,85.4999973907472,2|8,1:2|0:3,0:0:0:0:
230,271,167994,5,4,1:2:0:0:
246,50,168159,1,2,1:2:0:0:
401,171,168324,2,0,L|296:180,1,104.500003189087,2|0,1:2|0:0,0:0:0:0:
53,95,168653,2,0,B|111:76|150:72|150:72|164:102|178:120,1,156.750004783631,10|0,0:0|0:0,0:0:0:0:
196,139,168983,5,2,1:2:0:0:
57,0,169148,1,2,1:2:0:0:
0,180,169313,2,0,P|49:203|110:176,1,104.500003189087,2|0,1:2|0:0,0:0:0:0:
288,305,169642,2,0,P|222:267|152:297,1,156.750004783631,10|0,0:0|0:0,0:0:0:0:
138,325,169972,5,6,1:2:0:0:
178,120,170137,1,2,1:2:0:0:
28,286,170302,1,10,0:2:0:0:
269,186,170466,1,2,1:2:0:0:
53,95,170631,5,6,1:2:0:0:
266,34,170796,1,2,1:2:0:0:
170,224,170961,2,0,L|179:106,1,104.500003189087,2|0,1:2|0:0,0:0:0:0:
367,0,171291,2,0,L|354:167,1,156.750004783631,10|0,0:2|0:0,0:0:0:0:
358,187,171620,5,2,1:2:0:0:
266,34,171785,1,2,1:2:0:0:
463,45,171950,2,0,L|452:186,1,104.500003189087,2|0,1:2|0:0,0:0:0:0:
299,354,172280,5,10,0:0:0:0:
503,255,172444,1,0,1:0:0:0:
238,189,172609,5,6,1:2:0:0:
429,337,172774,1,0,1:0:0:0:
355,156,172939,1,14,0:0:0:0:
186,294,173104,1,8,0:3:0:0:
186,294,173186,1,4,0:3:0:0:
186,294,173269,6,0,L|100:287,1,85.4999973907472,4|0,1:2|0:0,0:0:0:0:
0,174,173598,2,0,L|85:167,1,85.4999973907472,2|0,1:2|0:0,0:0:0:0:
189,301,173928,2,0,L|103:294,1,85.4999973907472,2|0,1:2|0:0,0:0:0:0:
0,168,174258,2,0,L|85:161,1,85.4999973907472,2|0,1:2|3:2,0:0:0:0:
231,39,174587,6,0,P|208:75|220:128,1,85.4999973907472,2|0,1:2|0:0,0:0:0:0:
307,302,174917,2,0,P|330:266|318:213,1,85.4999973907472,2|0,1:2|0:0,0:0:0:0:
302,95,175247,1,2,1:2:0:0:
193,209,175412,1,8,0:0:0:0:
193,209,175494,1,0,0:0:0:0:
193,209,175576,1,2,1:2:0:0:
396,146,175741,1,8,0:0:0:0:
396,146,175824,1,8,0:0:0:0:
396,146,175906,6,0,L|492:154,1,85.4999973907472,2|0,1:2|0:0,0:0:0:0:
342,5,176236,2,0,L|246:13,1,85.4999973907472,2|8,1:2|0:0,0:0:0:0:
400,152,176565,2,0,L|496:160,1,85.4999973907472,2|8,1:2|0:0,0:0:0:0:
337,0,176895,2,0,L|241:8,1,85.4999973907472,2|8,1:2|0:0,0:0:0:0:
178,20,177142,1,8,0:0:0:0:
178,20,177225,5,2,1:2:0:0:
302,95,177390,1,8,0:0:0:0:
186,213,177554,2,0,L|194:117,1,85.4999973907472,2|4,1:2|0:3,0:0:0:0:
245,294,177884,1,2,1:2:0:0:
95,169,178049,1,8,0:0:0:0:
136,326,178214,1,2,1:2:0:0:
288,187,178379,1,8,0:0:0:0:
288,187,178461,1,8,0:0:0:0:
288,187,178543,5,6,1:2:0:0:
125,333,178708,1,2,1:2:0:0:
338,384,178873,2,0,L|346:279,1,104.500003189087,2|0,1:2|0:0,0:0:0:0:
304,2,179203,2,0,L|292:158,1,156.750004783631,10|0,0:2|0:0,0:0:0:0:
288,187,179532,5,2,1:2:0:0:
404,48,179697,1,2,1:2:0:0:
208,92,179862,2,0,L|95:82,1,104.500003189087,2|0,1:2|0:0,0:0:0:0:
218,243,180192,2,0,P|290:220|354:262,1,156.750004783631,10|0,0:2|0:0,0:0:0:0:
371,292,180521,5,6,1:2:0:0:
297,82,180686,1,2,1:2:0:0:
468,191,180851,1,10,0:2:0:0:
276,309,181016,1,2,1:2:0:0:
297,70,181181,5,6,1:2:0:0:
371,292,181346,1,2,1:2:0:0:
206,191,181510,2,0,L|101:199,1,104.500003189087,2|0,1:2|0:0,0:0:0:0:
276,309,181840,2,0,L|103:322,1,156.750004783631,10|0,0:2|0:0,0:0:0:0:
86,324,182170,5,2,1:2:0:0:
4,159,182335,1,2,1:2:0:0:
206,191,182499,2,0,L|214:86,1,104.500003189087,2|0,1:2|0:0,0:0:0:0:
101,199,182829,1,10,0:0:0:0:
312,134,182994,1,0,1:0:0:0:
312,134,183076,1,0,1:0:0:0:
312,134,183159,6,0,L|416:142,1,104.500003189087,14|0,0:0|1:0,0:0:0:0:
507,302,183488,1,8,0:0:0:0:
483,313,183570,1,8,0:0:0:0:
457,316,183652,1,8,0:3:0:0:
432,311,183735,1,4,0:3:0:0:
409,299,183818,6,0,L|296:310,1,85.4999973907472,4|0,1:2|0:0,0:0:0:0:
152,323,184148,1,8,0:2:0:0:
193,234,184313,2,0,B|242:271|242:271|228:390,1,170.999994781494,2|0,1:2|1:0,0:0:0:0:
284,184,184807,1,10,0:2:0:0:
152,323,184972,6,0,P|102:277|128:162,1,170.999994781494,2|0,1:2|1:0,0:0:0:0:
249,86,185466,2,0,L|347:97,1,85.4999973907472,12|0,0:0|0:0,0:0:0:0:
486,223,185796,1,0,1:0:0:0:
434,98,185961,1,0,1:0:0:0:
358,209,186126,2,0,L|369:307,1,85.4999973907472,10|2,0:0|0:0,0:0:0:0:
431,84,186455,6,0,L|421:0,1,85.4999973907472,4|0,1:2|0:0,0:0:0:0:
510,137,186785,1,10,0:2:0:0:
333,95,186950,2,0,B|266:88|266:88|228:104|228:104|165:98,1,170.999994781494,2|0,1:2|1:0,0:0:0:0:
213,16,187444,1,10,0:2:0:0:
290,178,187609,6,0,L|275:358,1,170.999994781494,2|0,1:2|1:0,0:0:0:0:
98,291,188104,2,0,P|140:270|195:278,1,85.4999973907472,12|8,0:0|0:3,0:0:0:0:
204,286,188351,1,4,0:3:0:0:
204,286,188433,1,2,1:2:0:0:
81,191,188598,1,0,1:0:0:0:
160,370,188763,5,8,0:0:0:0:
189,381,188845,1,8,0:0:0:0:
221,381,188927,1,4,0:3:0:0:
251,369,189010,1,4,0:3:0:0:
276,348,189093,2,0,L|290:297,1,42.7499986953736,4|0,1:2|0:0,0:0:0:0:
282,114,189258,5,8,0:0:0:0:
257,133,189340,1,8,0:0:0:0:
244,162,189422,1,8,0:0:0:0:
247,194,189505,1,8,0:0:0:0:
266,220,189587,2,0,L|317:206,1,42.7499986953736,0|0,1:0|0:0,0:0:0:0:
425,48,189753,5,8,0:0:0:0:
450,67,189835,1,8,0:0:0:0:
463,96,189917,1,8,0:0:0:0:
460,128,190000,1,8,0:0:0:0:
441,154,190082,2,0,L|390:140,1,42.7499986953736,2|0,1:2|0:0,0:0:0:0:
207,35,190247,5,10,0:2:0:0:
177,24,190329,1,8,0:0:0:0:
145,28,190411,1,8,0:0:0:0:
118,45,190494,1,8,0:0:0:0:
103,73,190576,2,0,L|93:128,1,42.7499986953736,0|0,1:0|0:0,0:0:0:0:
226,264,190741,5,8,0:0:0:0:
258,266,190823,1,8,0:0:0:0:
287,254,190905,1,8,0:0:0:0:
310,231,190988,1,8,0:0:0:0:
317,200,191070,5,8,1:2:0:0:
285,173,191153,1,8,0:0:0:0:
244,162,191235,1,8,0:0:0:0:
202,170,191318,1,8,0:0:0:0:
167,194,191401,1,8,1:2:0:0:
133,219,191483,1,8,0:0:0:0:
91,227,191566,1,8,0:0:0:0:
50,216,191648,1,8,0:0:0:0:
18,188,191730,5,2,1:3:0:0:
172,256,193049,6,0,B|223:251|249:219|249:219|276:255|327:262,1,170.999994781494,2|2,0:1|0:3,0:0:0:0:
87,347,194368,6,0,P|57:316|71:206,1,149.624995433808,2|0,1:1|0:0,0:0:0:0:
54,196,195027,5,8,1:1:0:0:
239,351,195192,1,8,1:1:0:0:
228,371,195686,5,6,1:0:0:0:
292,72,195851,1,0,0:0:0:0:
354,384,196016,5,10,0:0:0:0:
371,82,196181,1,0,1:0:0:0:
488,369,196346,5,10,0:0:0:0:
449,82,196510,1,0,1:0:0:0:
226,194,196675,5,10,0:0:0:0:
512,265,196840,1,0,1:0:0:0:
393,6,197005,5,6,1:2:0:0:
395,299,197170,1,0,0:0:0:0:
296,10,197335,5,10,0:0:0:0:
278,291,197499,1,0,1:0:0:0:
210,0,197664,5,10,0:0:0:0:
154,278,197829,1,0,1:0:0:0:
387,109,197994,2,0,L|264:118,1,104.500003189087,10|0,0:0|1:0,0:0:0:0:
47,245,198324,5,6,1:2:0:0:
206,368,198488,1,0,0:0:0:0:
120,113,198653,1,10,0:0:0:0:
70,350,198818,5,0,1:0:0:0:
21,155,198983,1,10,0:0:0:0:
278,291,199148,1,0,1:0:0:0:
200,47,199313,5,10,0:0:0:0:
141,254,199477,1,2,1:2:0:0:
377,91,199642,1,12,0:2:0:0:
332,377,199807,5,2,1:2:0:0:
231,187,199972,1,10,0:0:0:0:
468,334,200137,1,0,1:0:0:0:
229,384,200302,6,0,L|252:267,1,104.500003189087,14|2,0:0|1:2,0:0:0:0:
297,28,200631,1,8,0:0:0:0:
512,173,200796,1,8,0:3:0:0:
512,173,200879,1,4,0:3:0:0:
512,173,200961,6,0,B|464:129|464:129|298:153,1,209.000006378174,4|10,1:2|0:2,0:0:0:0:
506,19,201455,1,2,1:2:0:0:
424,233,201620,1,8,0:0:0:0:
512,0,201785,1,0,1:0:0:0:
321,149,201950,1,10,0:2:0:0:
503,327,202115,1,2,1:2:0:0:
503,327,202197,1,0,1:0:0:0:
503,327,202280,6,0,L|389:340,1,104.500003189087,8|0,0:0|1:0,0:0:0:0:
191,165,202609,1,10,0:2:0:0:
424,233,202774,1,2,1:2:0:0:
211,289,202939,1,8,0:0:0:0:
418,107,203104,1,0,1:0:0:0:
182,34,203269,1,8,0:0:0:0:
339,259,203433,1,2,1:2:0:0:
339,259,203516,1,0,1:0:0:0:
339,259,203598,6,0,L|323:99,1,156.750004783631,6|2,1:2|0:0,0:0:0:0:
323,103,203928,2,0,P|375:123|419:104,1,104.500003189087,8|2,0:0|1:2,0:0:0:0:
267,8,204258,1,4,1:2:0:0:
426,214,204423,1,2,0:0:0:0:
230,273,204587,2,0,L|218:162,1,104.500003189087,10|2,0:2|1:2,0:0:0:0:
114,16,204917,5,8,0:0:0:0:
7,172,205082,1,8,0:0:0:0:
7,172,205164,1,8,0:0:0:0:
7,172,205247,2,0,L|72:165,1,52.2500015945435,0|0,1:0|1:0,0:0:0:0:
295,165,205412,5,8,0:0:0:0:
261,145,205494,1,8,0:0:0:0:
222,139,205576,1,8,0:0:0:0:
185,148,205659,1,8,0:0:0:0:
153,171,205741,2,0,L|146:236,1,52.2500015945435,0|0,1:0|1:0,0:0:0:0:
238,342,205906,1,8,0:0:0:0:
267,315,205988,1,8,0:0:0:0:
304,302,206070,1,8,0:0:0:0:
343,304,206153,1,8,0:0:0:0:
377,320,206235,5,4,1:0:0:0:
222,139,206401,1,0,0:0:0:0:
439,269,206565,5,10,0:2:0:0:
294,60,206730,1,0,0:0:0:0:
512,222,206895,5,2,1:2:0:0:
393,6,207060,1,0,0:0:0:0:
308,209,207225,5,10,0:0:0:0:
482,32,207390,1,0,0:0:0:0:
221,0,207554,5,6,1:2:0:0:
394,178,207719,1,0,0:0:0:0:
156,61,207884,5,10,0:2:0:0:
267,287,208049,1,0,0:0:0:0:
75,91,208214,5,2,1:2:0:0:
97,355,208379,1,0,0:0:0:0:
286,179,208543,2,0,B|237:164|237:164|182:211,1,104.500003189087,10|0,0:2|0:0,0:0:0:0:
414,370,208873,5,6,1:2:0:0:
463,126,209038,1,0,0:0:0:0:
304,302,209203,1,8,0:0:0:0:
512,233,209368,1,2,0:0:0:0:
300,75,209532,2,0,L|283:204,1,104.500003189087,2|0,1:2|0:0,0:0:0:0:
91,318,209862,1,10,0:0:0:0:
187,112,210027,1,2,0:0:0:0:
408,293,210192,6,0,L|286:303,1,104.500003189087,4|0,1:2|0:0,0:0:0:0:
70,221,210521,2,0,L|174:212,1,104.500003189087,10|2,0:0|0:0,0:0:0:0:
384,81,210851,2,0,P|349:120|355:188,1,104.500003189087,4|0,1:2|0:0,0:0:0:0:
478,27,211181,1,10,0:2:0:0:
252,88,211346,1,8,0:3:0:0:
252,88,211428,1,4,0:3:0:0:
252,88,211510,6,0,L|88:78,1,156.750004783631,6|0,1:2|0:0,0:0:0:0:
60,61,211840,1,2,1:2:0:0:
195,253,212005,1,2,0:2:0:0:
0,203,212170,1,2,1:2:0:0:
169,118,212335,1,2,0:2:0:0:
77,322,212499,1,2,1:2:0:0:
280,182,212664,1,8,0:0:0:0:
280,182,212747,1,8,0:0:0:0:
280,182,212829,6,0,L|294:346,1,156.750004783631,6|0,1:2|0:0,0:0:0:0:
302,375,213159,1,2,1:2:0:0:
378,170,213324,1,2,0:2:0:0:
179,278,213488,1,2,1:2:0:0:
394,292,213653,1,2,0:2:0:0:
190,138,213818,1,2,1:2:0:0:
401,24,213983,1,2,1:2:0:0:
401,24,214065,1,0,1:0:0:0:
401,24,214148,5,12,0:0:0:0:
298,247,214313,1,8,0:3:0:0:
291,279,214395,1,4,0:3:0:0:
286,312,214477,1,0,1:3:0:0:
285,62,214642,5,12,0:0:0:0:
475,245,214807,1,8,0:3:0:0:
481,277,214889,1,4,0:3:0:0:
486,311,214971,1,0,1:3:0:0:
193,221,215137,5,8,0:0:0:0:
154,210,215219,1,8,0:0:0:0:
117,216,215301,1,8,0:3:0:0:
84,236,215384,1,4,0:3:0:0:
63,270,215466,5,2,1:3:0:0:
53,283,215796,6,0,L|44:171,1,106.875004076958,2|0,0:0|0:0,0:0:0:0:
45,140,216126,2,0,P|87:108|139:109,1,106.875004076958,2|0,0:0|0:0,0:0:0:0:
225,144,216455,5,4,0:3:0:0:
221,149,216785,6,0,B|192:192|192:192|204:249,1,104.500003189087,6|0,1:2|0:0,0:0:0:0:
380,285,217115,2,0,B|357:238|357:238|301:220,1,104.500003189087,10|0,0:0|0:0,0:0:0:0:
182,354,217444,2,0,B|233:357|233:357|277:318,1,104.500003189087,2|2,1:2|1:2,0:0:0:0:
316,122,217774,1,10,0:2:0:0:
124,279,217939,1,2,0:2:0:0:
212,44,218104,6,0,L|222:165,1,104.500003189087,2|0,1:2|1:2,0:0:0:0:
422,207,218433,2,0,L|430:102,1,104.500003189087,10|0,0:2|0:0,0:0:0:0:
378,323,218763,2,0,P|427:310|474:331,1,104.500003189087,2|2,1:2|1:2,0:0:0:0:
316,122,219093,1,14,0:0:0:0:
272,322,219258,1,2,0:0:0:0:
130,213,219423,6,0,L|243:217,1,104.500003189087,6|2,1:2|1:2,0:0:0:0:
390,222,219752,1,8,0:0:0:0:
212,118,219917,2,0,L|325:122,1,104.500003189087,2|2,1:2|1:2,0:0:0:0:
471,127,220246,1,0,1:2:0:0:
386,326,220412,6,0,L|389:221,1,104.500003189087,10|2,0:0|1:2,0:0:0:0:
397,52,220741,1,0,1:2:0:0:
234,216,220906,2,0,P|184:233|118:208,1,104.500003189087,2|10,1:2|0:0,0:0:0:0:
0,107,221236,1,0,1:2:0:0:
172,27,221401,2,0,L|183:130,1,104.500003189087,2|0,1:2|1:2,0:0:0:0:
37,316,221730,1,10,0:0:0:0:
34,290,221812,1,8,0:0:0:0:
31,264,221894,1,8,0:3:0:0:
28,238,221977,1,8,0:3:0:0:
25,212,222060,6,0,B|71:184|71:184|135:198,1,104.500003189087,6|0,1:2|0:0,0:0:0:0:
267,9,222390,2,0,B|221:37|221:37|171:26,1,104.500003189087,10|0,0:0|0:0,0:0:0:0:
301,222,222719,2,0,L|314:100,1,104.500003189087,2|2,1:2|1:2,0:0:0:0:
213,296,223049,1,10,0:2:0:0:
413,189,223214,1,2,0:2:0:0:
207,132,223379,6,0,L|92:149,1,104.500003189087,2|0,1:2|1:2,0:0:0:0:
0,304,223708,2,0,L|103:288,1,104.500003189087,10|0,0:2|0:0,0:0:0:0:
27,85,224038,2,0,P|1:131|14:191,1,104.500003189087,2|2,1:2|1:2,0:0:0:0:
213,296,224368,1,14,0:0:0:0:
103,147,224532,1,2,0:0:0:0:
326,204,224697,5,6,1:2:0:0:
103,288,224862,1,2,1:2:0:0:
207,132,225027,1,10,0:2:0:0:
347,345,225192,1,2,1:2:0:0:
316,85,225357,1,2,1:2:0:0:
213,296,225521,1,2,1:2:0:0:
422,254,225686,1,10,0:2:0:0:
207,132,225851,1,2,1:2:0:0:
418,27,226016,6,0,L|409:151,1,104.500003189087,12|0,0:0|1:0,0:0:0:0:
317,303,226346,2,0,L|193:294,1,104.500003189087,10|0,0:2|1:0,0:0:0:0:
0,182,226675,1,14,0:0:0:0:
141,22,226840,1,10,0:0:0:0:
170,39,226922,1,8,0:0:0:0:
193,65,227004,1,8,0:0:0:0:
206,97,227087,1,8,0:0:0:0:
207,132,227169,1,8,0:0:0:0:
197,165,227252,1,8,0:0:0:0:
177,193,227335,6,0,B|133:221|133:221|75:204,1,104.500003189087,6|0,1:2|1:0,0:0:0:0:
11,370,227664,1,2,1:2:0:0:
251,272,227829,1,0,1:0:0:0:
112,110,227994,1,10,0:2:0:0:
151,362,228159,1,2,1:2:0:0:
316,193,228324,2,0,L|433:184,1,104.500003189087,2|2,1:2|1:2,0:0:0:0:
172,23,228653,6,0,L|67:14,1,104.500003189087,2|0,1:2|1:0,0:0:0:0:
192,187,228983,1,2,1:2:0:0:
283,3,229148,1,0,1:0:0:0:
112,110,229313,1,10,0:2:0:0:
316,193,229477,1,2,1:2:0:0:
140,377,229642,2,0,L|133:263,1,104.500003189087,2|2,1:2|1:2,0:0:0:0:
310,89,229972,6,0,L|316:193,1,104.500003189087,6|2,1:2|1:2,0:0:0:0:
340,378,230302,1,0,1:0:0:0:
512,280,230466,2,0,P|454:249|405:260,1,104.500003189087,2|10,1:2|0:2,0:0:0:0:
233,307,230796,1,0,1:0:0:0:
420,121,230961,5,2,1:2:0:0:
448,348,231126,1,2,1:2:0:0:
316,194,231291,1,2,1:2:0:0:
512,186,231455,1,0,1:0:0:0:
326,290,231620,1,10,0:2:0:0:
310,89,231785,1,0,1:0:0:0:
438,243,231950,6,0,L|447:347,1,104.500003189087,8|0,0:0|1:0,0:0:0:0:
230,323,232280,1,8,0:0:0:0:
227,296,232362,1,8,0:0:0:0:
225,270,232445,1,8,0:3:0:0:
222,244,232527,1,4,0:3:0:0:
220,218,232609,5,4,1:2:0:0:
43,384,232774,1,0,0:0:0:0:
98,112,232939,5,10,0:0:0:0:
230,323,233104,1,0,1:0:0:0:
226,61,233269,5,10,0:0:0:0:
7,255,233433,1,0,1:0:0:0:
317,180,233598,5,10,0:0:0:0:
96,18,233763,1,2,1:2:0:0:
225,270,233928,5,10,0:2:0:0:
350,19,234093,1,2,1:2:0:0:
386,295,234258,5,10,0:0:0:0:
145,146,234423,1,0,1:0:0:0:
434,148,234587,5,10,0:0:0:0:
264,381,234752,2,0,L|159:373,1,104.500003189087,2|10,1:2|0:2,0:0:0:0:
298,172,235082,1,4,0:3:0:0:
298,172,235164,1,4,0:3:0:0:
298,172,235247,5,14,0:0:0:0:
497,360,235412,1,2,1:2:0:0:
434,148,235576,1,0,1:0:0:0:
225,270,235741,5,14,0:2:0:0:
352,47,235906,1,2,1:2:0:0:
388,299,236071,1,0,1:0:0:0:
233,74,236236,5,14,0:2:0:0:
512,220,236401,1,0,1:2:0:0:
273,362,236565,5,14,0:0:0:0:
450,120,236730,1,0,1:0:0:0:
137,152,236895,5,10,0:0:0:0:
416,289,237060,1,0,1:0:0:0:
132,352,237225,5,14,0:0:0:0:
233,47,237390,1,8,1:1:0:0:
31,264,237554,1,8,1:1:0:0:
360,185,237719,1,8,1:1:0:0:
