osu file format v14

[General]
AudioFilename: audio.mp3
AudioLeadIn: 0
PreviewTime: 56443
Countdown: 1
SampleSet: None
StackLeniency: 0.7
Mode: 0
LetterboxInBreaks: 0
WidescreenStoryboard: 1

[Editor]
DistanceSpacing: 0.8
BeatDivisor: 4
GridSize: 4
TimelineZoom: 2.6

[Metadata]
Title:Overdrive
TitleUnicode:Overdrive
Artist:Harada Hitomi
ArtistUnicode:原田ひとみ
Creator:G Sabelette
Version:Valkyrie
Source:ヴァルキリードライブ マーメイド
Tags:Valkyrie Drive Mermaid Anime TVSize Yuri
BeatmapID:1389680
BeatmapSetID:432859

[Difficulty]
HPDrainRate:6.8
CircleSize:4
OverallDifficulty:8.5
ApproachRate:9.4
SliderMultiplier:1.4
SliderTickRate:1

[Events]
//Background and Video events
0,0,"overdrive.jpg",0,0
//Break Periods
//Storyboard Layer 0 (Background)
//Storyboard Layer 1 (Fail)
//Storyboard Layer 2 (Pass)
//Storyboard Layer 3 (Foreground)
//Storyboard Sound Samples

[TimingPoints]
70,329.67032967033,4,2,0,100,1,0
70,-200,4,2,0,50,0,0
1059,-153.846153846154,4,2,0,65,0,0
2377,-125,4,2,0,80,0,0
3531,-100,4,2,0,100,0,0
5015,-100,4,2,0,80,0,0
16059,-76.9230769230769,4,1,0,100,0,0
26113,-66.6666666666667,4,3,0,100,0,1
36333,-76.9230769230769,4,1,0,100,0,0
47212,-166.666666666667,4,2,0,100,0,0
52487,-111.111111111111,4,3,0,100,0,0
52817,-100,4,3,0,100,0,0
53146,-90.9090909090909,4,3,0,100,0,0
53476,-83.3333333333333,4,3,0,100,0,0
53806,-76.9230769230769,4,3,0,100,0,0
56443,-200,4,3,0,100,0,0
57762,-66.6666666666667,4,3,0,100,0,1
62377,-76.9230769230769,4,3,0,100,0,1
67652,-50,4,3,0,100,0,1
68311,-66.6666666666667,4,3,0,100,0,1
77872,-76.9230769230769,4,1,0,100,0,0

[HitObjects]
196,136,70,6,0,L|156:108,4,35
264,152,894,1,0,0:0:0:0:
332,140,1059,6,0,L|392:128,6,45.4999979171754
296,192,2212,1,0,0:0:0:0:
256,236,2377,6,0,L|180:260,6,56
364,188,3531,5,0,0:0:0:0:
408,140,3696,2,0,P|384:180|356:188,1,70
284,108,4026,1,0,0:0:0:0:
234,151,4190,2,0,P|262:115|302:107,1,70
396,84,4520,1,0,0:0:0:0:
388,196,4685,1,0,0:0:0:0:
388,196,4767,1,0,0:0:0:0:
388,196,4850,1,0,0:0:0:0:
272,240,5015,6,0,P|244:176|248:152,1,70
328,152,5344,2,0,P|352:184|352:216,1,70
304,280,5674,2,0,P|256:304|236:300,1,70
184,240,6004,2,0,P|168:192|172:168,1,70
216,100,6333,2,0,P|272:72|284:72,1,70
276,156,6663,2,0,P|252:192|268:224,1,70
336,244,6993,2,0,P|368:208|360:184,1,70
348,108,7322,2,0,P|296:92|260:92,1,70
228,156,7652,6,0,P|264:184|276:216,1,70
356,216,7982,2,0,P|380:180|384:144,1,70
336,84,8311,2,0,P|296:96|280:136,1,70
248,196,8641,1,0,0:0:0:0:
252,280,8806,6,0,B|200:288|200:288|208:228|200:200,1,140
200,116,9300,2,0,P|236:88|264:80,1,70
336,112,9630,2,0,P|324:168|312:196,1,70
236,184,9960,2,0,P|200:228|208:264,1,70
199,238,10207,1,0,0:0:0:0:
199,238,10289,1,4,0:0:0:0:
252,304,10454,2,0,P|312:296|324:284,1,70
348,212,10784,2,0,P|320:168|328:140,1,70
292,72,11113,6,0,P|224:80|208:104,1,70
148,112,11443,2,0,P|160:160|184:184,1,70
284,148,11773,2,0,P|224:204|224:204,1,70
152,232,12102,2,0,P|208:260|228:264,1,70
300,276,12432,1,0,0:0:0:0:
300,276,12597,2,0,B|380:268|380:268|316:228,1,140
248,212,13091,6,0,P|200:172|200:148,1,70
276,132,13421,2,0,P|300:184|288:200,1,70
296,272,13751,2,0,P|352:224|352:208,1,70
372,152,14080,1,0,0:0:0:0:
340,76,14245,6,0,P|264:48|192:212,1,280
236,256,15070,2,0,P|264:224|304:224,1,70
376,220,15399,1,0,0:0:0:0:
364,136,15564,1,4,0:0:0:0:
364,136,15646,1,0,0:0:0:0:
364,136,15729,2,0,P|316:92|288:88,1,70
208,56,16059,5,0,0:0:0:0:
196,168,16223,1,0,0:0:0:0:
340,176,16388,2,0,P|312:132|260:112,1,90.9999958343508
140,68,16718,1,0,0:0:0:0:
124,212,16883,1,0,0:0:0:0:
256,276,17048,1,0,0:0:0:0:
276,132,17212,2,0,P|216:168|200:204,1,90.9999958343508
324,272,17542,2,0,P|368:224|352:172,1,90.9999958343508
356,56,17872,5,0,0:0:0:0:
356,56,17954,1,0,0:0:0:0:
356,56,18037,2,0,P|280:56|248:68,1,90.9999958343508
132,116,18366,2,0,P|192:132|224:164,1,90.9999958343508
344,220,18696,5,0,0:0:0:0:
240,324,18861,1,0,0:0:0:0:
212,180,19026,1,0,0:0:0:0:
304,292,19190,2,0,P|280:244|324:116,1,181.999991668702
400,8,19685,1,0,0:0:0:0:
400,8,19850,2,0,P|428:72|428:112,1,90.9999958343508
404,236,20179,1,0,0:0:0:0:
324,116,20344,5,0,0:0:0:0:
276,40,20509,2,0,L|326:118,1,90.9999958343508
404,236,20839,1,4,0:0:0:0:
404,236,20921,1,0,0:0:0:0:
404,236,21004,1,0,0:0:0:0:
272,300,21168,2,0,P|216:320|172:300,1,90.9999958343508
84,208,21498,1,0,0:0:0:0:
148,76,21663,2,0,P|200:120|200:168,1,90.9999958343508
256,264,21993,5,0,0:0:0:0:
288,120,22157,1,0,0:0:0:0:
364,244,22322,2,0,P|312:196|272:192,1,90.9999958343508
183,158,22652,1,0,0:0:0:0:
289,119,22817,1,0,0:0:0:0:
328,225,22982,1,0,0:0:0:0:
222,264,23146,5,0,0:0:0:0:
190,271,23229,1,0,0:0:0:0:
159,270,23311,1,0,0:0:0:0:
128,261,23394,1,0,0:0:0:0:
101,244,23476,1,0,0:0:0:0:
256,192,23641,12,0,24465,0:0:0:0:
300,160,24795,6,2,P|280:100|284:180,1,272.999987503052
300,160,25454,2,2,B|276:259|276:259|156:136,1,272.999987503052
348,36,26113,1,0,0:0:0:0:
382,67,26196,1,0,0:0:0:0:
406,108,26278,1,0,0:0:0:0:
418,153,26361,1,0,0:0:0:0:
415,200,26443,1,0,0:0:0:0:
399,245,26526,1,0,0:0:0:0:
370,282,26608,1,0,0:0:0:0:
228,316,26773,6,0,P|164:288|140:252,1,105.000004005432
92,80,27102,1,0,0:0:0:0:
276,124,27267,1,0,0:0:0:0:
120,232,27432,1,0,0:0:0:0:
296,300,27597,1,0,0:0:0:0:
468,220,27762,2,0,P|416:156|380:132,1,105.000004005432
228,56,28091,2,0,P|160:60|148:132,1,105.000004005432
160,276,28421,2,0,P|216:216|248:196,1,105.000004005432
460,56,28751,5,8,0:0:0:0:
392,348,28916,1,0,0:0:0:0:
392,348,29080,1,0,0:0:0:0:
128,312,29245,5,8,0:0:0:0:
472,204,29410,1,0,0:0:0:0:
472,204,29575,1,0,0:0:0:0:
144,32,29740,5,8,0:0:0:0:
300,332,29905,1,0,0:0:0:0:
300,332,30070,1,0,0:0:0:0:
360,32,30234,5,8,0:0:0:0:
84,188,30399,1,0,0:0:0:0:
420,288,30564,1,0,0:0:0:0:
332,132,30729,6,0,P|276:108|188:124,1,105.000004005432
96,176,31059,1,0,0:0:0:0:
108,226,31141,1,0,0:0:0:0:
136,271,31223,1,0,0:0:0:0:
175,306,31306,1,0,0:0:0:0:
222,327,31388,1,0,0:0:0:0:
392,332,31553,6,0,P|412:264|392:220,1,105.000004005432
384,24,31883,1,0,0:0:0:0:
256,192,32048,1,0,0:0:0:0:
464,204,32212,2,0,L|356:140,1,105.000004005432
180,64,32542,2,0,P|116:100|104:160,1,105.000004005432
144,332,32872,1,0,0:0:0:0:
328,328,33037,2,0,P|288:280|280:228,1,105.000004005432
256,32,33366,1,0,0:0:0:0:
412,172,33531,6,0,P|284:120|276:120,1,105.000004005432
112,104,33861,1,0,0:0:0:0:
136,340,34026,5,0,0:0:0:0:
112,104,34190,1,0,0:0:0:0:
136,340,34355,1,0,0:0:0:0:
340,292,34520,1,0,0:0:0:0:
424,156,34685,1,0,0:0:0:0:
392,114,34767,1,0,0:0:0:0:
349,84,34850,1,0,0:0:0:0:
299,71,34932,1,0,0:0:0:0:
246,75,35015,1,0,0:0:0:0:
96,152,35179,5,0,0:0:0:0:
172,304,35344,1,0,0:0:0:0:
320,248,35509,1,0,0:0:0:0:
224,124,35674,5,0,0:0:0:0:
224,124,35756,1,0,0:0:0:0:
224,124,35839,1,0,0:0:0:0:
72,308,36004,1,0,0:0:0:0:
420,132,36168,1,0,0:0:0:0:
248,272,36333,5,0,0:0:0:0:
248,272,36416,1,0,0:0:0:0:
248,272,36498,1,0,0:0:0:0:
248,272,36580,1,0,0:0:0:0:
248,272,36663,2,0,P|204:212|204:176,1,90.9999958343508
260,76,36993,6,0,L|360:88,1,90.9999958343508
476,108,37322,1,0,0:0:0:0:
364,168,37487,1,0,0:0:0:0:
240,196,37652,1,0,0:0:0:0:
240,196,37734,1,0,0:0:0:0:
240,196,37817,2,0,P|196:212|152:244,1,90.9999958343508
68,324,38146,6,0,P|124:328|160:296,1,90.9999958343508
280,316,38476,1,0,0:0:0:0:
176,244,38641,1,0,0:0:0:0:
200,120,38806,1,0,0:0:0:0:
200,120,38888,1,0,0:0:0:0:
200,120,38971,2,0,L|296:168,1,90.9999958343508
392,200,39300,5,0,0:0:0:0:
344,84,39465,1,0,0:0:0:0:
220,56,39630,2,0,P|192:120|196:156,1,90.9999958343508
244,256,39960,1,0,0:0:0:0:
244,256,40042,1,0,0:0:0:0:
244,256,40124,1,0,0:0:0:0:
324,156,40289,5,0,0:0:0:0:
452,156,40454,2,0,P|424:96|388:76,1,90.9999958343508
280,52,40784,2,0,P|224:96|224:136,1,90.9999958343508
208,240,41113,1,0,0:0:0:0:
324,188,41278,1,0,0:0:0:0:
324,188,41361,1,0,0:0:0:0:
324,188,41443,1,0,0:0:0:0:
356,64,41608,5,0,0:0:0:0:
318,90,41690,1,0,0:0:0:0:
277,109,41773,1,0,0:0:0:0:
234,122,41855,1,0,0:0:0:0:
189,127,41938,1,0,0:0:0:0:
76,188,42102,6,0,P|136:248|176:268,1,90.9999958343508
260,296,42432,1,0,0:0:0:0:
180,196,42597,1,0,0:0:0:0:
304,164,42762,1,0,0:0:0:0:
304,164,42844,1,0,0:0:0:0:
304,164,42927,2,0,P|252:116|220:104,1,90.9999958343508
116,60,43256,5,0,0:0:0:0:
244,48,43421,1,0,0:0:0:0:
368,76,43586,2,0,P|312:116|268:128,1,90.9999958343508
168,156,43916,1,0,0:0:0:0:
168,156,43998,1,0,0:0:0:0:
168,156,44080,2,0,P|244:156|276:172,1,90.9999958343508
392,180,44410,2,0,P|344:212|300:232,1,90.9999958343508
314,226,44905,6,0,P|304:176|264:144,1,90.9999958343508
176,68,45234,2,0,P|184:136|212:164,1,90.9999958343508
272,252,45564,1,0,0:0:0:0:
272,252,45646,1,0,0:0:0:0:
272,252,45729,1,0,0:0:0:0:
424,148,45894,6,0,B|344:144|276:172|232:188,1,181.999991668702
124,224,46388,1,0,0:0:0:0:
252,236,46553,1,0,0:0:0:0:
180,128,46718,2,0,P|248:112|280:96,1,90.9999958343508
384,52,47048,1,0,0:0:0:0:
336,192,47212,6,0,L|296:168,1,41.9999987182618
284,160,47542,1,0,0:0:0:0:
272,152,47707,1,0,0:0:0:0:
204,104,48037,2,0,P|184:160|196:196,1,83.9999974365235
232,292,48531,1,0,0:0:0:0:
432,204,48696,2,0,L|380:184,1,41.9999987182618
432,204,49355,6,0,L|380:184,1,41.9999987182618
392,188,49685,1,0,0:0:0:0:
316,100,50015,1,0,0:0:0:0:
208,160,50179,1,0,0:0:0:0:
312,228,50344,1,0,0:0:0:0:
312,228,50674,2,0,L|276:188,1,41.9999987182618
200,104,51004,5,0,0:0:0:0:
200,104,51333,2,0,L|220:144,1,41.9999987182618
292,108,51663,2,0,L|316:156,1,41.9999987182618
376,88,51993,2,0,P|396:140|380:160,1,83.9999974365235
292,172,52487,6,0,P|224:200|212:212,1,62.9999980773926
116,280,52817,2,0,L|128:188,1,70
208,68,53146,2,0,L|192:168,1,77.0000023498536
244,296,53476,2,0,L|256:200,1,83.9999974365235
340,88,53806,2,0,L|328:188,1,90.9999958343508
192,228,54135,5,0,0:0:0:0:
276,100,54300,1,0,0:0:0:0:
364,236,54465,1,0,0:0:0:0:
216,148,54630,1,0,0:0:0:0:
396,116,54795,1,0,0:0:0:0:
304,284,54960,1,0,0:0:0:0:
300,84,55124,1,0,0:0:0:0:
204,268,55289,1,0,0:0:0:0:
424,252,55454,1,0,0:0:0:0:
392,36,55619,5,0,0:0:0:0:
357,83,55701,1,0,0:0:0:0:
322,131,55784,1,0,0:0:0:0:
307,187,55866,1,0,0:0:0:0:
349,222,55949,1,0,0:0:0:0:
402,200,56031,1,0,0:0:0:0:
395,145,56113,1,0,0:0:0:0:
355,102,56196,1,0,0:0:0:0:
308,66,56278,1,0,0:0:0:0:
262,29,56361,1,0,0:0:0:0:
248,84,56443,6,2,B|244:176|244:176|212:168,1,122.5
204,112,57102,2,2,P|176:156|212:168,1,105
436,52,57762,5,8,0:0:0:0:
440,184,57927,1,0,0:0:0:0:
436,52,58091,1,8,0:0:0:0:
328,244,58256,1,0,0:0:0:0:
436,52,58421,1,8,0:0:0:0:
208,308,58586,1,0,0:0:0:0:
436,52,58751,1,8,0:0:0:0:
88,364,58916,1,0,0:0:0:0:
80,112,59080,5,8,0:0:0:0:
320,76,59245,1,0,0:0:0:0:
256,20,59410,1,8,0:0:0:0:
448,288,59575,1,0,0:0:0:0:
476,188,59740,1,8,0:0:0:0:
148,352,59905,1,0,0:0:0:0:
64,204,60070,5,0,0:0:0:0:
82,149,60152,1,0,0:0:0:0:
124,136,60234,1,0,0:0:0:0:
175,141,60317,1,0,0:0:0:0:
222,173,60399,1,0,0:0:0:0:
279,174,60482,1,0,0:0:0:0:
335,158,60564,1,0,0:0:0:0:
386,133,60646,1,0,0:0:0:0:
435,102,60729,1,0,0:0:0:0:
352,40,60894,5,0,0:0:0:0:
472,192,61059,1,0,0:0:0:0:
216,48,61223,1,0,0:0:0:0:
392,280,61388,1,0,0:0:0:0:
184,140,61553,2,0,P|248:108|240:216,1,210.000008010865
380,64,62048,1,0,0:0:0:0:
260,209,62212,1,0,0:0:0:0:
164,56,62377,5,0,0:0:0:0:
164,56,62542,2,0,P|136:128|136:168,1,90.9999958343508
212,304,62872,1,0,0:0:0:0:
212,304,62954,1,0,0:0:0:0:
212,304,63037,2,0,P|264:296|300:264,1,90.9999958343508
428,124,63366,1,0,0:0:0:0:
196,196,63531,1,0,0:0:0:0:
360,36,63696,6,0,P|304:36|256:52,1,90.9999958343508
96,104,64026,1,0,0:0:0:0:
248,240,64190,1,0,0:0:0:0:
248,240,64355,2,0,P|240:288|260:324,1,90.9999958343508
428,252,64685,1,0,0:0:0:0:
228,56,64850,1,0,0:0:0:0:
432,72,65015,6,0,P|400:104|356:124,1,90.9999958343508
192,44,65344,1,0,0:0:0:0:
336,208,65509,1,0,0:0:0:0:
116,148,65674,1,0,0:0:0:0:
116,148,65756,1,0,0:0:0:0:
116,148,65839,1,0,0:0:0:0:
312,100,66004,6,0,P|268:152|264:200,1,90.9999958343508
428,256,66333,2,0,P|440:188|428:144,1,90.9999958343508
280,40,66663,1,0,0:0:0:0:
36,120,66828,1,0,0:0:0:0:
296,276,66993,1,0,0:0:0:0:
176,116,67157,5,0,0:0:0:0:
376,144,67322,1,0,0:0:0:0:
376,144,67405,1,0,0:0:0:0:
376,144,67487,1,0,0:0:0:0:
244,240,67652,6,2,B|220:84|220:84|272:132,1,210
284,140,67982,2,2,P|328:112|268:120,1,140
260,328,68311,5,8,0:0:0:0:
180,212,68476,1,0,0:0:0:0:
260,328,68641,1,8,0:0:0:0:
344,160,68806,1,0,0:0:0:0:
260,328,68971,1,8,0:0:0:0:
84,64,69135,1,0,0:0:0:0:
260,328,69300,1,8,0:0:0:0:
412,28,69465,1,0,0:0:0:0:
84,64,69630,5,8,0:0:0:0:
472,64,69795,1,0,0:0:0:0:
148,144,69960,1,8,0:0:0:0:
396,144,70124,1,0,0:0:0:0:
56,224,70289,1,8,0:0:0:0:
496,224,70454,1,0,0:0:0:0:
404,52,70619,6,0,L|348:80,1,52.5000020027161
260,136,70784,2,0,L|220:172,1,52.5000020027161
132,244,70949,2,0,P|204:280|264:252,1,105.000004005432
432,244,71278,2,0,P|376:208|304:200,1,105.000004005432
140,128,71608,1,0,0:0:0:0:
140,128,71690,1,0,0:0:0:0:
140,128,71773,1,0,0:0:0:0:
336,60,71938,6,0,P|264:100|224:140,1,105.000004005432
247,114,72185,1,0,0:0:0:0:
247,114,72267,1,0,0:0:0:0:
136,296,72432,2,0,P|224:256|252:224,1,105.000004005432
396,96,72762,1,0,0:0:0:0:
192,56,72927,2,0,P|196:120|244:152,1,105.000004005432
392,276,73256,1,0,0:0:0:0:
276,100,73421,1,0,0:0:0:0:
68,68,73586,5,0,0:0:0:0:
172,272,73751,1,0,0:0:0:0:
388,188,73916,1,0,0:0:0:0:
200,56,74080,1,0,0:0:0:0:
272,276,74245,1,0,0:0:0:0:
68,164,74410,1,0,0:0:0:0:
292,112,74575,1,0,0:0:0:0:
132,280,74740,1,0,0:0:0:0:
132,280,74822,1,0,0:0:0:0:
132,280,74905,1,0,0:0:0:0:
340,292,75070,6,0,P|264:252|240:208,1,105.000004005432
156,52,75399,2,0,P|212:76|248:136,1,105.000004005432
440,44,75729,1,0,0:0:0:0:
116,204,75894,1,0,0:0:0:0:
276,68,76059,5,0,0:0:0:0:
293,106,76141,1,0,0:0:0:0:
320,136,76223,1,0,0:0:0:0:
352,164,76306,1,0,0:0:0:0:
380,192,76388,1,0,0:0:0:0:
412,224,76471,1,0,0:0:0:0:
420,264,76553,1,0,0:0:0:0:
402,300,76635,1,0,0:0:0:0:
369,325,76718,1,0,0:0:0:0:
328,336,76800,1,0,0:0:0:0:
280,332,76883,5,0,0:0:0:0:
236,316,76965,1,0,0:0:0:0:
192,284,77048,1,0,0:0:0:0:
164,240,77130,1,0,0:0:0:0:
140,188,77212,1,0,0:0:0:0:
144,128,77295,1,0,0:0:0:0:
184,80,77377,1,0,0:0:0:0:
248,56,77460,1,0,0:0:0:0:
320,44,77542,1,0,0:0:0:0:
256,192,77872,5,4,0:0:0:0:
256,72,78201,5,4,0:0:0:0:
256,304,78531,5,4,0:0:0:0:
364,180,78861,6,0,P|300:140|256:140,1,90.9999958343508
132,180,79190,2,0,P|184:204|232:208,1,90.9999958343508
400,232,79520,1,0,0:0:0:0:
284,92,79685,1,0,0:0:0:0:
200,252,79850,2,0,P|248:224|288:208,1,90.9999958343508
304,28,80179,6,0,P|308:96|288:128,1,90.9999958343508
480,116,80509,1,0,0:0:0:0:
324,212,80674,1,0,0:0:0:0:
384,36,80839,2,0,P|332:92|284:116,1,90.9999958343508
144,152,81168,2,0,P|188:208|224:224,1,90.9999958343508
320,360,81498,5,8,0:0:0:0:
440,64,81663,1,0,0:0:0:0:
440,64,81828,1,0,0:0:0:0:
496,256,81993,5,8,0:0:0:0:
184,40,82157,1,0,0:0:0:0:
184,40,82322,1,0,0:0:0:0:
364,20,82487,5,8,0:0:0:0:
112,320,82652,1,0,0:0:0:0:
112,320,82817,1,0,0:0:0:0:
292,340,82982,5,8,0:0:0:0:
44,144,83146,1,0,0:0:0:0:
448,68,83311,1,0,0:0:0:0:
352,224,83476,2,0,P|312:160|284:136,1,90.9999958343508
156,40,83806,5,0,0:0:0:0:
155,94,83888,1,0,0:0:0:0:
154,149,83971,1,0,0:0:0:0:
153,203,84053,1,0,0:0:0:0:
152,258,84135,1,0,0:0:0:0:
332,288,84300,6,0,P|276:252|264:216,1,90.9999958343508
244,52,84630,2,0,P|280:64|312:120,1,90.9999958343508
332,288,84960,1,0,0:0:0:0:
196,164,85124,1,0,0:0:0:0:
360,84,85289,1,0,0:0:0:0:
248,228,85454,6,0,P|320:200|344:176,1,90.9999958343508
416,32,85784,2,0,P|348:52|320:84,1,90.9999958343508
248,228,86113,1,0,0:0:0:0:
412,152,86278,1,0,0:0:0:0:
256,60,86443,2,0,P|200:88|176:120,1,90.9999958343508
156,292,86773,5,8,0:0:0:0:
376,72,86938,1,0,0:0:0:0:
416,192,87267,5,8,0:0:0:0:
96,192,87432,1,0,0:0:0:0:
256,40,87762,5,8,0:0:0:0:
256,348,87927,1,0,0:0:0:0:
372,256,88091,2,0,P|328:200|200:160,1,181.999991668702
108,140,88586,1,0,0:0:0:0:
200,228,88751,2,0,P|328:196|204:184,1,363.999983337403,2|0,0:0|0:0,0:0:0:0:
