osu file format v14

[General]
AudioFilename: audio.mp3
AudioLeadIn: 0
PreviewTime: 56443
Countdown: 1
SampleSet: None
StackLeniency: 0.7
Mode: 0
LetterboxInBreaks: 0
WidescreenStoryboard: 1

[Editor]
DistanceSpacing: 1.2
BeatDivisor: 4
GridSize: 4
TimelineZoom: 2.6

[Metadata]
Title:Overdrive
TitleUnicode:Overdrive
Artist:Harada Hitomi
ArtistUnicode:原田ひとみ
Creator:G Sabelette
Version:Valkyrie (revamp)
Source:ヴァルキリードライブ マーメイド
Tags:Valkyrie Drive Mermaid Anime TVSize Yuri
BeatmapID:933297
BeatmapSetID:432859

[Difficulty]
HPDrainRate:6
CircleSize:4
OverallDifficulty:9
ApproachRate:9.4
SliderMultiplier:1.4
SliderTickRate:1

[Events]
//Background and Video events
0,0,"overdrive.jpg",0,0
//Break Periods
//Storyboard Layer 0 (Background)
//Storyboard Layer 1 (Fail)
//Storyboard Layer 2 (Pass)
//Storyboard Layer 3 (Foreground)
//Storyboard Sound Samples

[TimingPoints]
134.941149076309,285.714285714286,4,2,0,40,1,0
420,288.461538461538,4,2,0,45,1,0
420,-142.857142857143,4,2,0,45,0,0
708,291.26213592233,4,2,0,50,1,0
708,-142.857142857143,4,2,0,50,0,0
999,294.117647058824,4,2,0,55,1,0
999,-125,4,2,0,55,0,0
1293,297.029702970297,4,2,0,65,1,0
1590,300,4,2,0,70,1,0
1890,303.030303030303,4,2,0,75,1,0
2193,306.122448979592,4,2,0,80,1,0
2193,-125,4,2,0,80,0,0
2499,309.278350515464,4,2,0,85,1,0
2808,312.5,4,2,0,90,1,0
3120,315.789473684211,4,2,0,90,1,0
3435,319.148936170213,4,2,0,90,1,0
3754,322.58064516129,4,2,0,90,1,0
4076,312.5,4,2,0,90,1,0
5013,329.67032967033,4,2,0,75,1,0
5013,-100,4,2,0,80,0,0
14243,-100,4,2,0,60,0,0
16056,-76.9230769230769,4,1,0,85,0,0
24793,-76.9230769230769,4,1,0,95,0,0
26111,-66.6666666666667,4,3,0,100,0,1
36331,-76.9230769230769,4,1,0,85,0,0
47210,-166.666666666667,4,2,0,100,0,0
52485,-111.111111111111,4,3,0,100,0,0
52815,-90.9090909090909,4,3,0,100,0,0
53144,-76.9230769230769,4,3,0,100,0,0
53474,-66.6666666666667,4,3,0,100,0,0
53804,-58.8235294117647,4,3,0,100,0,0
56441,-200,4,3,0,100,0,0
57760,-66.6666666666667,4,3,0,100,0,1
62375,-76.9230769230769,4,3,0,100,0,1
67650,-50,4,3,0,100,0,1
68309,-66.6666666666667,4,3,0,100,0,1
77870,-76.9230769230769,4,1,0,100,0,0
88914,-55.5555555555556,4,1,0,100,0,0

[HitObjects]
128,184,134,5,0,0:0:0:0:
176,116,277,1,0,0:0:0:0:
215,143,420,2,0,P|191:123|163:111,1,48.9999985046387
86,157,708,2,0,P|117:178|141:189,1,48.9999985046387
224,248,999,6,0,P|252:204|260:180,1,56
288,112,1293,1,0,0:0:0:0:
332,184,1441,1,0,0:0:0:0:
288,112,1590,1,0,0:0:0:0:
332,184,1738,1,0,0:0:0:0:
288,112,1890,1,0,0:0:0:0:
332,184,2038,1,0,0:0:0:0:
224,264,2193,6,0,P|208:228|204:192,1,56
192,100,2499,1,0,0:0:0:0:
244,36,2653,1,0,0:0:0:0:
284,108,2808,1,0,0:0:0:0:
244,36,2964,1,0,0:0:0:0:
192,100,3120,1,0,0:0:0:0:
284,108,3277,1,0,0:0:0:0:
364,188,3435,5,0,0:0:0:0:
408,140,3594,2,0,P|384:180|356:188,1,70
284,108,3915,1,0,0:0:0:0:
234,151,4076,2,0,P|262:115|302:107,1,70
396,84,4388,1,0,0:0:0:0:
388,196,4544,5,0,0:0:0:0:
388,196,4626,1,0,0:0:0:0:
388,196,4709,1,0,0:0:0:0:
388,196,4779,1,0,0:0:0:0:
388,196,4857,1,0,0:0:0:0:
264,84,5013,6,0,P|224:116|208:160,1,70
172,236,5342,1,0,0:0:0:0:
280,204,5507,1,0,0:0:0:0:
264,84,5672,2,2,P|236:124|228:168,1,70
280,272,6002,2,0,P|308:232|316:188,1,70
320,64,6331,5,0,0:0:0:0:
230,143,6496,1,0,0:0:0:0:
336,176,6661,2,0,P|308:120|280:96,1,70
192,56,6991,1,0,0:0:0:0:
128,148,7155,1,0,0:0:0:0:
200,232,7320,1,0,0:0:0:0:
304,184,7485,2,0,B|256:140|256:80|256:80|232:128,1,140
192,200,7980,1,0,0:0:0:0:
236,304,8144,2,0,P|268:256|272:236,1,70
292,132,8474,1,0,0:0:0:0:
200,201,8639,5,0,0:0:0:0:
261,281,8806,2,0,B|225:297|225:297|225:241|197:197,1,140
148,100,9300,2,0,P|184:72|212:64,1,70
312,104,9628,2,0,P|276:132|248:140,1,70
148,100,9958,1,0,0:0:0:0:
188,204,10122,1,0,0:0:0:0:
188,204,10205,1,0,0:0:0:0:
188,204,10287,5,0,0:0:0:0:
236,304,10452,2,0,P|284:264|292:236,1,70
284,144,10782,2,0,P|236:184|228:212,1,70
236,304,11111,1,0,0:0:0:0:
144,244,11276,1,0,0:0:0:0:
176,136,11441,1,0,0:0:0:0:
284,144,11606,5,0,0:0:0:0:
308,252,11771,2,0,P|260:272|232:272,1,70
160,200,12100,2,0,P|208:180|236:180,1,70
336,188,12430,1,0,0:0:0:0:
448,204,12595,2,0,B|408:160|416:120|416:120|396:136,1,105
368,156,12925,5,0,0:0:0:0:
304,248,13089,2,0,P|256:268|224:268,1,70
144,208,13419,2,0,P|192:188|224:188,1,70
320,224,13749,1,0,0:0:0:0:
408,156,13914,1,0,0:0:0:0:
170,191,14078,1,0,0:0:0:0:
346,86,14243,6,0,B|342:90|317:109|282:138|282:138|254:82|170:82|130:158|188:216,1,280
240,280,15067,2,0,P|300:280|332:256,1,70
376,220,15399,1,0,0:0:0:0:
364,136,15564,5,4,0:0:0:0:
364,136,15646,1,0,0:0:0:0:
364,136,15727,2,0,P|304:152|288:168,1,70
228,244,16056,1,0,0:0:0:0:
340,340,16223,1,0,0:0:0:0:
444,240,16386,2,0,P|460:180|452:140,1,90.9999958343508
374,37,16716,1,0,0:0:0:0:
258,118,16881,5,0,0:0:0:0:
339,233,17045,1,0,0:0:0:0:
455,152,17210,1,0,0:0:0:0:
224,168,17375,2,0,P|228:232|252:272,1,90.9999958343508
376,204,17705,1,0,0:0:0:0:
356,56,17872,5,0,0:0:0:0:
356,56,17954,1,0,0:0:0:0:
356,56,18037,2,0,P|280:56|248:68,1,90.9999958343508
152,148,18364,2,0,P|228:148|260:160,1,90.9999958343508
344,220,18696,1,0,0:0:0:0:
240,324,18861,1,0,0:0:0:0:
212,180,19026,1,0,0:0:0:0:
304,292,19190,6,0,P|280:244|324:116,1,181.999991668702
400,8,19685,1,0,0:0:0:0:
400,8,19850,2,0,P|428:72|428:112,1,90.9999958343508
404,236,20179,1,0,0:0:0:0:
324,116,20342,1,0,0:0:0:0:
274,42,20509,2,0,P|306:74|324:120,1,90.9999958343508
356,260,20837,5,4,0:0:0:0:
356,260,20921,1,0,0:0:0:0:
356,260,21004,1,0,0:0:0:0:
224,316,21166,2,0,P|160:280|144:260,1,90.9999958343508
120,48,21496,2,0,P|160:76|188:136,1,90.9999958343508
220,252,21826,1,0,0:0:0:0:
384,232,21991,1,0,0:0:0:0:
400,28,22157,5,0,0:0:0:0:
460,160,22322,2,0,P|408:112|368:108,1,90.9999958343508
224,128,22652,1,0,0:0:0:0:
400,28,22815,1,0,0:0:0:0:
408,256,22982,1,0,0:0:0:0:
276,276,23146,5,0,0:0:0:0:
244,283,23229,1,0,0:0:0:0:
213,282,23311,1,0,0:0:0:0:
182,273,23394,1,0,0:0:0:0:
156,260,23476,1,0,0:0:0:0:
256,192,23641,12,0,24465,0:0:0:0:
300,160,24793,6,10,P|280:100|284:180,1,272.999987503052
300,160,25452,2,10,B|276:259|276:259|156:136,1,272.999987503052
348,36,26113,5,0,0:0:0:0:
382,67,26196,1,0,0:0:0:0:
406,108,26278,1,0,0:0:0:0:
418,153,26361,1,0,0:0:0:0:
415,200,26443,1,0,0:0:0:0:
399,245,26526,1,0,0:0:0:0:
370,282,26608,1,0,0:0:0:0:
208,320,26771,6,0,P|152:296|128:244,1,105.000004005432
120,68,27102,1,0,0:0:0:0:
304,108,27267,1,0,0:0:0:0:
88,188,27432,1,0,0:0:0:0:
300,236,27597,1,0,0:0:0:0:
116,336,27760,2,0,P|176:292|200:260,1,105.000004005432
304,56,28089,1,0,0:0:0:0:
300,236,28254,1,0,0:0:0:0:
225,308,28421,2,0,P|281:248|313:228,1,105.000004005432
460,56,28751,5,8,0:0:0:0:
392,348,28916,1,0,0:0:0:0:
392,348,29080,1,0,0:0:0:0:
128,312,29245,5,8,0:0:0:0:
472,204,29410,1,0,0:0:0:0:
472,204,29575,1,0,0:0:0:0:
144,32,29740,5,8,0:0:0:0:
300,332,29905,1,0,0:0:0:0:
300,332,30070,1,0,0:0:0:0:
360,32,30234,5,8,0:0:0:0:
84,188,30399,1,0,0:0:0:0:
420,288,30564,1,0,0:0:0:0:
332,132,30729,6,0,P|276:108|188:124,1,105.000004005432
96,176,31059,1,0,0:0:0:0:
108,226,31141,1,0,0:0:0:0:
136,271,31223,1,0,0:0:0:0:
175,306,31306,1,0,0:0:0:0:
222,327,31388,1,0,0:0:0:0:
392,332,31553,6,0,P|412:264|392:220,1,105.000004005432
328,60,31883,1,0,0:0:0:0:
228,260,32048,1,0,0:0:0:0:
464,204,32212,2,0,P|424:160|356:140,1,105.000004005432
96,152,32540,2,0,P|136:196|204:216,1,105.000004005432
382,142,32872,1,0,0:0:0:0:
296,360,33037,2,0,P|256:312|248:260,1,105.000004005432
232,32,33366,1,0,0:0:0:0:
448,196,33531,6,0,P|320:144|312:144,1,105.000004005432
92,124,33861,1,0,0:0:0:0:
208,336,34026,5,0,0:0:0:0:
92,124,34190,1,0,0:0:0:0:
332,260,34355,1,0,0:0:0:0:
92,124,34520,1,0,0:0:0:0:
424,156,34685,1,0,0:0:0:0:
392,114,34767,1,0,0:0:0:0:
349,84,34850,1,0,0:0:0:0:
299,71,34932,1,0,0:0:0:0:
246,75,35015,1,0,0:0:0:0:
96,152,35179,5,0,0:0:0:0:
292,336,35344,1,0,0:0:0:0:
392,114,35507,1,0,0:0:0:0:
224,124,35674,5,0,0:0:0:0:
224,124,35756,1,0,0:0:0:0:
224,124,35839,1,0,0:0:0:0:
116,320,36004,1,0,0:0:0:0:
456,160,36168,1,0,0:0:0:0:
248,272,36333,5,0,0:0:0:0:
248,272,36416,1,0,0:0:0:0:
248,272,36498,1,0,0:0:0:0:
248,272,36580,1,0,0:0:0:0:
248,272,36663,2,0,P|204:212|204:176,1,90.9999958343508
268,48,36993,6,0,P|316:44|368:60,1,90.9999958343508
508,152,37322,1,0,0:0:0:0:
380,248,37487,1,0,0:0:0:0:
240,156,37652,5,0,0:0:0:0:
240,156,37734,1,0,0:0:0:0:
240,156,37817,2,0,P|196:172|152:204,1,90.9999958343508
104,348,38144,2,0,P|148:332|192:300,1,90.9999958343508
248,152,38476,1,0,0:0:0:0:
112,256,38641,1,0,0:0:0:0:
208,60,38806,1,0,0:0:0:0:
208,60,38888,1,0,0:0:0:0:
208,60,38971,2,0,P|256:92|304:108,1,90.9999958343508
428,148,39300,5,0,0:0:0:0:
260,200,39465,1,0,0:0:0:0:
108,68,39630,2,0,P|100:136|112:172,1,90.9999958343508
184,300,39958,1,0,0:0:0:0:
307,231,40122,1,0,0:0:0:0:
307,231,40205,1,0,0:0:0:0:
307,231,40287,1,0,0:0:0:0:
238,108,40452,1,0,0:0:0:0:
115,176,40617,5,0,0:0:0:0:
285,316,40782,2,0,P|309:256|301:212,1,90.9999958343508
204,36,41111,2,0,P|180:96|188:140,1,90.9999958343508
182,121,41359,1,0,0:0:0:0:
182,121,41441,1,0,0:0:0:0:
356,64,41608,5,0,0:0:0:0:
318,90,41690,1,0,0:0:0:0:
277,109,41773,1,0,0:0:0:0:
234,122,41855,1,0,0:0:0:0:
189,127,41938,1,0,0:0:0:0:
76,188,42102,6,0,P|116:232|160:248,1,90.9999958343508
304,280,42432,1,0,0:0:0:0:
204,148,42597,1,0,0:0:0:0:
368,156,42762,1,0,0:0:0:0:
368,156,42844,1,0,0:0:0:0:
368,156,42927,2,0,P|316:108|284:96,1,90.9999958343508
120,40,43256,5,0,0:0:0:0:
204,148,43419,1,0,0:0:0:0:
374,53,43586,2,0,P|318:93|274:105,1,90.9999958343508
112,192,43916,1,0,0:0:0:0:
112,192,43998,1,0,0:0:0:0:
112,192,44080,2,0,P|188:192|220:208,1,90.9999958343508
388,176,44410,2,0,P|340:216|296:228,1,90.9999958343508
314,226,44905,6,0,P|304:176|264:144,1,90.9999958343508
176,68,45234,2,0,P|184:136|212:164,1,90.9999958343508
272,252,45564,1,0,0:0:0:0:
272,252,45646,1,0,0:0:0:0:
272,252,45729,1,0,0:0:0:0:
404,160,45892,6,0,B|360:172|360:172|324:196|324:196|260:180|204:208,1,181.999991668702
108,228,46388,1,0,0:0:0:0:
256,272,46553,1,0,0:0:0:0:
200,116,46718,2,0,P|268:100|300:84,1,90.9999958343508
376,32,47048,1,0,0:0:0:0:
336,192,47212,6,0,L|296:168,1,41.9999987182618
284,160,47542,1,0,0:0:0:0:
272,152,47707,1,0,0:0:0:0:
204,104,48037,2,0,P|184:160|196:196,1,83.9999974365235
232,292,48531,1,0,0:0:0:0:
432,204,48696,2,0,L|380:184,1,41.9999987182618
432,204,49355,6,0,L|380:184,1,41.9999987182618
392,188,49685,1,0,0:0:0:0:
316,100,50015,1,0,0:0:0:0:
208,160,50179,1,0,0:0:0:0:
312,228,50344,1,0,0:0:0:0:
312,228,50674,2,0,L|276:188,1,41.9999987182618
200,104,51004,5,0,0:0:0:0:
200,104,51333,2,0,L|220:144,1,41.9999987182618
292,108,51663,2,0,L|316:156,1,41.9999987182618
376,88,51993,2,0,P|392:124|368:176,1,83.9999974365235
292,172,52487,6,0,P|224:200|212:212,1,62.9999980773926
112,312,52817,2,0,L|132:216,1,77.0000023498536
220,52,53144,2,0,L|200:152,1,90.9999958343508
236,320,53474,2,0,L|256:216,1,105.000004005432
364,20,53804,2,0,L|336:144,1,119.000002269745
164,252,54135,5,0,0:0:0:0:
280,76,54300,1,0,0:0:0:0:
372,268,54465,1,0,0:0:0:0:
184,132,54630,1,0,0:0:0:0:
432,120,54795,1,0,0:0:0:0:
300,312,54960,1,0,0:0:0:0:
300,64,55124,1,0,0:0:0:0:
180,296,55289,1,0,0:0:0:0:
436,272,55454,1,0,0:0:0:0:
392,36,55619,5,0,0:0:0:0:
357,83,55701,1,0,0:0:0:0:
322,131,55784,1,0,0:0:0:0:
307,187,55866,1,0,0:0:0:0:
349,222,55949,1,0,0:0:0:0:
402,200,56031,1,0,0:0:0:0:
395,145,56113,1,0,0:0:0:0:
355,102,56196,1,0,0:0:0:0:
308,66,56278,1,0,0:0:0:0:
262,29,56361,1,0,0:0:0:0:
244,83,56443,6,2,B|240:175|240:175|212:160,1,122.5
213,160,57100,2,0,B|185:132|185:132|184:204,1,105
96,320,57760,5,0,0:0:0:0:
104,152,57925,1,0,0:0:0:0:
96,320,58089,1,0,0:0:0:0:
208,96,58254,1,0,0:0:0:0:
96,320,58419,1,0,0:0:0:0:
320,72,58584,1,0,0:0:0:0:
96,320,58749,1,0,0:0:0:0:
436,76,58914,1,0,0:0:0:0:
80,180,59080,5,8,0:0:0:0:
424,152,59245,1,0,0:0:0:0:
288,40,59410,1,8,0:0:0:0:
340,340,59575,1,0,0:0:0:0:
460,228,59740,1,8,0:0:0:0:
120,320,59905,1,0,0:0:0:0:
60,188,60070,5,0,0:0:0:0:
80,148,60152,1,0,0:0:0:0:
124,136,60234,1,0,0:0:0:0:
172,144,60317,1,0,0:0:0:0:
216,172,60399,1,0,0:0:0:0:
268,192,60482,1,0,0:0:0:0:
320,180,60564,1,0,0:0:0:0:
372,152,60646,1,0,0:0:0:0:
408,104,60729,1,0,0:0:0:0:
344,36,60894,5,0,0:0:0:0:
484,200,61059,1,0,0:0:0:0:
176,48,61223,1,0,0:0:0:0:
392,308,61388,1,0,0:0:0:0:
184,140,61553,2,0,P|248:108|240:216,1,210.000008010865
380,64,62048,1,0,0:0:0:0:
260,209,62212,1,0,0:0:0:0:
164,56,62377,5,0,0:0:0:0:
164,56,62542,2,0,P|136:128|136:168,1,90.9999958343508
124,332,62872,1,0,0:0:0:0:
124,332,62954,1,0,0:0:0:0:
124,332,63034,2,0,P|176:324|220:292,1,90.9999958343508
360,160,63366,1,0,0:0:0:0:
112,224,63531,1,0,0:0:0:0:
184,48,63694,6,0,P|196:108|224:144,1,90.9999958343508
323,260,64023,1,0,0:0:0:0:
323,260,64188,2,0,B|283:228|283:228|279:188|279:188|223:172|203:112,1,181.999991668702
428,252,64685,1,0,0:0:0:0:
192,44,64850,1,0,0:0:0:0:
432,72,65015,6,0,P|400:104|356:124,1,90.9999958343508
192,44,65344,1,0,0:0:0:0:
336,208,65509,1,0,0:0:0:0:
116,148,65674,1,0,0:0:0:0:
116,148,65756,1,0,0:0:0:0:
116,148,65839,1,0,0:0:0:0:
348,60,66004,6,0,P|304:112|300:160,1,90.9999958343508
332,320,66331,2,0,P|376:268|380:220,1,90.9999958343508
348,60,66663,1,0,0:0:0:0:
104,168,66828,1,0,0:0:0:0:
332,320,66993,1,0,0:0:0:0:
172,72,67155,1,0,0:0:0:0:
376,144,67322,1,0,0:0:0:0:
376,144,67405,1,0,0:0:0:0:
376,144,67487,1,0,0:0:0:0:
244,240,67652,6,2,B|220:84|220:84|272:132,1,210
284,140,67982,2,2,P|328:112|268:120,1,140
260,328,68311,5,8,0:0:0:0:
180,212,68476,1,0,0:0:0:0:
260,328,68641,1,8,0:0:0:0:
344,160,68806,1,0,0:0:0:0:
260,328,68971,1,8,0:0:0:0:
84,64,69135,1,0,0:0:0:0:
260,328,69300,1,8,0:0:0:0:
412,28,69465,1,0,0:0:0:0:
160,72,69630,5,8,0:0:0:0:
352,72,69793,1,8,0:0:0:0:
116,148,69960,1,8,0:0:0:0:
396,148,70122,1,8,0:0:0:0:
64,228,70289,1,8,0:0:0:0:
448,228,70452,1,8,0:0:0:0:
376,40,70617,6,0,L|336:76,1,52.5000020027161
260,136,70784,2,0,L|220:172,1,52.5000020027161
152,256,70947,2,0,P|200:284|272:272,1,105.000004005432
432,220,71278,2,0,P|388:184|312:164,1,105.000004005432
140,128,71608,1,0,0:0:0:0:
140,128,71690,1,0,0:0:0:0:
140,128,71773,1,0,0:0:0:0:
336,60,71938,6,0,P|264:100|224:140,1,105.000004005432
247,114,72185,1,0,0:0:0:0:
247,114,72267,1,0,0:0:0:0:
176,324,72430,2,0,P|248:284|288:244,1,105.000004005432
412,100,72762,1,0,0:0:0:0:
212,44,72925,2,0,P|176:104|164:152,1,105.000004005432
264,240,73256,1,0,0:0:0:0:
92,268,73419,1,0,0:0:0:0:
68,68,73586,5,0,0:0:0:0:
188,312,73751,1,0,0:0:0:0:
368,72,73916,1,0,0:0:0:0:
176,64,74080,1,0,0:0:0:0:
324,308,74245,1,0,0:0:0:0:
48,200,74410,1,0,0:0:0:0:
304,56,74575,1,0,0:0:0:0:
204,336,74740,1,0,0:0:0:0:
204,336,74820,1,0,0:0:0:0:
204,336,74905,1,0,0:0:0:0:
340,292,75070,6,0,P|264:252|240:208,1,105.000004005432
176,44,75397,2,0,P|252:84|276:128,1,105.000004005432
360,244,75729,1,0,0:0:0:0:
168,188,75894,1,0,0:0:0:0:
332,60,76056,1,0,0:0:0:0:
68,228,76221,5,0,0:0:0:0:
84,184,76304,1,0,0:0:0:0:
112,144,76386,1,0,0:0:0:0:
156,124,76469,1,0,0:0:0:0:
204,124,76551,1,0,0:0:0:0:
244,148,76633,1,0,0:0:0:0:
268,188,76716,1,0,0:0:0:0:
268,236,76798,1,0,0:0:0:0:
220,192,76881,5,0,0:0:0:0:
228,128,76963,1,0,0:0:0:0:
260,72,77045,1,0,0:0:0:0:
316,40,77128,1,0,0:0:0:0:
380,36,77210,1,0,0:0:0:0:
432,72,77293,1,0,0:0:0:0:
468,120,77375,1,0,0:0:0:0:
476,184,77458,1,0,0:0:0:0:
456,244,77540,1,0,0:0:0:0:
256,192,77872,5,4,0:0:0:0:
256,72,78201,5,4,0:0:0:0:
256,304,78531,5,4,0:0:0:0:
364,180,78861,6,0,P|300:140|256:140,1,90.9999958343508
148,204,79188,2,0,P|212:244|256:244,1,90.9999958343508
400,232,79520,1,0,0:0:0:0:
284,92,79685,1,0,0:0:0:0:
225,245,79848,1,0,0:0:0:0:
112,116,80013,1,0,0:0:0:0:
169,313,80177,6,0,P|216:249|241:237,1,90.9999958343508
480,116,80509,1,0,0:0:0:0:
344,304,80674,1,0,0:0:0:0:
384,36,80839,2,0,P|332:92|284:116,1,90.9999958343508
144,152,81168,2,0,P|188:208|224:224,1,90.9999958343508
320,360,81498,5,8,0:0:0:0:
440,64,81663,1,0,0:0:0:0:
440,64,81828,1,0,0:0:0:0:
496,256,81993,5,8,0:0:0:0:
184,40,82157,1,0,0:0:0:0:
184,40,82322,1,0,0:0:0:0:
364,20,82487,5,8,0:0:0:0:
112,320,82652,1,0,0:0:0:0:
112,320,82817,1,0,0:0:0:0:
292,340,82982,5,8,0:0:0:0:
44,144,83146,1,0,0:0:0:0:
448,68,83311,1,0,0:0:0:0:
352,224,83476,2,0,P|312:160|284:136,1,90.9999958343508
156,40,83806,5,0,0:0:0:0:
155,94,83888,1,0,0:0:0:0:
154,149,83971,1,0,0:0:0:0:
153,203,84053,1,0,0:0:0:0:
152,258,84135,1,0,0:0:0:0:
332,288,84300,6,0,P|292:264|264:216,1,90.9999958343508
244,52,84630,2,0,P|280:64|312:120,1,90.9999958343508
332,288,84960,1,0,0:0:0:0:
152,152,85124,1,0,0:0:0:0:
408,100,85289,1,0,0:0:0:0:
248,228,85454,6,0,P|320:200|344:176,1,90.9999958343508
408,28,85782,2,0,P|336:56|312:80,1,90.9999958343508
248,228,86113,1,0,0:0:0:0:
440,140,86278,1,0,0:0:0:0:
320,24,86441,2,0,P|252:72|232:108,1,90.9999958343508
156,292,86773,5,8,0:0:0:0:
376,72,86938,1,0,0:0:0:0:
416,192,87267,5,8,0:0:0:0:
96,192,87432,1,0,0:0:0:0:
256,40,87762,5,8,0:0:0:0:
256,348,87927,1,0,0:0:0:0:
368,208,88089,2,0,B|324:168|272:136|272:136|276:192,1,136.499993751526
276,216,88419,2,0,P|224:192|212:152,1,90.9999958343508
200,228,88749,1,0,0:0:0:0:
200,228,88914,2,0,P|328:196|204:192,1,377.999988464356,2|0,0:0|0:0,0:0:0:0:
