osu file format v14

[General]
AudioFilename: audio.mp3
AudioLeadIn: 0
PreviewTime: 56443
Countdown: 1
SampleSet: None
StackLeniency: 0.7
Mode: 0
LetterboxInBreaks: 0
WidescreenStoryboard: 1

[Editor]
DistanceSpacing: 1.1
BeatDivisor: 2
GridSize: 4
TimelineZoom: 2.6

[Metadata]
Title:Overdrive
TitleUnicode:Overdrive
Artist:Harada Hitomi
ArtistUnicode:原田ひとみ
Creator:G Sabelette
Version:Normal
Source:ヴァルキリードライブ マーメイド
Tags:Valkyrie Drive Mermaid Anime TVSize Yuri
BeatmapID:1389679
BeatmapSetID:432859

[Difficulty]
HPDrainRate:3.5
CircleSize:3
OverallDifficulty:4.5
ApproachRate:5
SliderMultiplier:1
SliderTickRate:1

[Events]
//Background and Video events
0,0,"overdrive.jpg",0,0
//Break Periods
//Storyboard Layer 0 (Background)
//Storyboard Layer 1 (Fail)
//Storyboard Layer 2 (Pass)
//Storyboard Layer 3 (Foreground)
//Storyboard Sound Samples

[TimingPoints]
70,329.67032967033,4,2,0,100,1,0
70,-200,4,2,0,50,0,0
1059,-153.846153846154,4,2,0,65,0,0
2377,-125,4,2,0,80,0,0
3531,-100,4,2,0,100,0,0
5015,-100,4,2,0,80,0,0
16059,-90.9090909090909,4,1,0,100,0,0
26113,-76.9230769230769,4,3,0,100,0,1
36333,-90.9090909090909,4,1,0,100,0,0
47212,-200,4,2,0,100,0,0
52487,-83.3333333333333,4,3,0,100,0,0
56443,-200,4,3,0,100,0,0
57762,-76.9230769230769,4,3,0,100,0,1
62377,-83.3333333333333,4,3,0,100,0,1
67652,-66.6666666666667,4,3,0,100,0,1
68311,-76.9230769230769,4,3,0,100,0,1
77872,-90.9090909090909,4,1,0,100,0,0

[HitObjects]
360,68,70,6,0,L|376:124,2,50
308,80,1059,6,0,L|336:140,3,64.9999970245363
256,120,2377,6,0,L|312:184,3,80
280,228,3531,6,0,L|264:296,2,50
244,188,4026,6,0,L|180:204,2,50
296,156,4520,5,0,0:0:0:0:
296,156,4685,2,0,L|332:80,1,50
368,148,5015,6,0,P|356:216|324:240,1,100
260,236,5674,2,0,P|248:180|280:136,1,100
272,64,6333,2,0,P|220:104|172:112,1,100
108,108,6993,2,0,P|112:160|164:192,1,100
140,268,7652,6,0,L|252:300,1,100
308,256,8311,2,0,P|332:184|328:160,1,100
248,156,8971,2,0,P|292:80|308:72,1,100
344,164,9630,6,0,P|308:132|252:104,1,100
144,136,10289,1,4,0:0:0:0:
192,200,10619,2,0,P|248:228|292:228,1,100
364,212,11278,2,0,P|308:152|284:144,1,100
228,96,11938,6,0,P|188:156|156:172,1,100
96,132,12597,2,0,P|92:212|120:236,1,100
180,220,13256,2,0,P|260:212|288:188,1,100
240,128,13916,1,0,0:0:0:0:
352,120,14245,6,0,P|452:180|416:244,1,200
380,188,15564,2,0,P|340:232|284:248,1,100,4|0,0:0|0:0,0:0:0:0:
224,240,16059,6,0,P|216:160|236:116,1,110.000003356934
332,52,16718,2,0,P|344:120|324:152,1,110.000003356934
392,240,17212,1,0,0:0:0:0:
392,240,17377,2,0,P|308:296|280:300,1,110.000003356934
192,272,18037,6,0,B|160:216|132:192|132:192|136:192|168:120|168:120|216:140,1,220.000006713867
268,168,18861,2,0,L|320:200,1,55.0000016784668
380,228,19190,2,0,P|408:172|296:88,1,220.000006713867
200,64,20179,6,0,P|160:140|168:180,1,110.000003356934
204,264,20839,2,0,P|248:240|320:232,1,110.000003356934,4|0,0:0|0:0,0:0:0:0:
372,236,21333,1,0,0:0:0:0:
460,188,21663,2,0,P|420:152|364:124,1,110.000003356934
264,112,22652,6,0,P|204:136|200:144,1,55.0000016784668
224,204,22982,2,0,P|268:196|296:176,1,55.0000016784668
256,192,23476,12,0,24465,0:0:0:0:
208,136,24795,6,2,B|268:136|344:104|344:104|324:152|324:152|360:144|356:168|340:184|396:192|396:192|360:224|344:240,1,330.000010070801
272,316,26113,6,0,P|216:296|176:220,1,129.999994049073
176,148,26773,2,0,P|232:168|280:228,1,129.999994049073
392,156,27432,6,0,P|356:92|296:80,1,129.999994049073
240,124,27927,1,0,0:0:0:0:
240,124,28091,2,0,P|284:176|292:180,1,64.9999970245363
348,216,28421,6,0,P|280:260|224:256,1,129.999994049073,0|2,0:0|0:0,0:0:0:0:
156,252,28916,2,0,L|84:248,1,64.9999970245363
96,172,29245,6,0,L|108:104,2,64.9999970245363
184,168,29740,5,8,0:0:0:0:
184,168,29905,2,0,L|264:124,1,64.9999970245363
320,136,30234,6,0,L|356:208,2,64.9999970245363
312,120,30729,1,0,0:0:0:0:
276,48,31059,6,0,P|208:104|220:168,1,129.999994049073
228,232,31718,2,0,P|288:176|288:124,1,129.999994049073
380,88,32377,6,0,P|380:176|364:220,1,129.999994049073
312,288,33037,2,0,P|220:296|176:268,1,129.999994049073
156,184,33696,5,0,0:0:0:0:
156,184,33861,2,0,L|216:160,1,64.9999970245363
280,128,34190,6,0,L|240:56,2,64.9999970245363
344,144,34685,2,0,L|424:144,2,64.9999970245363
288,192,35179,2,0,L|260:252,2,64.9999970245363
352,208,35674,6,0,P|368:300|228:328,1,259.999988098145
188,212,36663,5,0,0:0:0:0:
188,212,36828,2,0,P|208:140|256:96,1,110.000003356934
372,68,37487,1,0,0:0:0:0:
420,188,37817,6,0,P|336:236|296:232,1,110.000003356934
272,228,38311,1,0,0:0:0:0:
272,64,38641,5,0,0:0:0:0:
272,64,38806,2,0,L|248:120,1,55.0000016784668
236,168,39135,2,0,P|256:236|336:296,1,165.000005035401
380,304,39795,2,0,P|408:256|408:240,1,55.0000016784668
416,148,40289,6,0,B|448:84|448:84|376:48|376:48|376:48|304:72|264:64,1,220.000006713867
208,84,41278,2,0,P|172:148|180:192,1,110.000003356934
244,268,41938,2,0,P|284:208|292:160,1,110.000003356934,4|0,0:0|0:0,0:0:0:0:
340,72,42597,5,0,0:0:0:0:
340,72,42762,2,0,L|412:68,2,55.0000016784668
304,128,43256,6,0,P|312:208|276:260,1,110.000003356934
204,324,43916,2,0,P|208:232|224:208,1,110.000003356934
256,136,44575,1,0,0:0:0:0:
340,212,44905,2,0,P|388:124|296:48,1,220.000006713867
184,56,45894,6,0,B|136:100|136:100|192:120|192:120|160:156|144:200|236:308,1,330.000010070801
340,288,47212,6,0,P|344:240|312:172,1,125
252,120,48366,1,0,0:0:0:0:
252,120,48696,2,0,P|184:112|148:128,1,100
172,200,49685,6,0,P|208:256|256:268,1,100
320,256,50674,2,0,P|344:204|348:132,1,125
300,52,51828,2,0,P|244:44|204:68,1,100
108,108,52817,6,0,L|100:240,1,119.999996337891
188,304,53476,2,0,L|196:168,1,119.999996337891
284,104,54135,2,0,L|276:236,1,119.999996337891
356,304,54795,2,0,L|368:168,1,119.999996337891
272,120,55454,6,0,L|216:68,2,59.9999981689454
320,160,55949,2,0,L|376:208,2,59.9999981689454
256,176,56443,6,2,P|224:200|180:196,1,75
124,148,57102,2,2,P|164:124|196:120,1,75
284,112,57762,6,8,P|360:100|376:112,1,64.9999970245363
408,160,58091,2,8,P|340:180|324:176,1,64.9999970245363
256,180,58421,2,8,P|192:176|160:196,1,64.9999970245363
136,248,58751,2,8,P|208:252|216:244,1,64.9999970245363
288,248,59080,5,8,0:0:0:0:
288,248,59245,2,0,L|320:328,2,64.9999970245363,0|8|0,0:0|0:0|0:0,0:0:0:0:
252,164,59740,1,0,0:0:0:0:
232,76,59905,2,0,P|320:56|376:128,1,129.999994049073
368,164,60399,6,0,B|332:156|332:156|348:200|348:200|256:184|112:232,1,324.999985122681
104,140,61388,1,0,0:0:0:0:
156,64,61553,2,0,P|260:40|416:72,1,259.999988098145
396,160,62377,6,0,L|340:196,1,59.9999981689454
236,244,62872,2,0,P|184:192|196:84,1,179.999994506836
272,76,63531,2,0,P|296:132|332:264,1,179.999994506836
264,300,64190,6,0,B|180:280|128:284|128:284|164:224,1,179.999994506836
180,196,64850,1,0,0:0:0:0:
236,88,65179,6,0,P|324:80|400:132,1,179.999994506836
416,184,65839,1,0,0:0:0:0:
384,232,66004,6,0,P|296:284|268:276,1,119.999996337891
224,280,66498,2,0,L|152:268,2,59.9999981689454
264,236,66993,2,0,P|304:180|312:120,1,119.999996337891
172,80,67652,6,8,B|156:120|156:120|212:144|212:144|188:192|232:264,1,225.000008583069,2|8,0:0|0:0,0:0:0:0:
300,280,68311,6,8,P|356:256|364:244,1,64.9999970245363
300,200,68641,2,8,P|364:172|384:180,1,64.9999970245363
432,168,68971,2,8,P|460:128|464:96,1,64.9999970245363
400,68,69300,2,8,P|344:64|316:72,1,64.9999970245363
264,72,69630,5,8,0:0:0:0:
264,72,69795,2,0,P|164:124|144:152,1,129.999994049073,0|8,0:0|0:0,0:0:0:0:
100,172,70289,2,0,L|24:144,2,64.9999970245363
156,208,70784,5,0,0:0:0:0:
156,208,70949,2,0,P|216:252|300:240,1,129.999994049073
328,228,71443,2,0,L|372:160,1,64.9999970245363
312,84,71938,5,0,0:0:0:0:
312,84,72102,2,0,P|240:132|136:120,1,194.999991073609
128,184,72762,2,0,B|132:232|132:232|180:196|180:196|184:264|288:280,1,194.999991073609
256,192,73586,12,0,75399,0:0:0:0:
208,192,75729,6,0,P|164:128|144:128,2,64.9999970245363
224,256,76223,5,0,0:0:0:0:
224,256,76388,2,0,L|288:292,1,64.9999970245363
344,304,76718,2,0,P|392:260|396:236,1,64.9999970245363
404,200,77048,2,0,P|392:128|368:112,1,64.9999970245363
352,92,77377,2,0,P|296:60|248:68,1,64.9999970245363
200,152,77872,5,4,0:0:0:0:
272,236,78201,5,4,0:0:0:0:
304,124,78531,5,4,0:0:0:0:
196,100,78861,6,0,P|184:200|192:228,1,110.000003356934
256,292,79520,2,0,P|264:168|256:144,1,110.000003356934
268,72,80179,6,0,P|360:64|392:84,1,110.000003356934
456,144,80839,2,0,P|376:160|344:148,1,110.000003356934
240,104,81498,6,0,L|268:52,2,55.0000016784668
260,164,81993,5,8,0:0:0:0:
260,164,82157,2,0,L|336:180,1,55.0000016784668
368,156,82487,5,8,0:0:0:0:
368,156,82652,2,0,L|336:88,1,55.0000016784668
324,56,82982,6,8,L|344:-12,2,55.0000016784668
312,108,83476,6,8,L|288:184,1,55.0000016784668
280,212,83806,1,0,0:0:0:0:
244,316,84135,6,0,P|160:320|108:296,1,110.000003356934
56,236,84795,2,0,P|124:228|184:240,1,110.000003356934
272,248,85454,6,0,P|252:184|264:140,1,110.000003356934
352,80,86113,2,0,P|352:184|344:200,1,110.000003356934
248,228,86773,6,8,L|184:252,1,55.0000016784668
264,160,87267,6,8,L|220:128,1,55.0000016784668
164,180,87762,6,8,L|104:172,1,55.0000016784668
100,228,88091,6,0,B|184:276|188:344|188:344|236:304|316:344|316:344|332:268|420:216,1,440.000013427735,2|0,0:0|0:0,0:0:0:0:
