osu file format v14

[General]
AudioFilename: audio.mp3
AudioLeadIn: 0
PreviewTime: 56443
Countdown: 1
SampleSet: None
StackLeniency: 0.7
Mode: 0
LetterboxInBreaks: 0
WidescreenStoryboard: 1

[Editor]
DistanceSpacing: 1.6
BeatDivisor: 4
GridSize: 4
TimelineZoom: 2.6

[Metadata]
Title:Overdrive
TitleUnicode:Overdrive
Artist:Harada Hitomi
ArtistUnicode:原田ひとみ
Creator:G Sabelette
Version:Insane
Source:ヴァルキリードライブ マーメイド
Tags:Valkyrie Drive Mermaid Anime TVSize Yuri
BeatmapID:1389678
BeatmapSetID:432859

[Difficulty]
HPDrainRate:6.5
CircleSize:4
OverallDifficulty:8
ApproachRate:9
SliderMultiplier:1.4
SliderTickRate:1

[Events]
//Background and Video events
0,0,"overdrive.jpg",0,0
//Break Periods
//Storyboard Layer 0 (Background)
//Storyboard Layer 1 (Fail)
//Storyboard Layer 2 (Pass)
//Storyboard Layer 3 (Foreground)
//Storyboard Sound Samples

[TimingPoints]
70,329.67032967033,4,2,0,100,1,0
70,-200,4,2,0,50,0,0
1059,-153.846153846154,4,2,0,65,0,0
2377,-125,4,2,0,80,0,0
3531,-100,4,2,0,100,0,0
5015,-100,4,2,0,80,0,0
16059,-76.9230769230769,4,1,0,100,0,0
26113,-66.6666666666667,4,3,0,100,0,1
36333,-66.6666666666667,4,1,0,100,0,0
47212,-166.666666666667,4,2,0,100,0,0
52487,-125,4,3,0,100,0,0
52817,-111.111111111111,4,3,0,100,0,0
53146,-100,4,3,0,100,0,0
53476,-90.9090909090909,4,3,0,100,0,0
53806,-83.3333333333333,4,3,0,100,0,0
56443,-200,4,3,0,100,0,0
57762,-66.6666666666667,4,3,0,100,0,1
62377,-76.9230769230769,4,3,0,100,0,1
67652,-55.5555555555556,4,3,0,100,0,1
68311,-66.6666666666667,4,3,0,100,0,1
77872,-76.9230769230769,4,1,0,100,0,0

[HitObjects]
180,212,71,6,0,L|188:172,3,35
248,188,729,2,0,L|296:200,1,35
332,232,1060,6,0,L|360:176,5,45.4999979171754
420,228,2048,2,0,L|372:264,1,45.4999979171754
324,300,2378,6,0,L|384:324,6,56
216,260,3532,5,0,0:0:0:0:
216,260,3697,2,0,P|204:216|184:176,1,70
288,220,4027,1,0,0:0:0:0:
288,220,4191,2,0,P|300:172|316:148,1,70
212,148,4521,1,0,0:0:0:0:
212,148,4686,2,0,P|200:112|180:84,1,70
181,85,4933,1,0,0:0:0:0:
181,85,5016,1,0,0:0:0:0:
280,84,5180,6,0,P|312:112|324:152,1,70
408,108,5510,2,0,P|388:168|360:196,1,70
472,196,5840,2,0,P|436:232|396:248,1,70
328,252,6169,2,0,P|304:216|260:188,1,70
192,204,6499,2,0,P|212:164|240:140,1,70
316,120,6829,6,0,P|272:92|228:72,1,70
164,84,7158,2,0,P|144:124|136:160,1,70
148,240,7488,2,0,P|208:200|284:220,1,140
360,236,7983,2,0,P|396:200|388:160,1,70
344,112,8312,2,0,P|308:84|256:80,1,70
196,92,8642,1,0,0:0:0:0:
228,176,8807,2,0,B|292:104|248:248,1,140
340,244,9301,6,0,P|368:220|372:180,1,70
312,120,9631,2,0,P|268:136|240:144,1,70
172,88,9961,2,0,P|152:128|168:176,1,70
154,152,10208,1,0,0:0:0:0:
154,152,10290,1,4,0:0:0:0:
232,200,10455,2,0,P|276:168|316:168,1,70
304,256,10785,6,0,P|356:236|368:200,1,70
372,136,11114,2,0,P|364:88|336:76,1,70
260,52,11444,2,0,P|208:96|180:100,1,70
124,60,11774,2,0,P|88:96|80:128,1,70
92,192,12103,1,0,0:0:0:0:
124,276,12268,2,0,P|172:272|204:280,1,70
284,296,12598,2,0,B|272:240|240:224|240:224|276:196|284:160,1,140
320,108,13092,2,0,P|384:120|400:144,1,70
444,192,13422,6,0,P|408:232|392:272,1,70
332,304,13752,2,0,P|280:328|248:320,1,70
192,280,14081,1,0,0:0:0:0:
120,224,14246,2,0,B|40:156|40:156|152:164|164:96|164:96|212:96,1,280
280,96,15071,2,0,P|324:132|340:160,1,70
356,228,15400,1,0,0:0:0:0:
356,228,15483,1,0,0:0:0:0:
356,228,15565,2,4,P|304:252|272:244,1,70
204,184,15895,5,0,0:0:0:0:
344,148,16060,2,0,P|312:96|264:80,1,90.9999958343508
144,48,16389,1,0,0:0:0:0:
248,152,16554,1,0,0:0:0:0:
128,232,16719,2,0,P|208:208|244:212,1,90.9999958343508
356,240,17049,1,0,0:0:0:0:
224,296,17213,1,0,0:0:0:0:
304,176,17378,6,0,P|276:132|236:120,1,90.9999958343508
96,104,17708,2,0,P|168:160|192:160,1,90.9999958343508
308,180,18038,1,0,0:0:0:0:
168,212,18202,1,0,0:0:0:0:
300,272,18367,2,0,P|256:236|236:184,1,90.9999958343508
212,64,18697,2,0,P|280:96|324:92,1,90.9999958343508
164,164,19027,1,0,0:0:0:0:
294,96,19191,1,0,0:0:0:0:
440,112,19356,6,0,P|384:148|368:176,1,90.9999958343508
512,216,19686,2,0,P|448:220|424:240,1,90.9999958343508
284,252,20016,2,0,P|256:196|216:168,1,90.9999958343508
368,240,20345,1,0,0:0:0:0:
408,100,20510,1,0,0:0:0:0:
264,124,20675,5,0,0:0:0:0:
264,124,20757,1,0,0:0:0:0:
264,124,20840,2,4,P|200:144|168:160,1,90.9999958343508
96,272,21169,2,0,P|176:256|200:236,1,90.9999958343508
320,200,21499,1,0,0:0:0:0:
178,154,21664,1,0,0:0:0:0:
92,36,21829,6,0,P|100:92|116:128,1,90.9999958343508
216,228,22158,1,0,0:0:0:0:
244,84,22323,1,0,0:0:0:0:
384,52,22488,2,0,P|380:120|344:168,1,90.9999958343508
256,232,22818,1,0,0:0:0:0:
216,84,22983,1,0,0:0:0:0:
256,192,23147,5,0,0:0:0:0:
256,192,23230,1,0,0:0:0:0:
256,192,23312,1,0,0:0:0:0:
256,192,23394,1,0,0:0:0:0:
256,192,23476,1,0,0:0:0:0:
256,192,23641,12,0,24795,0:0:0:0:
204,240,24796,6,2,P|148:184|276:104,1,272.999987503052
267,97,25455,2,2,B|220:152|220:152|268:176|296:212|296:212|276:264,1,181.999991668702
440,224,26113,5,0,0:0:0:0:
425,190,26195,1,0,0:0:0:0:
404,159,26277,1,0,0:0:0:0:
379,133,26360,1,0,0:0:0:0:
350,110,26442,1,0,0:0:0:0:
240,44,26609,6,0,P|192:92|176:132,1,105.000004005432
176,272,26939,1,0,0:0:0:0:
284,172,27103,1,0,0:0:0:0:
408,92,27268,2,0,P|420:168|392:216,1,105.000004005432
364,332,27598,1,0,0:0:0:0:
244,244,27763,1,0,0:0:0:0:
392,240,27928,5,0,0:0:0:0:
260,300,28092,1,0,0:0:0:0:
140,216,28257,2,0,P|168:156|216:132,1,105.000004005432
199,136,28587,1,0,0:0:0:0:
336,80,28752,6,8,L|384:184,1,105.000004005432
416,248,29081,1,0,0:0:0:0:
268,96,29246,6,8,L|312:224,1,105.000004005432
328,272,29576,1,0,0:0:0:0:
196,112,29741,6,8,L|212:232,1,105.000004005432
220,296,30071,1,0,0:0:0:0:
120,192,30235,5,8,0:0:0:0:
256,92,30400,1,0,0:0:0:0:
296,256,30565,1,0,0:0:0:0:
360,100,30730,6,8,P|304:164|272:176,1,105.000004005432
160,220,31060,1,0,0:0:0:0:
192,88,31224,6,0,P|212:152|244:192,1,105.000004005432
348,260,31554,1,0,0:0:0:0:
348,260,31636,1,0,0:0:0:0:
348,260,31719,2,0,P|400:204|396:156,1,105.000004005432
344,52,32049,6,0,P|276:72|236:100,1,105.000004005432
244,228,32378,1,0,0:0:0:0:
336,128,32543,1,0,0:0:0:0:
352,264,32708,2,0,P|304:184|272:156,1,105.000004005432
160,184,33038,1,0,0:0:0:0:
256,280,33202,1,0,0:0:0:0:
120,280,33367,6,0,P|216:252|244:220,1,105.000004005432
316,156,33697,2,0,P|256:160|216:180,1,105.000004005432
212,44,34027,1,0,0:0:0:0:
344,80,34191,2,0,P|300:128|260:148,1,105.000004005432
128,164,34521,1,0,0:0:0:0:
248,228,34686,2,0,P|304:252|372:244,1,105.000004005432
248,156,35016,5,0,0:0:0:0:
264,20,35180,2,0,P|352:88|376:80,1,105.000004005432
452,20,35510,2,0,P|420:76|432:120,1,105.000004005432
292,112,35840,1,0,0:0:0:0:
428,140,36005,2,0,L|388:256,1,105.000004005432
256,240,36334,6,0,L|212:196,3,52.5000020027161
218,202,36664,2,0,P|216:144|244:100,1,105.000004005432
344,20,36994,1,0,0:0:0:0:
300,148,37158,2,0,P|264:96|216:76,1,105.000004005432
227,78,37488,1,0,0:0:0:0:
164,188,37653,6,0,P|228:208|280:200,1,105.000004005432
288,80,37983,1,0,0:0:0:0:
412,72,38147,1,0,0:0:0:0:
412,72,38312,2,0,P|388:128|344:160,1,105.000004005432
356,158,38807,6,0,P|288:222|272:226,1,105.000004005432
156,236,39136,1,0,0:0:0:0:
252,156,39301,1,0,0:0:0:0:
124,156,39466,2,0,P|212:208|248:208,1,105.000004005432
344,212,39796,6,0,P|328:152|304:108,1,105.000004005432
240,220,40125,1,0,0:0:0:0:
344,148,40290,2,0,P|356:72|228:56,1,210.000008010865
247,37,40950,2,0,P|204:84|176:136,1,105.000004005432
308,136,41279,1,0,0:0:0:0:
196,196,41444,1,0,0:0:0:0:
320,216,41609,2,0,P|260:160|220:144,1,105.000004005432
240,150,41856,1,0,0:0:0:0:
240,150,41939,1,4,0:0:0:0:
328,60,42103,6,0,P|384:108|392:148,1,105.000004005432
264,140,42433,2,0,P|288:196|340:224,1,105.000004005432
448,228,42763,1,0,0:0:0:0:
328,268,42928,1,0,0:0:0:0:
348,144,43092,2,0,P|288:208|248:216,1,105.000004005432
264,88,43422,1,0,0:0:0:0:
156,28,43587,6,0,P|192:104|212:120,1,105.000004005432
332,108,43917,2,0,P|308:168|280:200,1,105.000004005432
168,144,44246,1,0,0:0:0:0:
92,44,44411,2,0,P|88:120|104:156,1,105.000004005432
98,145,44906,6,0,P|144:216|168:232,1,105.000004005432
168,100,45235,1,0,0:0:0:0:
256,192,45400,1,0,0:0:0:0:
248,68,45565,2,0,P|312:112|328:156,1,105.000004005432
388,244,45895,6,0,B|324:284|272:204|272:204|224:272|224:272|200:228|116:212,1,315.000012016297
200,104,46554,2,0,B|292:136|292:136|216:184|216:184|288:228|248:328,1,315.000012016297
388,304,47213,6,0,L|364:252,1,41.9999987182618
360,244,47543,1,0,0:0:0:0:
324,164,48038,2,0,L|292:84,1,83.9999974365235
192,96,48697,2,0,L|172:152,1,41.9999987182618
276,148,49191,5,0,0:0:0:0:
276,148,49356,2,0,L|292:200,1,41.9999987182618
292,204,49686,1,0,0:0:0:0:
400,132,50016,6,0,L|348:104,1,41.9999987182618
363,112,50345,1,0,0:0:0:0:
272,72,50675,1,0,0:0:0:0:
272,72,50840,2,0,L|236:104,1,41.9999987182618
336,132,51334,6,0,L|376:164,1,41.9999987182618
284,184,51664,2,0,L|324:220,1,41.9999987182618
240,240,51994,2,0,B|236:268|236:268|284:264|300:292,1,83.9999974365235
392,224,52488,6,0,P|392:168|380:152,1,56
336,76,52818,2,0,L|256:68,1,62.9999980773926
176,128,53147,2,0,L|260:136,1,70
328,208,53477,2,0,L|248:200,1,77.0000023498536
164,260,53807,2,0,L|252:268,1,83.9999974365235
204,140,54136,5,0,0:0:0:0:
324,76,54301,1,0,0:0:0:0:
320,212,54466,1,0,0:0:0:0:
256,92,54631,1,0,0:0:0:0:
376,152,54796,2,0,P|316:152|272:160,1,83.9999974365235
136,220,55125,1,0,0:0:0:0:
232,80,55290,1,0,0:0:0:0:
304,232,55455,1,0,0:0:0:0:
340,84,55620,5,0,0:0:0:0:
355,111,55702,1,0,0:0:0:0:
363,141,55784,1,0,0:0:0:0:
362,173,55867,1,0,0:0:0:0:
353,203,55949,1,0,0:0:0:0:
337,230,56032,1,0,0:0:0:0:
314,251,56114,1,0,0:0:0:0:
286,266,56196,1,0,0:0:0:0:
256,273,56279,1,0,0:0:0:0:
224,276,56361,1,0,0:0:0:0:
192,276,56444,6,2,P|144:220|152:204,1,105
151,205,57103,2,2,B|207:197|207:197|183:249,1,105
248,84,57763,5,8,0:0:0:0:
392,172,57928,1,0,0:0:0:0:
244,244,58092,1,0,0:0:0:0:
332,100,58257,6,8,P|264:156|232:168,1,105.000004005432
84,200,58587,1,0,0:0:0:0:
188,68,58752,5,8,0:0:0:0:
320,172,58917,1,0,0:0:0:0:
164,232,59081,1,0,0:0:0:0:
268,100,59246,6,8,P|232:164|236:204,1,105.000004005432
376,288,59576,1,0,0:0:0:0:
388,120,59741,5,8,0:0:0:0:
292,260,59906,1,0,0:0:0:0:
164,92,60071,1,0,0:0:0:0:
162,123,60153,1,0,0:0:0:0:
166,154,60235,1,0,0:0:0:0:
177,183,60318,1,0,0:0:0:0:
188,212,60400,2,0,P|224:264|264:292,1,105.000004005432
424,312,60730,6,0,P|368:264|332:240,1,105.000004005432
452,120,61060,1,0,0:0:0:0:
296,180,61224,1,0,0:0:0:0:
336,16,61389,5,0,0:0:0:0:
196,112,61554,2,0,P|264:100|316:112,1,105.000004005432
460,152,61884,5,0,0:0:0:0:
304,220,62049,1,0,0:0:0:0:
344,56,62213,1,0,0:0:0:0:
392,192,62378,6,0,P|328:144|292:132,1,90.9999958343508
184,92,62708,1,0,0:0:0:0:
320,140,62873,6,0,P|252:160|228:192,1,90.9999958343508
132,272,63202,1,0,0:0:0:0:
239,173,63367,6,0,P|224:236|248:284,1,90.9999958343508
368,316,63697,1,0,0:0:0:0:
364,172,63862,1,0,0:0:0:0:
256,76,64027,5,0,0:0:0:0:
256,76,64191,2,0,P|216:120|216:176,1,90.9999958343508
240,292,64521,1,0,0:0:0:0:
312,164,64686,1,0,0:0:0:0:
400,280,64851,1,0,0:0:0:0:
264,224,65016,6,0,P|196:204|144:216,1,90.9999958343508
40,152,65345,2,0,P|112:120|156:136,1,90.9999958343508
264,100,65675,1,0,0:0:0:0:
176,205,65840,1,0,0:0:0:0:
312,264,66005,1,0,0:0:0:0:
372,132,66169,2,0,P|312:172|268:184,1,90.9999958343508
188,52,66499,5,0,0:0:0:0:
294,178,66664,1,0,0:0:0:0:
140,232,66829,1,0,0:0:0:0:
252,112,66994,2,0,P|224:192|240:232,1,90.9999958343508
384,232,67323,2,0,P|408:176|400:136,1,90.9999958343508
224,194,67653,6,2,P|164:168|232:184,1,188.999994232178
234,163,67983,2,2,P|288:128|268:184,1,125.999996154785
220,288,68312,5,8,0:0:0:0:
380,240,68477,1,0,0:0:0:0:
248,120,68642,1,0,0:0:0:0:
312,300,68807,5,8,0:0:0:0:
168,164,68972,1,0,0:0:0:0:
372,116,69136,1,0,0:0:0:0:
204,244,69301,6,8,P|276:200|312:192,1,105.000004005432
500,136,69631,1,0,0:0:0:0:
400,320,69796,6,8,P|408:228|384:184,1,105.000004005432
320,24,70125,1,0,0:0:0:0:
404,218,70290,6,0,P|364:176|316:160,1,105.000004005432
132,136,70620,1,0,0:0:0:0:
156,172,70702,1,0,0:0:0:0:
184,204,70785,1,0,0:0:0:0:
220,228,70867,1,0,0:0:0:0:
260,244,70950,1,0,0:0:0:0:
340,180,71114,6,0,P|312:116|260:92,1,105.000004005432
120,60,71444,2,0,P|168:136|208:148,1,105.000004005432
340,180,71774,1,0,0:0:0:0:
176,140,71939,1,0,0:0:0:0:
284,268,72103,2,0,P|252:180|264:152,1,105.000004005432
316,16,72433,2,0,P|352:92|356:144,1,105.000004005432
188,92,72763,5,0,0:0:0:0:
332,180,72928,1,0,0:0:0:0:
264,28,73092,2,0,P|252:152|256:160,1,105.000004005432
252,296,73422,1,0,0:0:0:0:
332,180,73587,1,0,0:0:0:0:
156,112,73752,5,0,0:0:0:0:
296,240,73917,1,0,0:0:0:0:
308,52,74081,1,0,0:0:0:0:
188,224,74246,1,0,0:0:0:0:
388,164,74411,1,0,0:0:0:0:
216,44,74576,1,0,0:0:0:0:
320,228,74741,2,0,P|264:188|184:200,1,105.000004005432
380,152,75071,2,0,P|352:96|360:52,1,105.000004005432
184,128,75400,5,0,0:0:0:0:
288,284,75565,1,0,0:0:0:0:
124,188,75730,2,0,P|180:208|232:200,1,105.000004005432
356,56,76060,5,0,0:0:0:0:
357,71,76142,1,0,0:0:0:0:
359,87,76224,1,0,0:0:0:0:
360,103,76307,1,0,0:0:0:0:
362,118,76389,1,0,0:0:0:0:
363,134,76472,1,0,0:0:0:0:
365,150,76554,1,0,0:0:0:0:
366,165,76636,1,0,0:0:0:0:
368,181,76719,1,0,0:0:0:0:
369,197,76801,1,0,0:0:0:0:
371,212,76884,1,0,0:0:0:0:
372,228,76966,2,0,L|380:300,7,52.5000020027161
200,240,77873,5,8,0:0:0:0:
248,120,78202,5,8,0:0:0:0:
324,224,78532,5,8,0:0:0:0:
336,96,78862,6,0,P|316:160|264:200,1,90.9999958343508
180,220,79191,2,0,P|200:160|244:128,1,90.9999958343508
268,260,79521,1,0,0:0:0:0:
264,132,79686,1,0,0:0:0:0:
160,188,79851,6,0,P|248:188|280:176,1,90.9999958343508
360,120,80180,1,0,0:0:0:0:
240,76,80345,1,0,0:0:0:0:
240,204,80510,1,0,0:0:0:0:
304,96,80675,1,0,0:0:0:0:
324,220,80840,2,0,P|276:152|240:144,1,90.9999958343508
156,100,81169,2,0,P|160:172|196:212,1,90.9999958343508
224,300,81499,5,8,0:0:0:0:
208,212,81664,2,0,L|188:88,1,90.9999958343508
316,296,81994,5,8,0:0:0:0:
300,188,82158,2,0,L|280:88,1,90.9999958343508
400,288,82488,5,8,0:0:0:0:
384,160,82653,2,0,L|364:60,1,90.9999958343508
232,88,82983,5,8,0:0:0:0:
192,228,83147,1,0,0:0:0:0:
336,208,83312,1,0,0:0:0:0:
164,144,83477,5,8,0:0:0:0:
344,112,83642,1,0,0:0:0:0:
276,280,83807,1,0,0:0:0:0:
284,136,83972,5,0,0:0:0:0:
284,136,84054,1,0,0:0:0:0:
284,136,84135,2,0,P|236:96|192:92,1,90.9999958343508
116,84,84466,6,0,P|128:152|152:176,1,90.9999958343508
252,236,84796,2,0,P|232:164|196:128,1,90.9999958343508
148,256,85125,1,0,0:0:0:0:
222,151,85290,2,0,P|268:116|332:124,1,90.9999958343508
404,164,85620,1,0,0:0:0:0:
304,244,85785,5,0,0:0:0:0:
424,288,85950,2,0,P|376:224|344:208,1,90.9999958343508
244,256,86279,2,0,P|280:180|308:164,1,90.9999958343508
392,108,86609,1,0,0:0:0:0:
360,232,86774,5,8,0:0:0:0:
240,148,86939,1,0,0:0:0:0:
184,264,87268,5,8,0:0:0:0:
308,188,87433,1,0,0:0:0:0:
196,72,87763,5,8,0:0:0:0:
248,208,87928,1,0,0:0:0:0:
356,192,88092,2,0,P|340:128|216:128,1,181.999991668702
156,184,88587,1,0,0:0:0:0:
204,284,88752,2,0,B|264:252|228:152|228:152|264:164|272:168|324:168|368:160|368:160|344:116|392:60,1,363.999983337403,2|0,0:0|0:0,0:0:0:0:
