osu file format v14

[General]
AudioFilename: audio.mp3
AudioLeadIn: 0
PreviewTime: 56443
Countdown: 1
SampleSet: None
StackLeniency: 0.7
Mode: 0
LetterboxInBreaks: 0
WidescreenStoryboard: 1

[Editor]
DistanceSpacing: 0.9
BeatDivisor: 4
GridSize: 4
TimelineZoom: 2.6

[Metadata]
Title:Overdrive
TitleUnicode:Overdrive
Artist:Harada Hitomi
ArtistUnicode:原田ひとみ
Creator:G Sabelette
Version:Hard
Source:ヴァルキリードライブ マーメイド
Tags:Valkyrie Drive Mermaid Anime TVSize Yuri
BeatmapID:1389677
BeatmapSetID:432859

[Difficulty]
HPDrainRate:6
CircleSize:3.8
OverallDifficulty:7
ApproachRate:8
SliderMultiplier:1.4
SliderTickRate:1

[Events]
//Background and Video events
0,0,"overdrive.jpg",0,0
//Break Periods
//Storyboard Layer 0 (Background)
//Storyboard Layer 1 (Fail)
//Storyboard Layer 2 (Pass)
//Storyboard Layer 3 (Foreground)
//Storyboard Sound Samples

[TimingPoints]
70,329.67032967033,4,2,0,100,1,0
70,-200,4,2,0,50,0,0
1059,-153.846153846154,4,2,0,65,0,0
2377,-125,4,2,0,80,0,0
3531,-100,4,2,0,100,0,0
5015,-100,4,2,0,80,0,0
16059,-76.9230769230769,4,1,0,100,0,0
26113,-76.9230769230769,4,3,0,100,0,1
36333,-83.3333333333333,4,1,0,100,0,0
47212,-166.666666666667,4,2,0,100,0,0
52487,-83.3333333333333,4,3,0,100,0,0
56443,-200,4,3,0,100,0,0
57762,-76.9230769230769,4,3,0,100,0,1
62377,-83.3333333333333,4,3,0,100,0,1
67652,-62.5,4,3,0,100,0,1
68311,-76.9230769230769,4,3,0,100,0,1
77872,-76.9230769230769,4,1,0,100,0,0

[HitObjects]
200,152,70,6,0,L|184:112,3,35
264,180,729,2,0,L|312:196,1,35
368,208,1059,6,0,L|404:168,5,45.4999979171754
376,108,2048,2,0,L|312:112,1,45.4999979171754
288,168,2377,6,0,L|264:220,6,56
224,240,3531,5,0,0:0:0:0:
224,240,3696,2,0,L|200:172,1,70
268,156,4026,1,0,0:0:0:0:
268,156,4190,2,0,L|292:228,1,70
360,204,4520,1,0,0:0:0:0:
360,204,4685,2,0,L|328:128,1,70
264,124,5015,6,0,P|200:120|168:132,1,70
168,188,5344,2,0,P|224:212|244:204,1,70
300,216,5674,2,0,P|344:184|352:152,1,70
356,100,6004,2,0,P|416:116|424:144,1,70
440,184,6333,2,0,P|412:248|392:252,1,70
352,220,6663,6,0,P|324:184|280:184,1,70
272,244,6993,2,0,P|224:280|200:280,1,70
204,204,7322,1,0,0:0:0:0:
200,128,7487,2,0,P|212:64|280:56,1,140
280,132,7982,2,0,P|344:140|356:164,1,70
312,212,8311,6,0,P|260:216|224:200,1,70
184,160,8641,2,0,B|204:80|204:80|264:140|276:104|276:104|328:120,1,210
384,144,9300,2,0,P|368:188|332:216,1,70
284,164,9630,2,0,P|264:208|280:244,1,70
328,276,9960,1,0,0:0:0:0:
252,292,10124,1,0,0:0:0:0:
204,232,10289,2,0,L|196:192,2,35,4|0|0,0:0|0:0|0:0,0:0:0:0:
280,216,10619,6,0,P|252:168|248:144,1,70
276,80,10949,2,0,P|304:108|320:148,1,70
344,208,11278,2,0,P|284:228|264:224,1,70
252,156,11608,2,0,P|224:184|212:224,1,70
204,288,11938,6,0,P|172:236|176:208,1,70
248,232,12267,2,0,P|280:184|288:160,1,70
208,164,12597,2,0,B|212:120|196:84|196:84|244:88|288:64|288:64|324:120|384:88,1,280
336,152,13421,6,0,P|288:184|264:192,1,70
196,212,13751,2,0,P|184:252|200:292,1,70
240,348,14080,1,0,0:0:0:0:
300,264,14245,2,0,P|260:216|340:100,1,210
352,176,14905,2,0,B|272:184|248:140|248:140|236:188|160:200,1,210
212,268,15564,6,0,L|220:308,2,35
292,296,15894,1,0,0:0:0:0:
360,328,16059,2,0,P|400:304|416:252,1,90.9999958343508
432,192,16388,2,0,P|400:144|360:128,1,90.9999958343508
260,120,16718,2,0,P|204:160|196:184,1,90.9999958343508
196,288,17048,2,0,P|244:252|268:220,1,90.9999958343508
328,140,17377,6,0,P|360:196|360:232,1,90.9999958343508
272,284,17707,2,0,P|220:240|184:236,1,90.9999958343508
132,144,18037,2,0,P|192:164|232:160,1,90.9999958343508
316,216,18366,2,0,P|308:160|284:120,1,90.9999958343508
252,28,18696,2,0,P|312:68|344:72,1,90.9999958343508
380,168,19026,1,0,0:0:0:0:
276,132,19190,2,0,P|228:112|172:212,1,181.999991668702
256,272,19685,6,0,P|284:220|316:204,1,90.9999958343508
416,236,20015,2,0,P|392:172|372:152,1,90.9999958343508
304,120,20344,2,0,P|240:136|200:160,1,90.9999958343508
160,232,20674,2,0,P|216:232|256:248,1,90.9999958343508,0|4,0:0|0:0,0:0:0:0:
264,324,21004,6,0,P|328:312|368:288,1,90.9999958343508
428,248,21333,2,0,P|408:172|400:160,1,90.9999958343508
352,228,21663,2,0,P|336:184|304:140,1,90.9999958343508
360,76,21993,2,0,P|320:56|272:60,1,90.9999958343508
220,112,22322,2,0,P|224:168|252:200,1,90.9999958343508
348,160,22652,6,0,P|332:240|320:248,1,90.9999958343508
272,148,22982,1,0,0:0:0:0:
252,228,23146,1,0,0:0:0:0:
288,300,23311,2,0,L|336:284,2,45.4999979171754
256,192,23641,12,0,24630,0:0:0:0:
200,212,24795,6,2,P|184:136|220:216,1,272.999987503052
225,215,25454,2,2,B|304:88|304:88|296:216,1,272.999987503052
296,211,26113,6,0,P|228:184|192:160,1,90.9999958343508
136,84,26443,2,0,P|188:88|240:112,1,90.9999958343508
336,140,26773,2,0,P|264:160|232:188,1,90.9999958343508
136,188,27102,2,0,P|184:216|232:228,1,90.9999958343508
336,248,27432,1,0,0:0:0:0:
240,180,27597,1,0,0:0:0:0:
368,180,27762,6,0,P|292:160|272:136,1,90.9999958343508
196,72,28091,2,0,P|204:152|228:184,1,90.9999958343508
276,256,28421,2,0,P|312:204|324:160,1,90.9999958343508
340,40,28751,5,8,0:0:0:0:
340,40,28916,2,0,L|260:104,1,90.9999958343508
388,132,29245,5,8,0:0:0:0:
388,132,29410,2,0,L|308:192,1,90.9999958343508
428,228,29740,5,8,0:0:0:0:
428,228,29905,2,0,L|348:288,1,90.9999958343508
224,296,30234,6,8,L|276:204,1,90.9999958343508
268,216,30564,1,0,0:0:0:0:
400,184,30729,5,8,0:0:0:0:
304,100,30894,1,0,0:0:0:0:
275,204,31059,1,0,0:0:0:0:
368,120,31223,6,0,L|332:164,2,45.4999979171754
244,96,31553,2,0,P|248:156|276:196,1,90.9999958343508
380,192,31883,2,0,P|300:232|280:236,1,90.9999958343508
184,248,32212,1,0,0:0:0:0:
192,128,32377,2,0,P|248:168|288:172,1,90.9999958343508
384,144,32707,2,0,P|340:212|336:248,1,90.9999958343508
472,224,33037,6,0,P|460:168|432:128,1,90.9999958343508
408,228,33366,1,0,0:0:0:0:
432,104,33531,1,0,0:0:0:0:
356,204,33696,2,0,P|316:144|292:120,1,90.9999958343508
176,80,34026,6,0,P|200:140|232:168,1,90.9999958343508
336,120,34355,2,0,P|304:168|256:204,1,90.9999958343508
152,180,34685,2,0,P|192:228|228:244,1,90.9999958343508
336,248,35015,1,0,0:0:0:0:
268,176,35179,1,0,0:0:0:0:
388,144,35344,6,0,P|324:200|292:212,1,90.9999958343508
296,104,35674,2,0,P|236:168|240:204,1,90.9999958343508
348,132,36004,1,0,0:0:0:0:
252,212,36168,1,0,0:0:0:0:
352,208,36333,6,0,L|280:184,4,41.9999987182618
380,120,36828,2,0,P|320:112|284:116,1,83.9999974365235
296,113,37157,1,0,0:0:0:0:
192,124,37322,5,0,0:0:0:0:
192,124,37487,2,0,P|244:232|292:248,1,167.999994873047
282,246,37982,1,0,0:0:0:0:
352,188,38146,2,0,L|268:144,1,83.9999974365235
184,140,38476,2,0,P|216:200|236:220,1,83.9999974365235
308,256,38806,6,0,P|376:244|396:228,1,83.9999974365235
328,164,39135,2,0,P|280:132|152:160,1,167.999994873047
116,216,39630,1,0,0:0:0:0:
208,208,39795,2,0,P|252:232|272:260,1,83.9999974365235
348,208,40124,1,0,0:0:0:0:
440,188,40289,2,0,P|376:96|244:120,1,251.999992309571
328,164,40949,6,0,P|272:196|240:200,1,83.9999974365235
180,144,41278,2,0,P|176:212|188:232,1,83.9999974365235
264,264,41608,1,0,0:0:0:0:
344,220,41773,2,0,L|328:172,2,41.9999987182618,0|0|4,0:0|0:0|0:0,0:0:0:0:
424,172,42102,6,0,P|368:108|360:108,1,83.9999974365235
292,76,42432,2,0,P|244:112|232:156,1,83.9999974365235
324,156,42762,2,0,P|280:192|248:196,1,83.9999974365235
164,180,43091,2,0,P|188:216|228:248,1,83.9999974365235
312,260,43421,2,0,P|356:240|376:204,1,83.9999974365235
336,128,43751,2,0,P|276:184|260:184,1,83.9999974365235
240,100,44080,1,0,0:0:0:0:
156,136,44245,6,0,P|176:224|392:276,2,335.999989746094
248,140,45729,1,0,0:0:0:0:
340,144,45894,2,0,B|300:192|252:196|252:196|304:252|304:252|216:260|148:296,1,335.999989746094
164,204,46718,1,0,0:0:0:0:
228,136,46883,2,0,P|280:108|324:108,1,83.9999974365235
360,176,47212,6,0,L|324:200,1,41.9999987182618
268,236,47542,2,0,P|256:200|288:112,1,125.999996154785
376,80,48366,1,0,0:0:0:0:
348,152,48696,2,0,L|328:196,1,41.9999987182618
260,268,49190,5,0,0:0:0:0:
260,268,49355,2,0,P|240:200|244:184,1,83.9999974365235
304,112,50015,2,0,L|320:168,1,41.9999987182618
328,200,50344,1,0,0:0:0:0:
236,236,50674,1,0,0:0:0:0:
236,236,50839,2,0,P|232:140|292:108,1,167.999994873047
368,168,51828,2,0,P|328:184|288:196,1,83.9999974365235
288,195,52487,6,0,L|256:280,1,83.9999974365235
168,252,52817,2,0,L|200:160,1,83.9999974365235
220,84,53146,2,0,P|280:76|300:92,1,83.9999974365235
384,124,53476,2,0,P|328:156|300:160,1,83.9999974365235
216,172,53806,2,0,P|256:216|284:224,1,83.9999974365235
372,220,54135,2,0,P|316:280|296:280,1,83.9999974365235
232,300,54465,5,0,0:0:0:0:
168,232,54630,1,0,0:0:0:0:
260,216,54795,1,0,0:0:0:0:
192,152,54960,2,0,P|232:112|260:104,1,83.9999974365235
260,216,55289,2,0,P|308:176|336:168,1,83.9999974365235
348,260,55619,5,0,0:0:0:0:
348,260,55701,1,0,0:0:0:0:
348,260,55784,2,0,L|328:220,6,41.9999987182618
272,288,56443,6,2,P|216:280|204:208,1,140
204,207,57762,6,8,P|252:172|288:164,1,90.9999958343508
400,156,58091,1,0,0:0:0:0:
344,236,58256,6,8,P|276:284|248:284,1,90.9999958343508
156,268,58586,1,0,0:0:0:0:
164,164,58751,6,8,P|224:132|260:132,1,90.9999958343508
212,224,59080,1,0,0:0:0:0:
312,196,59245,5,8,0:0:0:0:
280,296,59410,1,0,0:0:0:0:
256,200,59575,1,0,0:0:0:0:
156,180,59740,6,0,P|208:128|232:124,1,90.9999958343508
324,128,60070,1,0,0:0:0:0:
324,128,60152,1,0,0:0:0:0:
324,128,60234,2,0,P|340:176|328:216,1,90.9999958343508
228,216,60564,1,0,0:0:0:0:
248,116,60729,2,0,P|300:80|336:80,1,90.9999958343508
420,108,61059,6,0,P|376:144|340:156,1,90.9999958343508
248,176,61388,1,0,0:0:0:0:
292,84,61553,1,0,0:0:0:0:
292,84,61635,1,0,0:0:0:0:
292,84,61718,2,0,P|304:148|304:176,1,90.9999958343508
208,140,62048,2,0,P|224:216|244:240,1,90.9999958343508
312,272,62377,5,0,0:0:0:0:
388,220,62542,1,0,0:0:0:0:
308,172,62707,1,0,0:0:0:0:
308,172,62872,2,0,B|272:72|272:72|172:88,1,167.999994873047
152,176,63366,1,0,0:0:0:0:
152,176,63531,2,0,B|180:256|180:256|232:232|292:264,1,167.999994873047
372,256,64026,5,0,0:0:0:0:
372,256,64190,2,0,B|332:200|396:156|396:156|344:156|324:128,1,167.999994873047
304,44,64685,1,0,0:0:0:0:
276,148,64850,1,0,0:0:0:0:
204,64,65015,6,0,P|184:152|200:168,1,83.9999974365235
236,228,65344,1,0,0:0:0:0:
334,200,65509,2,0,P|302:156|262:148,1,83.9999974365235
172,184,65839,1,0,0:0:0:0:
224,280,66004,1,0,0:0:0:0:
332,272,66168,2,0,P|368:224|364:196,1,83.9999974365235
368,92,66498,5,0,0:0:0:0:
292,172,66663,1,0,0:0:0:0:
220,88,66828,1,0,0:0:0:0:
164,176,66993,2,0,P|176:236|192:260,1,83.9999974365235
292,292,67322,2,0,P|280:232|244:200,1,83.9999974365235
200,140,67652,6,2,B|176:40|176:40|248:72,1,168
276,100,67982,2,2,P|256:152|188:164,1,112,0|0,0:0|0:0,0:0:0:0:
224,260,68311,5,8,0:0:0:0:
268,172,68476,2,0,P|316:124|356:124,1,90.9999958343508
436,136,68806,6,8,P|388:196|364:208,1,90.9999958343508
304,260,69135,1,0,0:0:0:0:
224,200,69300,5,8,0:0:0:0:
224,200,69465,2,0,L|148:128,1,90.9999958343508
260,128,69795,5,8,0:0:0:0:
260,128,69960,2,0,L|216:40,1,90.9999958343508
316,64,70289,5,8,0:0:0:0:
396,124,70454,1,0,0:0:0:0:
304,164,70619,1,0,0:0:0:0:
304,164,70701,1,0,0:0:0:0:
304,164,70784,2,0,L|268:208,6,45.4999979171754
216,112,71443,5,0,0:0:0:0:
216,112,71608,2,0,P|176:176|192:216,1,90.9999958343508
276,168,71938,1,0,0:0:0:0:
300,76,72102,2,0,P|328:120|340:168,1,90.9999958343508
352,248,72432,1,0,0:0:0:0:
252,260,72597,6,0,P|180:232|200:124,1,181.999991668702
182,138,73091,1,0,0:0:0:0:
260,76,73256,1,0,0:0:0:0:
260,76,73421,2,0,B|320:104|364:112|364:112|300:156|316:192,1,181.999991668702
220,136,73916,6,0,P|208:180|228:228,1,90.9999958343508
315,163,74245,2,0,P|324:216|296:264,1,90.9999958343508
396,200,74575,1,0,0:0:0:0:
348,112,74740,1,0,0:0:0:0:
256,72,74905,2,0,P|172:96|156:124,1,90.9999958343508
112,176,75234,1,0,0:0:0:0:
112,176,75399,2,0,P|184:176|224:148,1,90.9999958343508
292,124,75729,5,0,0:0:0:0:
344,212,75894,1,0,0:0:0:0:
244,208,76059,1,0,0:0:0:0:
244,208,76141,1,0,0:0:0:0:
244,208,76223,2,0,L|172:208,7,45.4999979171754
184,192,76883,2,0,L|152:144,8,45.4999979171754
256,96,77872,5,8,0:0:0:0:
352,224,78201,5,8,0:0:0:0:
216,264,78531,5,8,0:0:0:0:
212,160,78861,6,0,P|296:128|316:136,1,90.9999958343508
392,172,79190,2,0,P|320:208|292:204,1,90.9999958343508
216,220,79520,1,0,0:0:0:0:
244,116,79685,2,0,P|272:168|264:208,1,90.9999958343508
200,284,80015,2,0,P|188:232|200:188,1,90.9999958343508
244,116,80344,1,0,0:0:0:0:
344,68,80509,6,0,P|380:136|368:172,1,90.9999958343508
312,232,80839,2,0,P|308:144|328:132,1,90.9999958343508
312,40,81168,1,0,0:0:0:0:
248,128,81333,1,0,0:0:0:0:
356,112,81498,5,8,0:0:0:0:
356,112,81663,2,0,L|272:184,1,90.9999958343508
396,184,81993,5,8,0:0:0:0:
396,184,82157,2,0,L|296:224,1,90.9999958343508
408,268,82487,5,8,0:0:0:0:
408,268,82652,2,0,L|300:260,1,90.9999958343508
216,304,82982,5,8,0:0:0:0:
216,304,83146,2,0,L|172:212,1,90.9999958343508
148,124,83476,5,8,0:0:0:0:
232,68,83641,1,0,0:0:0:0:
280,156,83806,1,0,0:0:0:0:
280,156,84135,6,0,P|240:212|216:224,1,90.9999958343508
120,220,84465,2,0,P|160:176|196:156,1,90.9999958343508
280,156,84795,1,0,0:0:0:0:
208,84,84960,1,0,0:0:0:0:
308,72,85124,6,0,P|356:96|376:128,1,90.9999958343508
388,228,85454,2,0,P|340:204|312:160,1,90.9999958343508
308,72,85784,1,0,0:0:0:0:
240,144,85949,1,0,0:0:0:0:
148,108,86113,2,0,P|156:168|184:192,1,90.9999958343508
276,184,86443,2,0,P|316:216|328:256,1,90.9999958343508
376,164,86773,5,8,0:0:0:0:
284,92,86938,1,0,0:0:0:0:
192,196,87267,5,8,0:0:0:0:
284,272,87432,1,0,0:0:0:0:
340,108,87762,5,8,0:0:0:0:
268,200,87927,1,0,0:0:0:0:
384,204,88091,6,0,P|320:152|280:144,1,90.9999958343508
313,149,88421,1,0,0:0:0:0:
224,104,88586,1,0,0:0:0:0:
204,204,88751,2,0,B|168:260|168:260|220:280|284:296|284:296|392:264|392:264|340:184,1,363.999983337403,2|0,0:0|0:0,0:0:0:0:
