osu file format v14

[General]
AudioFilename: audio.mp3
AudioLeadIn: 0
PreviewTime: 56443
Countdown: 1
SampleSet: None
StackLeniency: 0.7
Mode: 0
LetterboxInBreaks: 0
WidescreenStoryboard: 1

[Editor]
DistanceSpacing: 0.9
BeatDivisor: 2
GridSize: 4
TimelineZoom: 2.6

[Metadata]
Title:Overdrive
TitleUnicode:Overdrive
Artist:Harada Hitomi
ArtistUnicode:原田ひとみ
Creator:G Sabelette
Version:Easy
Source:ヴァルキリードライブ マーメイド
Tags:Valkyrie Drive Mermaid Anime TVSize Yuri
BeatmapID:1389676
BeatmapSetID:432859

[Difficulty]
HPDrainRate:2
CircleSize:3
OverallDifficulty:2
ApproachRate:3
SliderMultiplier:0.9
SliderTickRate:1

[Events]
//Background and Video events
0,0,"overdrive.jpg",0,0
//Break Periods
//Storyboard Layer 0 (Background)
//Storyboard Layer 1 (Fail)
//Storyboard Layer 2 (Pass)
//Storyboard Layer 3 (Foreground)
//Storyboard Sound Samples

[TimingPoints]
70,329.67032967033,4,2,0,100,1,0
70,-200,4,2,0,50,0,0
1059,-153.846153846154,4,2,0,65,0,0
2377,-125,4,2,0,80,0,0
3531,-100,4,2,0,100,0,0
5015,-100,4,2,0,80,0,0
16059,-100,4,1,0,100,0,0
26113,-90.9090909090909,4,3,0,100,0,1
36333,-100,4,1,0,100,0,0
47212,-142.857142857143,4,2,0,100,0,0
52487,-100,4,3,0,100,0,0
56443,-200,4,3,0,100,0,0
57762,-90.9090909090909,4,3,0,100,0,1
62377,-100,4,3,0,100,0,1
67652,-100,4,3,0,100,0,1
68311,-90.9090909090909,4,3,0,100,0,1
77872,-100,4,1,0,100,0,0

[HitObjects]
128,280,70,6,0,P|180:268|224:248,1,90
256,236,1059,6,0,L|276:328,2,87.749995983124
200,220,2377,6,0,L|108:288,2,108
256,176,3696,6,0,L|364:72,2,135
228,224,5015,6,0,B|264:304|264:304|392:300,1,180
408,280,6004,2,0,P|448:176|420:96,1,180
388,80,6993,6,0,B|304:88|256:56|256:56|228:96,1,180
216,144,7982,2,0,B|204:220|184:268|184:268|216:268|240:284,1,180
284,296,8971,6,0,B|352:312|380:320|380:320|364:252|424:232|424:232|344:188,1,270
320,184,10289,2,0,B|208:136|188:96|188:96|232:92,1,180,4|0,0:0|0:0,0:0:0:0:
260,88,11278,6,0,B|376:76|400:96|400:96|376:128,1,180
368,180,12267,2,0,B|360:228|380:276|380:276|320:260|284:284,1,180
244,276,13256,6,0,P|152:232|148:152,1,180
152,112,14245,6,0,P|216:56|304:68,1,180
328,212,15564,2,0,P|280:272|256:276,1,90
192,292,16223,6,0,B|132:300|132:300|196:176,1,180
240,132,17212,2,0,B|288:88|324:72|324:72|316:112,1,135
332,184,18037,2,0,B|372:220|360:280|360:280|328:264|272:272|272:272,1,180
208,256,19026,6,0,B|136:240|136:240|128:176|204:136,1,180
248,104,20015,1,0,0:0:0:0:
328,84,20344,5,0,0:0:0:0:
372,156,20674,2,0,P|352:252|272:280,1,180,8|0,0:0|0:0,0:0:0:0:
204,260,21663,5,0,0:0:0:0:
148,204,21993,2,0,P|148:156|168:104,1,90
200,44,22652,2,0,B|224:0|224:0|272:80,1,135
256,192,23476,12,0,25454,0:0:0:0:
164,100,26113,6,0,P|220:68|260:68,1,99.0000030212403
332,124,26773,2,0,P|280:168|152:204,1,198.000006042481
64,240,27762,2,0,P|108:292|156:292,1,99.0000030212403
224,276,28421,1,0,0:0:0:0:
280,208,28751,6,0,L|328:108,1,99.0000030212403,8|0,0:0|0:0,0:0:0:0:
380,52,29410,5,0,0:0:0:0:
428,128,29740,6,0,P|432:188|380:248,1,99.0000030212403,8|0,0:0|0:0,0:0:0:0:
360,292,30399,6,0,P|296:344|260:356,2,99.0000030212403,8|8|8,0:0|0:0|0:0,0:0:0:0:
300,228,31388,6,0,B|224:244|108:280|124:168,1,198.000006042481
116,116,32377,2,0,B|268:84|268:84|268:84|252:152,1,198.000006042481
268,216,33366,6,0,P|312:148|344:132,1,99.0000030212403
408,104,34026,6,0,L|416:-4,2,99.0000030212403
404,192,35015,1,0,0:0:0:0:
400,280,35344,2,0,P|348:296|280:272,1,99.0000030212403
216,284,36004,6,0,P|140:256|204:244,1,198.000006042481
272,232,36993,6,0,B|304:252|304:252|300:120,1,135
300,72,37817,1,0,0:0:0:0:
220,60,38146,2,0,L|208:112,1,45
188,224,38806,5,0,0:0:0:0:
224,296,39135,2,0,B|248:332|248:332|340:304|344:260,1,135
380,228,39960,5,0,0:0:0:0:
388,148,40289,2,0,B|372:100|364:72|364:72|228:100|200:156,1,270
184,236,41608,5,0,0:0:0:0:
240,296,41938,1,4,0:0:0:0:
320,288,42267,6,0,L|436:268,2,90
240,296,43256,2,0,P|188:316|132:308,2,90
228,216,44245,2,0,P|184:176|248:64,1,180
256,192,45234,12,0,46553,0:0:0:0:
176,224,47212,6,0,P|204:156|276:104,1,157.499995193482
328,104,48366,1,0,0:0:0:0:
364,136,48696,2,0,B|384:200|348:240|348:240|316:272,1,125.999996154785
296,288,49685,6,0,P|224:304|196:296,1,94.499997116089
156,276,50509,1,0,0:0:0:0:
120,232,50839,6,0,P|112:160|156:104,1,125.999996154785
180,80,51828,2,0,P|244:56|308:56,1,125.999996154785
376,76,52817,6,0,L|344:264,1,180
256,268,53806,2,0,L|284:72,1,180
204,44,54795,1,0,0:0:0:0:
180,132,55124,6,0,P|128:160|84:168,2,90
260,88,56113,1,0,0:0:0:0:
280,168,56443,6,2,B|316:140|376:152|376:152|340:180|340:180,1,135
304,264,57762,6,8,P|228:252|184:220,1,99.0000030212403
120,196,58421,1,8,0:0:0:0:
80,104,58751,5,8,0:0:0:0:
168,60,59080,2,8,P|212:104|228:152,1,99.0000030212403
240,236,59740,1,0,0:0:0:0:
312,172,60070,6,0,B|336:140|336:140|384:232|352:272|332:304|288:324|180:292,1,346.500010574341
128,216,61553,2,0,P|152:160|240:112,1,148.50000453186
312,100,62377,6,0,L|336:148,1,45
368,224,62872,2,0,P|300:272|256:280,1,90
212,244,63531,6,0,P|252:184|352:128,1,180
348,220,64520,1,0,0:0:0:0:
328,308,64850,2,0,B|280:328|280:328|276:276|276:276|208:272|172:224,1,225
116,156,66004,6,0,P|188:104|220:96,1,90
276,84,66663,1,0,0:0:0:0:
364,80,66993,2,0,B|376:136|368:236|368:236|328:236|312:224,1,180
208,224,67982,5,0,0:0:0:0:
212,124,68311,6,8,P|272:124|312:148,1,99.0000030212403
356,228,68971,2,8,P|268:224|240:196,1,99.0000030212403
168,188,69630,5,8,0:0:0:0:
116,272,69960,2,0,P|176:312|232:320,1,99.0000030212403
296,288,70619,2,0,P|380:320|412:360,2,99.0000030212403
200,256,71608,5,0,0:0:0:0:
152,164,71938,1,0,0:0:0:0:
204,80,72267,6,0,P|288:64|336:80,1,99.0000030212403
396,92,72927,2,0,P|392:164|368:192,1,99.0000030212403
288,228,73586,2,0,B|268:180|268:180|232:232|232:232|216:184|216:184|168:216|168:216|164:160|108:104|108:104|108:104|164:64|256:72|296:100,1,544.500016616822,2|0,0:0|0:0,0:0:0:0:
392,116,75729,5,0,0:0:0:0:
412,212,76059,2,0,P|456:260|500:280,2,99.0000030212403
336,212,77048,2,0,L|292:308,2,99.0000030212403
324,120,78861,6,0,L|368:32,2,90
292,204,79850,2,0,P|228:208|196:200,1,90
168,120,80509,2,0,L|136:24,2,90
196,204,81498,6,8,P|216:256|256:284,1,90,8|0,0:0|0:0,0:0:0:0:
320,320,82157,1,0,0:0:0:0:
384,256,82487,6,0,P|352:200|320:176,1,90,8|0,0:0|0:0,0:0:0:0:
264,128,83146,1,0,0:0:0:0:
176,120,83476,6,0,L|184:228,1,90,8|0,0:0|0:0,0:0:0:0:
272,228,84135,6,0,P|320:272|336:308,2,90
200,172,85124,2,0,P|174:127|196:76,1,90
268,64,85784,2,0,P|356:44|380:48,2,90
320,136,86773,6,8,L|360:184,1,45
260,148,87267,2,8,L|260:204,1,45
200,140,87762,2,8,L|156:184,1,45
104,260,88421,1,0,0:0:0:0:
168,296,88751,6,0,B|208:276|264:324|292:320|348:276|324:224|284:208,1,225,2|0,0:0|0:0,0:0:0:0:
