osu file format v14

[General]
AudioFilename: audio.mp3
AudioLeadIn: 0
PreviewTime: 62375
Countdown: 0
SampleSet: Soft
StackLeniency: 0.5
Mode: 0
LetterboxInBreaks: 0
WidescreenStoryboard: 1

[Editor]
DistanceSpacing: 0.3
BeatDivisor: 4
GridSize: 16
TimelineZoom: 3.699999

[Metadata]
Title:Overdrive
TitleUnicode:Overdrive
Artist:Harada Hitomi
ArtistUnicode:原田ひとみ
Creator:Fall
Version:frozz's Hard
Source:VALKYRIE DRIVE -MERMAID-
Tags:ヴァルキリードライヴ マーメイド op opening japanese anime DeRandom Otaku Ren frozz fzl_17 fixxis kowari ggf gottagof4st stack reform kujinn _tranquility rock
BeatmapID:2559903
BeatmapSetID:1065834

[Difficulty]
HPDrainRate:4.5
CircleSize:4
OverallDifficulty:6
ApproachRate:8
SliderMultiplier:1.4
SliderTickRate:1

[Events]
//Background and Video events
0,0,"cuteBackground.jpg",0,0
//Break Periods
//Storyboard Layer 0 (Background)
//Storyboard Layer 1 (Fail)
//Storyboard Layer 2 (Pass)
//Storyboard Layer 3 (Foreground)
//Storyboard Layer 4 (Overlay)
//Storyboard Sound Samples

[TimingPoints]
480,329.67032967033,4,2,1,50,1,0
11029,-111.111111111111,4,2,1,50,0,0
21578,-111.111111111111,4,2,1,50,0,0
30809,-125,4,2,1,60,0,0
32128,-90.9090909090909,4,2,1,80,0,1
32210,-90.9090909090909,4,2,1,80,0,1
42677,-100,4,2,1,60,0,0
61139,-90.9090909090909,4,2,1,65,0,0
62458,-133.333333333333,4,2,1,70,0,0
63776,-83.3333333333333,4,2,1,80,0,1
74243,-83.3333333333333,4,2,1,80,0,0
74326,-83.3333333333333,4,2,1,80,0,1
79600,-90.9090909090909,4,2,1,80,0,0
82238,-90.9090909090909,4,2,1,80,0,1
83556,-142.857142857143,4,2,1,50,0,0
84875,-100,4,2,1,60,0,1
84958,-100,4,2,1,60,0,0
95425,-90.9090909090909,4,2,1,60,0,1
95507,-90.9090909090909,4,2,1,60,0,0
100699,-90.9090909090909,4,2,1,60,0,1
100782,-90.9090909090909,4,2,1,60,0,0

[Colours]
Combo1 : 249,133,113
Combo2 : 211,150,202
Combo3 : 130,208,232
Combo4 : 192,192,192

[HitObjects]
34,48,11029,6,0,L|40:128,1,62.9999980773926,6|0,1:2|0:0,0:0:0:0:
6,182,11359,2,0,L|12:262,1,62.9999980773926,2|2,1:2|0:0,0:0:0:0:
60,312,11688,2,0,P|25:325|-19:317,2,62.9999980773926,2|2|2,1:2|0:0|1:2,0:0:0:0:
96,235,12183,1,2,0:0:0:0:
96,235,12348,6,0,L|175:242,1,62.9999980773926,2|2,1:2|0:0,0:0:0:0:
196,165,12677,2,0,L|133:160,1,62.9999980773926,2|2,1:2|0:0,0:0:0:0:
240,240,13007,1,2,1:2:0:0:
240,240,13172,2,0,L|302:246,1,62.9999980773926,2|0,0:0|1:2,0:0:0:0:
354,188,13501,1,2,0:0:0:0:
354,188,13666,6,0,P|337:247|361:317,1,125.999996154785,2|2,1:2|1:2,0:0:0:0:
433,247,14161,2,0,P|450:188|426:118,2,125.999996154785,2|2|2,0:0|0:0|0:0,0:0:0:0:
349,250,14985,6,0,L|355:170,1,62.9999980773926,0|0,1:2|0:0,0:0:0:0:
277,165,15315,2,0,L|271:245,1,62.9999980773926,0|0,1:2|0:0,0:0:0:0:
334,109,15644,2,0,P|261:85|207:121,1,125.999996154785,0|0,1:2|1:2,0:0:0:0:
195,204,16139,1,2,0:0:0:0:
277,165,16304,6,0,P|279:239|232:288,1,125.999996154785,6|2,1:2|1:2,0:0:0:0:
167,290,16798,1,2,0:0:0:0:
221,355,16963,2,0,P|254:364|300:337,2,62.9999980773926,2|2|2,1:2|0:0|1:2,0:0:0:0:
167,290,17458,1,2,0:0:0:0:
167,290,17622,6,0,L|159:208,1,62.9999980773926,2|2,1:2|0:0,0:0:0:0:
242,215,17952,2,0,L|250:297,1,62.9999980773926,2|2,1:2|0:0,0:0:0:0:
190,151,18282,1,2,1:2:0:0:
271,138,18447,1,2,0:0:0:0:
323,202,18611,2,0,L|331:284,1,62.9999980773926,2|0,1:2|0:0,0:0:0:0:
300,338,18941,6,0,P|361:308|430:338,2,125.999996154785,0|0|0,1:2|1:2|1:2,0:0:0:0:
143,366,19930,1,0,1:2:0:0:
300,338,20260,2,0,P|314:278|296:218,2,125.999996154785,2|0|2,1:2|1:2|1:2,0:0:0:0:
190,151,21249,1,8,1:2:0:0:
295,217,21578,6,0,P|354:237|429:224,1,125.999996154785,6|2,1:2|1:2,0:0:0:0:
506,165,22073,2,0,L|492:256,1,62.9999980773926,2|0,0:0|1:2,0:0:0:0:
451,98,22403,2,0,L|406:178,1,62.9999980773926,2|0,0:0|1:2,0:0:0:0:
422,16,22732,1,2,0:0:0:0:
422,16,22815,1,2,0:0:0:0:
422,16,22897,6,0,P|352:37|282:25,1,125.999996154785,2|2,1:2|1:2,0:0:0:0:
214,48,23392,2,2,L|209:6,2,31.4999990386963,2|2|2,0:0|0:0|1:2,0:0:0:0:
271,114,23721,1,2,0:0:0:0:
185,130,23886,2,0,P|154:112|134:78,1,62.9999980773926,2|2,1:3|0:0,0:0:0:0:
121,67,24133,1,2,0:0:0:0:
121,67,24216,6,0,L|110:152,1,62.9999980773926,0|0,1:2|0:0,0:0:0:0:
149,202,24545,2,0,L|138:287,1,62.9999980773926,0|2,1:2|0:0,0:0:0:0:
117,342,24875,1,2,1:2:0:0:
195,323,25040,1,2,0:0:0:0:
251,382,25205,2,0,P|269:354|271:317,1,62.9999980773926,2|2,1:2|0:0,0:0:0:0:
268,291,25452,1,2,0:0:0:0:
268,291,25534,6,0,L|353:293,1,62.9999980773926,0|0,1:2|0:0,0:0:0:0:
358,212,25864,2,0,L|273:210,1,62.9999980773926,0|0,1:2|0:0,0:0:0:0:
322,129,26194,2,0,L|385:131,1,62.9999980773926,0|0,1:2|0:0,0:0:0:0:
238,146,26523,1,0,1:2:0:0:
182,82,26688,1,2,0:0:0:0:
153,162,26853,6,0,P|165:240|144:307,1,125.999996154785,6|2,1:2|1:2,0:0:0:0:
97,375,27348,2,0,L|181:361,1,62.9999980773926,2|0,0:0|1:2,0:0:0:0:
231,320,27677,2,0,L|315:306,1,62.9999980773926,2|0,0:0|1:2,0:0:0:0:
371,343,28007,1,2,0:0:0:0:
365,265,28172,6,0,P|358:183|374:131,1,125.999996154785,0|0,1:2|1:2,0:0:0:0:
391,55,28666,1,2,0:0:0:0:
314,77,28831,1,2,1:2:0:0:
245,31,28996,1,2,0:0:0:0:
168,53,29161,1,10,1:2:0:0:
168,53,29243,1,8,0:0:0:0:
168,53,29326,2,8,L|122:44,2,31.4999990386963,8|8|8,0:0|0:0|1:2,0:0:0:0:
70,230,30809,6,0,B|111:191|170:208|170:208|202:267|268:261,1,224,2|2,0:0|0:0,0:0:0:0:
341,205,31633,1,0,1:2:0:0:
333,315,31798,1,8,0:0:0:0:
326,331,32128,6,0,P|276:348|225:335,1,77.0000023498536,6|0,1:2|0:0,0:0:0:0:
136,250,32458,2,0,P|174:249|209:264,1,77.0000023498536,8|0,0:0|0:0,0:0:0:0:
131,337,32787,1,0,1:2:0:0:
131,337,32952,1,0,1:2:0:0:
60,291,33117,2,0,P|56:223|77:187,1,77.0000023498536,8|0,0:0|0:0,0:0:0:0:
123,154,33447,6,0,B|81:143|68:104|68:104|44:144|-7:146,2,154.000004699707,0|8|0,1:2|0:0|1:2,0:0:0:0:
191,103,34271,1,0,1:2:0:0:
257,156,34436,1,8,0:0:0:0:
324,104,34600,1,0,0:0:0:0:
402,151,34765,5,2,1:2:0:0:
402,151,34930,2,0,P|458:131|487:97,1,77.0000023498536,2|8,1:2|0:0,0:0:0:0:
324,104,35260,5,2,1:2:0:0:
324,104,35425,2,0,P|313:162|328:204,1,77.0000023498536,2|0,0:0|1:2,0:0:0:0:
403,59,35754,5,10,0:0:0:0:
403,59,35919,2,0,P|357:20|313:12,1,77.0000023498536,2|0,1:2|0:0,0:0:0:0:
256,42,36249,5,2,1:2:0:0:
256,42,36414,2,0,P|219:52|181:47,1,77.0000023498536,10|0,0:0|0:0,0:0:0:0:
106,3,36743,5,0,1:2:0:0:
63,79,36908,1,0,1:2:0:0:
130,135,37073,2,8,L|124:189,3,38.5000011749268,10|8|8|8,0:0|0:0|0:0|0:0,0:0:0:0:
106,210,37403,6,0,P|93:270|108:314,1,77.0000023498536,6|0,1:2|0:0,0:0:0:0:
175,336,37732,2,0,P|188:276|173:232,1,77.0000023498536,8|0,0:0|0:0,0:0:0:0:
208,181,38062,1,0,1:2:0:0:
208,181,38227,1,0,1:2:0:0:
270,247,38392,2,0,P|330:260|374:245,1,77.0000023498536,8|0,0:0|0:0,0:0:0:0:
426,184,38721,6,0,B|420:223|420:223|425:260,1,77.0000023498536,0|0,1:2|0:0,0:0:0:0:
347,179,39051,2,0,B|353:140|353:140|347:102,1,77.0000023498536,8|0,0:0|0:0,0:0:0:0:
267,62,39381,2,0,B|261:101|261:101|266:138,1,77.0000023498536,0|0,1:2|1:2,0:0:0:0:
182,150,39710,1,8,0:0:0:0:
181,65,39875,1,0,0:0:0:0:
100,110,40040,6,0,P|91:155|104:206,1,77.0000023498536,6|0,1:2|1:2,0:0:0:0:
177,225,40370,2,0,P|186:180|173:129,1,77.0000023498536,8|0,0:0|1:2,0:0:0:0:
104,267,40699,2,0,P|95:312|108:363,1,77.0000023498536,0|0,1:2|1:2,0:0:0:0:
170,383,41029,1,8,0:0:0:0:
235,339,41194,1,0,1:2:0:0:
326,366,41359,6,0,L|249:356,1,77.0000023498536,8|0,0:0|1:2,0:0:0:0:
368,288,41688,2,0,L|265:275,1,77.0000023498536,8|0,0:0|1:2,0:0:0:0:
409,209,42018,2,0,L|306:196,1,77.0000023498536,8|0,0:0|1:2,0:0:0:0:
301,194,42265,1,0,1:2:0:0:
301,194,42348,2,8,L|233:185,3,38.5000011749268,8|8|10|8,0:0|0:0|0:0|0:0,0:0:0:0:
221,206,42677,6,0,P|213:175|224:113,1,70,6|0,1:2|0:0,0:0:0:0:
232,52,43007,1,10,0:0:0:0:
232,52,43172,2,0,P|201:60|139:49,1,70,2|0,0:0|0:0,0:0:0:0:
81,30,43501,1,2,1:2:0:0:
106,121,43666,1,8,0:0:0:0:
30,94,43831,6,0,P|24:136|52:183,1,70,2|0,1:2|0:0,0:0:0:0:
95,241,44161,1,2,1:2:0:0:
95,241,44326,2,0,P|53:235|6:263,2,70,10|0|0,0:0|0:0|1:2,0:0:0:0:
155,299,44820,1,2,1:2:0:0:
229,265,44985,1,10,0:0:0:0:
303,299,45150,1,2,0:0:0:0:
377,265,45315,6,0,P|389:214|385:171,1,70,2|0,1:2|0:0,0:0:0:0:
351,113,45644,1,10,0:0:0:0:
351,113,45809,2,0,P|403:115|444:104,1,70,2|0,0:0|0:0,0:0:0:0:
379,29,46139,1,2,1:2:0:0:
379,29,46304,2,0,P|326:26|285:37,1,70,10|0,0:0|1:2,0:0:0:0:
254,99,46633,5,2,0:0:0:0:
186,46,46798,1,0,1:2:0:0:
175,132,46963,2,0,L|166:201,1,70,10|0,0:0|0:0,0:0:0:0:
133,280,47293,5,0,1:2:0:0:
80,212,47458,1,0,1:2:0:0:
166,201,47623,2,0,L|235:192,1,70,10|8,0:0|0:0,0:0:0:0:
268,204,47870,1,8,0:0:0:0:
268,204,47952,6,0,B|346:197|319:258|413:241,2,140,4|10|2,1:2|0:0|1:2,0:0:0:0:
175,210,48776,1,2,1:2:0:0:
175,210,48941,2,0,P|189:169|183:118,1,70,10|2,0:0|1:2,0:0:0:0:
170,60,49271,5,2,0:0:0:0:
170,60,49436,2,0,P|212:66|261:51,1,70,2|10,1:2|0:0,0:0:0:0:
319,29,49765,1,2,0:0:0:0:
319,29,49930,2,0,P|361:22|410:37,1,70,2|2,1:2|1:2,0:0:0:0:
454,78,50260,2,0,P|468:41|462:-5,1,70,10|0,0:0|0:0,0:0:0:0:
376,109,50589,6,0,P|376:143|390:175,1,70,2|0,1:2|0:0,0:0:0:0:
451,242,50919,2,0,P|361:227|306:256,1,140,10|0,0:0|0:0,0:0:0:0:
284,329,51414,1,0,1:2:0:0:
234,254,51578,2,0,P|242:213|234:173,1,70,8|0,0:0|1:2,0:0:0:0:
158,141,51908,6,0,B|152:180|152:180|158:218,1,70,2|0,0:0|1:2,0:0:0:0:
179,59,52238,2,0,B|140:53|140:53|102:59,1,70,8|0,0:0|0:0,0:0:0:0:
261,80,52567,2,0,B|267:41|267:41|261:3,1,70,2|0,1:2|0:0,0:0:0:0:
240,162,52897,2,0,B|279:168|279:168|317:162,1,70,8|2,0:0|0:0,0:0:0:0:
348,152,53145,1,0,1:0:0:0:
348,152,53227,6,0,L|340:228,1,70,6|0,1:2|1:2,0:0:0:0:
411,259,53556,2,0,L|403:335,1,70,10|2,1:2|1:2,0:0:0:0:
245,261,54051,2,0,P|240:206|253:170,1,70,2|8,1:2|0:0,0:0:0:0:
272,120,54381,2,0,P|277:65|264:29,1,70,2|0,1:2|0:0,0:0:0:0:
219,0,54710,1,2,1:2:0:0:
219,0,54875,1,10,1:2:0:0:
70,30,55205,2,0,P|64:89|75:127,1,70,0|2,1:2|1:2,0:0:0:0:
93,174,55534,2,0,P|99:233|88:271,1,70,10|2,1:2|0:0,0:0:0:0:
69,317,55864,6,0,P|128:323|166:312,1,70,0|0,1:2|1:2,0:0:0:0:
213,295,56194,2,0,P|272:289|310:297,1,70,10|2,1:2|1:2,0:0:0:0:
418,358,56688,2,0,L|411:274,1,70,2|10,1:2|0:0,0:0:0:0:
494,291,57018,2,0,L|501:375,1,70,0|0,1:2|0:0,0:0:0:0:
455,218,57348,1,0,1:2:0:0:
455,218,57512,2,0,L|448:134,1,70,8|0,1:2|0:0,0:0:0:0:
469,64,57842,1,2,1:2:0:0:
385,94,58007,1,0,1:2:0:0:
312,44,58172,2,0,P|272:26|205:32,1,105,8|0,0:0|0:0,0:0:0:0:
187,51,58501,6,0,B|195:91|195:91|189:148,1,70,4|0,1:2|1:2,0:0:0:0:
108,162,58831,2,0,B|100:122|100:122|106:65,1,70,0|2,1:2|1:2,0:0:0:0:
187,197,59161,2,0,B|195:237|195:237|189:294,1,70,10|8,1:2|1:2,0:0:0:0:
171,350,59490,1,10,1:2:0:0:
257,316,59655,1,10,1:2:0:0:
307,384,59820,6,0,B|340:375|340:375|404:382,1,70,4|0,1:2|1:2,0:0:0:0:
438,294,60150,2,0,B|405:303|405:303|341:296,1,70,0|2,1:2|1:2,0:0:0:0:
322,226,60480,2,0,B|355:217|355:217|419:224,1,70,10|10,1:2|1:2,0:0:0:0:
438,294,60809,1,8,1:2:0:0:
479,212,60974,1,8,1:2:0:0:
431,138,61139,5,6,1:2:0:0:
390,220,61304,1,0,1:2:0:0:
390,220,61387,1,0,1:2:0:0:
390,220,61469,2,0,L|341:217,3,38.5000011749268,0|0|0|0,1:2|1:2|1:2|1:2,0:0:0:0:
322,199,61798,2,0,L|273:196,3,38.5000011749268,8|8|8|8,0:0|0:0|0:0|0:0,0:0:0:0:
254,178,62128,2,0,L|205:175,3,38.5000011749268,8|8|8|8,0:0|0:0|0:0|0:0,0:0:0:0:
186,157,62458,1,10,0:0:0:0:
61,49,63447,5,4,0:3:0:0:
46,56,63776,2,0,P|34:98|55:164,1,83.9999974365235,6|0,1:2|0:0,0:0:0:0:
104,188,64106,2,0,P|116:230|95:296,1,83.9999974365235,10|0,0:0|0:0,0:0:0:0:
72,359,64436,2,0,P|114:347|180:368,1,83.9999974365235,2|0,1:2|0:0,0:0:0:0:
239,371,64765,1,10,0:0:0:0:
239,371,64930,1,0,0:0:0:0:
315,325,65095,6,0,P|304:279|322:222,1,83.9999974365235,2|0,1:2|0:0,0:0:0:0:
402,239,65425,2,0,P|413:285|395:342,1,83.9999974365235,10|0,0:0|0:0,0:0:0:0:
343,170,65754,2,0,P|332:124|350:67,1,83.9999974365235,2|0,1:2|0:0,0:0:0:0:
430,84,66084,1,10,0:0:0:0:
430,84,66249,1,0,0:0:0:0:
391,5,66414,5,2,1:2:0:0:
391,5,66578,2,0,P|437:-6|494:12,1,83.9999974365235,2|8,0:0|0:0,0:0:0:0:
342,78,66908,5,2,0:0:0:0:
342,78,67073,2,0,P|309:43|296:-14,1,83.9999974365235,2|0,1:2|0:0,0:0:0:0:
430,84,67403,5,10,0:0:0:0:
430,84,67567,2,0,P|416:129|372:169,1,83.9999974365235,2|0,0:0|1:2,0:0:0:0:
308,162,67897,5,2,0:0:0:0:
308,162,68062,2,0,P|262:150|205:169,1,83.9999974365235,10|0,0:0|0:0,0:0:0:0:
153,214,68392,5,2,1:2:0:0:
81,171,68556,1,2,0:0:0:0:
24,233,68721,2,0,L|36:284,3,41.9999987182618,8|8|10|8,0:0|0:0|0:0|0:0,0:0:0:0:
27,323,69051,6,0,P|102:309|191:343,1,167.999994873047,6|10,1:2|0:0,0:0:0:0:
228,262,69545,2,0,P|305:291|387:278,1,167.999994873047,2|2,0:0|0:0,0:0:0:0:
447,351,70040,1,10,0:0:0:0:
480,263,70205,5,2,1:2:0:0:
480,263,70287,1,2,1:2:0:0:
480,263,70370,2,0,P|457:198|489:99,1,167.999994873047,2|10,1:2|0:0,0:0:0:0:
485,13,70864,2,0,P|420:36|321:4,1,167.999994873047,2|0,0:0|0:0,0:0:0:0:
259,70,71359,1,8,0:0:0:0:
166,33,71523,5,2,0:0:0:0:
166,33,71606,1,2,0:0:0:0:
166,33,71688,2,0,P|176:91|136:160,2,125.999996154785,2|2|2,1:2|0:0|0:0,0:0:0:0:
76,101,72348,2,0,P|66:157|88:218,1,83.9999974365235,0|0,1:2|0:0,0:0:0:0:
137,235,72677,2,0,P|147:291|125:352,1,83.9999974365235,10|2,0:0|0:0,0:0:0:0:
94,384,73007,5,8,0:0:0:0:
94,384,73172,1,0,1:2:0:0:
142,317,73337,1,8,0:0:0:0:
219,362,73501,1,0,1:2:0:0:
267,295,73666,2,0,P|323:286|378:309,1,83.9999974365235,10|0,0:0|1:2,0:0:0:0:
406,356,73996,2,8,L|446:347,3,41.9999987182618,10|8|8|8,0:0|0:0|0:0|0:0,0:0:0:0:
488,353,74326,6,0,P|477:281|491:250,1,83.9999974365235,6|0,1:2|0:0,0:0:0:0:
503,199,74655,2,0,P|514:127|500:96,1,83.9999974365235,10|0,0:0|0:0,0:0:0:0:
468,47,74985,2,0,P|396:36|365:50,1,83.9999974365235,2|0,1:2|0:0,0:0:0:0:
327,104,75315,1,10,0:0:0:0:
327,104,75480,1,0,0:0:0:0:
248,56,75644,6,0,P|236:111|254:162,1,83.9999974365235,2|0,1:2|0:0,0:0:0:0:
320,185,75974,2,0,P|332:130|314:79,1,83.9999974365235,10|0,0:0|0:0,0:0:0:0:
241,221,76304,2,0,P|229:276|247:327,1,83.9999974365235,2|0,1:2|0:0,0:0:0:0:
307,356,76633,1,10,0:0:0:0:
307,356,76798,1,0,0:0:0:0:
234,302,76963,6,0,P|189:273|74:313,1,167.999994873047,2|10,1:2|0:0,0:0:0:0:
16,352,77458,1,2,0:0:0:0:
16,352,77622,2,0,P|30:293|6:240,1,83.9999974365235,2|0,1:2|0:0,0:0:0:0:
77,203,77952,1,10,0:0:0:0:
77,203,78117,6,0,P|48:158|88:43,1,167.999994873047,2|0,0:0|0:0,0:0:0:0:
180,54,78611,1,10,0:0:0:0:
180,54,78776,2,0,P|209:99|169:214,1,167.999994873047,2|0,0:0|0:0,0:0:0:0:
135,270,79271,1,10,0:0:0:0:
182,364,79436,5,10,0:0:0:0:
182,364,79518,1,10,0:0:0:0:
182,364,79600,2,0,L|82:359,1,77.0000023498536,6|0,1:2|0:0,0:0:0:0:
135,270,79930,2,0,L|235:275,1,77.0000023498536,0|0,1:2|0:0,0:0:0:0:
340,346,80260,2,0,L|240:341,1,77.0000023498536,0|0,1:2|0:0,0:0:0:0:
293,252,80590,2,0,L|393:257,1,77.0000023498536,0|10,1:2|0:0,0:0:0:0:
410,278,80837,1,10,0:0:0:0:
410,278,80919,6,0,P|405:209|419:182,1,77.0000023498536,4|0,1:2|0:0,0:0:0:0:
496,189,81249,2,0,P|501:258|487:285,1,77.0000023498536,0|0,1:2|0:0,0:0:0:0:
438,127,81578,2,0,P|433:58|447:31,1,77.0000023498536,0|2,1:2|0:0,0:0:0:0:
501,0,81908,1,2,1:2:0:0:
435,52,82073,1,2,0:0:0:0:
347,22,82238,5,14,0:0:0:0:
347,22,82403,2,0,B|308:29|308:29|270:22,1,77.0000023498536,0|0,1:0|1:0,0:0:0:0:
194,106,82732,5,14,0:0:0:0:
194,106,82897,2,0,B|233:99|233:99|271:106,1,77.0000023498536,0|0,1:0|1:0,0:0:0:0:
312,188,83227,6,8,L|252:199,3,38.5000011749268,14|8|8|8,0:0|0:0|0:0|0:0,0:0:0:0:
236,188,83556,1,14,1:2:0:0:
73,330,84545,5,4,0:3:0:0:
82,350,84875,2,0,P|123:339|166:346,1,70,4|0,1:2|0:0,0:0:0:0:
228,361,85205,2,0,P|269:371|312:364,1,70,8|0,0:0|0:0,0:0:0:0:
358,317,85534,2,0,P|399:306|442:313,1,70,0|0,1:2|1:2,0:0:0:0:
501,353,85864,1,8,0:0:0:0:
501,353,86029,1,0,0:0:0:0:
488,262,86194,6,0,P|477:221|484:178,1,70,0|0,1:2|1:2,0:0:0:0:
499,117,86523,2,0,P|510:76|503:33,1,70,8|0,0:0|0:0,0:0:0:0:
432,14,86853,2,0,P|391:3|348:10,1,70,0|0,1:2|1:2,0:0:0:0:
305,82,87183,1,8,0:0:0:0:
305,82,87348,1,0,0:0:0:0:
255,11,87512,5,2,1:2:0:0:
255,11,87677,2,0,P|204:3|157:22,1,70,2|8,1:2|0:0,0:0:0:0:
305,82,88007,5,2,0:0:0:0:
305,82,88172,2,0,P|337:41|344:-8,1,70,2|0,1:2|1:2,0:0:0:0:
218,89,88501,5,10,0:0:0:0:
218,89,88666,2,0,P|236:137|276:168,1,70,2|0,0:0|1:2,0:0:0:0:
335,175,88996,5,2,1:2:0:0:
335,175,89161,2,0,P|386:167|433:186,1,70,10|0,0:0|0:0,0:0:0:0:
450,254,89490,6,0,P|399:262|352:243,1,70,2|0,1:2|0:0,0:0:0:0:
299,255,89820,2,8,L|255:263,3,35,10|8|8|8,0:0|0:0|0:0|0:0,0:0:0:0:
222,241,90150,6,0,B|144:234|171:295|77:278,2,140,6|8|0,1:2|0:0|1:2,0:0:0:0:
307,280,90974,1,0,1:2:0:0:
307,280,91139,2,0,P|299:241|316:191,1,70,8|0,0:0|0:0,0:0:0:0:
347,141,91469,6,0,P|355:102|338:52,1,70,0|0,1:2|0:0,0:0:0:0:
284,19,91798,2,0,P|245:11|195:28,1,70,8|0,0:0|0:0,0:0:0:0:
161,80,92128,2,0,P|122:88|72:71,1,70,0|0,1:2|1:2,0:0:0:0:
14,54,92458,1,8,0:0:0:0:
14,54,92622,1,0,0:0:0:0:
45,153,92787,5,2,1:2:0:0:
45,153,92952,2,0,L|37:254,1,70,2|8,1:2|0:0,0:0:0:0:
122,268,93282,5,2,0:0:0:0:
122,268,93447,2,0,L|130:167,1,70,2|0,1:2|1:2,0:0:0:0:
209,243,93776,6,0,L|204:313,1,70,10|0,0:0|0:0,0:0:0:0:
286,358,94106,5,8,0:0:0:0:
286,358,94271,1,0,1:2:0:0:
353,313,94436,1,10,0:0:0:0:
430,354,94600,1,0,1:2:0:0:
497,309,94765,2,0,P|507:267|497:216,1,70,10|0,0:0|1:2,0:0:0:0:
481,203,95012,1,0,1:2:0:0:
481,203,95095,2,8,L|490:153,3,35,10|8|8|8,0:0|0:0|0:0|0:0,0:0:0:0:
463,130,95425,6,0,B|424:138|424:138|359:120,1,77.0000023498536,6|0,1:2|1:2,0:0:0:0:
340,51,95754,2,0,B|375:41|375:41|414:49,1,77.0000023498536,0|0,1:2|1:2,0:0:0:0:
307,133,96084,2,0,B|268:141|268:141|203:123,1,77.0000023498536,8|0,0:0|1:2,0:0:0:0:
197,56,96414,1,0,1:2:0:0:
197,56,96578,1,0,1:2:0:0:
88,98,96743,6,0,B|80:137|80:137|98:202,1,77.0000023498536,0|0,1:2|1:2,0:0:0:0:
168,210,97073,2,0,B|177:174|177:174|169:135,1,77.0000023498536,0|0,1:2|1:2,0:0:0:0:
94,260,97403,2,0,B|86:299|86:299|104:364,1,77.0000023498536,8|0,0:0|1:2,0:0:0:0:
186,323,97732,1,0,1:2:0:0:
186,323,97897,1,0,1:2:0:0:
276,312,98062,5,2,1:2:0:0:
276,312,98227,2,0,B|273:351|273:351|239:409,1,77.0000023498536,2|0,1:2|1:2,0:0:0:0:
221,240,98557,5,2,1:2:0:0:
221,240,98722,2,0,B|256:222|256:222|324:222,1,77.0000023498536,10|0,0:0|1:2,0:0:0:0:
186,323,99051,5,2,1:2:0:0:
186,323,99216,2,0,B|152:301|152:301|119:242,1,77.0000023498536,2|0,1:2|1:2,0:0:0:0:
154,186,99545,5,2,1:2:0:0:
154,186,99710,2,0,B|163:150|163:150|155:111,1,77.0000023498536,2|0,1:2|1:2,0:0:0:0:
241,30,100040,6,0,B|232:66|232:66|240:105,1,77.0000023498536,10|0,0:0|1:2,0:0:0:0:
320,151,100370,2,0,L|333:95,3,38.5000011749268,8|8|8|8,0:0|0:0|0:0|0:0,0:0:0:0:
320,75,100699,6,0,P|360:69|415:76,1,77.0000023498536,6|0,1:2|0:0,0:0:0:0:
493,104,101029,2,0,L|483:199,1,77.0000023498536,8|0,0:0|1:2,0:0:0:0:
395,224,101359,2,0,L|405:129,1,77.0000023498536,8|0,0:0|1:2,0:0:0:0:
473,263,101688,2,0,L|463:358,1,77.0000023498536,8|0,0:0|1:2,0:0:0:0:
382,375,102018,6,0,L|287:385,1,77.0000023498536,8|0,0:0|1:2,0:0:0:0:
267,300,102348,2,0,L|362:290,1,77.0000023498536,8|0,0:0|1:2,0:0:0:0:
222,374,102677,2,0,L|127:384,1,77.0000023498536,8|0,0:0|1:2,0:0:0:0:
107,299,103007,2,0,B|107:300|151:295,3,38.5000011749268,8|8|8|8,0:0|0:0|0:0|0:0,0:0:0:0:
183,290,103337,5,12,0:0:0:0:
145,217,103501,1,0,1:2:0:0:
182,144,103666,1,0,1:2:0:0:
95,80,103831,2,0,B|99:119|99:119|75:182,2,77.0000023498536,8|0|0,0:0|1:2|1:2,0:0:0:0:
165,21,104326,2,0,B|199:34|199:34|239:29,1,77.0000023498536,8|0,0:0|1:2,0:0:0:0:
318,12,104655,6,0,L|308:119,1,77.0000023498536,8|0,0:0|1:2,0:0:0:0:
391,163,104985,2,0,L|401:56,1,77.0000023498536,8|0,0:0|1:2,0:0:0:0:
314,188,105315,1,8,0:0:0:0:
314,269,105480,1,8,0:0:0:0:
391,294,105644,1,8,0:0:0:0:
438,228,105809,1,14,0:0:0:0:
