osu file format v14

[General]
AudioFilename: audio.mp3
AudioLeadIn: 0
PreviewTime: 62375
Countdown: 0
SampleSet: Soft
StackLeniency: 0.5
Mode: 0
LetterboxInBreaks: 0
WidescreenStoryboard: 1

[Editor]
Bookmarks: 45315
DistanceSpacing: 0.7
BeatDivisor: 4
GridSize: 4
TimelineZoom: 2

[Metadata]
Title:Overdrive
TitleUnicode:Overdrive
Artist:Harada Hitomi
ArtistUnicode:原田ひとみ
Creator:Fall
Version:Ultimate
Source:VALKYRIE DRIVE -MERMAID-
Tags:ヴァルキリードライヴ マーメイド op opening japanese anime DeRandom Otaku Ren frozz fzl_17 fixxis kowari ggf gottagof4st stack reform kujinn _tranquility rock
BeatmapID:2231831
BeatmapSetID:1065834

[Difficulty]
HPDrainRate:6
CircleSize:3.8
OverallDifficulty:9.6
ApproachRate:9.3
SliderMultiplier:1.6
SliderTickRate:1

[Events]
//Background and Video events
0,0,"McDrive.jpg",0,0
//Break Periods
//Storyboard Layer 0 (Background)
//Storyboard Layer 1 (Fail)
//Storyboard Layer 2 (Pass)
//Storyboard Layer 3 (Foreground)
//Storyboard Layer 4 (Overlay)
//Storyboard Sound Samples

[TimingPoints]
480,329.67032967033,4,2,1,50,1,0
11029,-125,4,2,1,50,0,0
21578,-117.647058823529,4,2,1,50,0,0
29490,-117.647058823529,4,2,1,50,0,0
30809,-200,4,2,1,60,0,0
31386,-200,4,2,1,60,0,0
31469,-133.333333333333,4,2,1,60,0,0
32128,-80,4,2,1,80,0,1
42677,-100,4,2,1,60,0,0
61139,-100,4,2,1,65,0,0
62458,-200,4,2,1,70,0,0
63034,-200,4,2,1,70,0,0
63117,-100,4,2,1,70,0,0
63776,-80,4,2,1,80,0,1
73666,-100,4,2,1,80,0,0
74326,-80,4,2,1,80,0,1
79600,-133.333333333333,4,2,1,80,0,0
82238,-133.333333333333,4,2,1,80,0,1
83556,-100,4,2,1,50,0,0
84875,-86.9565217391304,4,2,1,60,0,0
94436,-100,4,2,1,60,0,0
95425,-66.6666666666667,4,2,1,60,0,1
105809,-100,4,2,1,60,0,0

[Colours]
Combo1 : 192,192,192
Combo2 : 0,128,255
Combo3 : 0,255,64

[HitObjects]
216,174,11029,6,0,B|291:163|258:202|350:185,1,128,6|2,1:2|1:2,0:0:0:0:
426,145,11523,1,2,0:0:0:0:
503,211,11688,1,2,1:2:0:0:
503,211,11853,1,2,0:0:0:0:
433,272,12018,1,2,1:2:0:0:
433,272,12183,1,2,0:0:0:0:
489,355,12348,2,0,P|447:358|413:350,1,64,2|2,1:2|0:0,0:0:0:0:
339,299,12677,2,0,P|297:296|263:304,1,64,2|2,1:2|0:0,0:0:0:0:
185,345,13007,1,2,1:2:0:0:
185,345,13172,1,2,0:0:0:0:
25,371,13501,6,0,B|0:340|0:340|0:237,1,128,2|0,0:0|0:0,0:0:0:0:
6,162,13996,1,2,1:2:0:0:
155,152,14161,2,0,P|127:164|88:166,1,64,2|0,0:0|1:0,0:0:0:0:
147,59,14490,2,0,P|175:47|214:45,1,64,2|0,0:0|1:0,0:0:0:0:
295,70,14820,1,2,0:0:0:0:
382,27,14985,6,0,B|417:62|417:62|400:147,3,128
401,138,16139,1,0,0:0:0:0:
295,256,16304,6,0,P|307:216|308:178,1,64,6|0,1:2|0:0,0:0:0:0:
213,180,16633,2,0,P|202:149|199:117,1,64,2|2,1:2|0:0,0:0:0:0:
245,39,16963,1,2,1:2:0:0:
148,58,17128,1,2,0:0:0:0:
54,20,17293,2,0,P|64:50|68:81,1,64,2|2,1:2|0:0,0:0:0:0:
41,165,17622,6,0,L|43:237,1,64,2|2,1:2|0:0,0:0:0:0:
79,338,17952,1,2,1:2:0:0:
79,338,18117,1,2,0:0:0:0:
211,288,18282,2,0,P|164:282|129:286,1,64,2|2,1:2|0:0,0:0:0:0:
273,345,18611,2,0,P|332:333|416:346,1,128,2|0,1:2|1:2,0:0:0:0:
476,359,19106,5,0,0:0:0:0:
507,277,19271,2,0,P|460:270|434:279,1,64,0|0,1:2|0:0,0:0:0:0:
371,238,19600,2,0,P|323:238|268:166,1,128,0|0,1:2|1:2,0:0:0:0:
177,173,20095,1,0,0:0:0:0:
177,173,20260,6,0,P|186:133|184:102,1,64,2|0,1:2|0:0,0:0:0:0:
273,14,20589,2,0,P|264:54|266:85,1,64,0|0,1:2|0:0,0:0:0:0:
356,150,20919,6,0,P|347:110|349:79,1,64,2|0,1:2|0:0,0:0:0:0:
442,0,21249,1,8,1:2:0:0:
442,0,21414,1,2,0:0:0:0:
470,151,21578,6,0,P|479:191|479:225,1,68.0000012969971,6|0,1:2|0:0,0:0:0:0:
351,278,21908,1,2,1:2:0:0:
471,327,22073,2,0,B|412:343|412:343|394:356|394:356|336:373,1,136.000002593994,2|2,0:0|0:0,0:0:0:0:
257,278,22567,1,0,1:2:0:0:
213,370,22732,6,0,P|181:339|169:239,1,136.000002593994,2|0,0:0|0:0,0:0:0:0:
82,181,23227,1,2,1:2:0:0:
180,121,23392,2,2,B|238:104|238:104|256:91|256:91|314:74,1,136.000002593994
392,39,23886,1,2,1:3:0:0:
275,2,24051,1,0,0:0:0:0:
275,2,24216,6,0,P|274:46|334:137,1,136.000002593994,2|0,0:0|0:0,0:0:0:0:
436,158,24710,1,2,0:0:0:0:
392,16,24875,1,2,1:2:0:0:
357,198,25040,1,2,0:0:0:0:
479,84,25205,6,0,P|510:118|498:219,1,136.000002593994,2|0,1:2|1:2,0:0:0:0:
447,275,25699,1,0,0:0:0:0:
335,202,25864,1,0,1:2:0:0:
265,263,26029,1,0,0:0:0:0:
265,263,26194,6,0,L|266:330,1,68.0000012969971,0|0,1:2|0:0,0:0:0:0:
164,380,26523,1,0,1:2:0:0:
164,380,26688,1,2,0:0:0:0:
9,222,26853,6,0,L|77:220,1,68.0000012969971,6|0,1:2|0:0,0:0:0:0:
298,133,27183,1,2,1:2:0:0:
130,160,27348,2,0,P|104:107|126:27,2,136.000002593994,2|2|2,0:0|0:0|0:0,0:0:0:0:
201,240,28172,6,0,B|267:204|256:267|339:215,1,136.000002593994,0|0,1:2|1:2,0:0:0:0:
461,130,28666,1,2,0:0:0:0:
317,363,28831,5,2,1:2:0:0:
348,94,28996,1,2,0:0:0:0:
458,284,29161,6,0,L|458:326,1,34.0000006484985,10|8,1:2|0:0,0:0:0:0:
330,221,29326,2,8,L|330:179,1,34.0000006484985
223,381,29490,1,8,1:2:0:0:
201,240,30809,6,0,B|290:234|248:294|366:288,1,160,2|2,0:0|0:0,0:0:0:0:
428,260,31633,1,0,1:2:0:0:
323,197,31798,2,0,P|319:159|355:118,1,90.0000034332277,8|0,0:0|0:0,0:0:0:0:
449,86,32128,6,0,P|368:98|239:39,1,200,6|8,1:2|0:0,0:0:0:0:
66,275,32622,1,0,0:0:0:0:
243,140,32787,6,0,P|183:134|128:147,1,100,0|0,1:2|1:2,0:0:0:0:
131,340,33117,1,8,0:0:0:0:
67,64,33282,1,0,0:0:0:0:
197,303,33447,6,0,P|226:253|265:215,1,100,0|0,1:2|1:0,0:0:0:0:
460,89,33776,1,8,0:0:0:0:
401,335,33941,1,0,0:0:0:0:
291,35,34106,6,0,P|320:85|359:123,1,100,0|0,1:2|1:2,0:0:0:0:
498,297,34436,1,8,0:0:0:0:
219,185,34600,1,0,0:0:0:0:
485,27,34765,5,2,1:2:0:0:
347,333,34930,1,2,1:2:0:0:
455,49,35095,1,8,0:0:0:0:
186,265,35260,5,2,1:2:0:0:
492,128,35425,1,2,0:0:0:0:
90,97,35589,1,0,1:2:0:0:
462,301,35754,5,10,0:0:0:0:
285,20,35919,1,2,1:2:0:0:
153,365,36084,1,0,0:0:0:0:
361,66,36249,5,2,1:2:0:0:
163,345,36414,1,10,0:0:0:0:
271,51,36578,1,0,0:0:0:0:
354,363,36743,5,0,1:2:0:0:
61,80,36908,1,0,1:2:0:0:
494,130,37073,6,8,P|444:127|420:138,1,50,10|8,0:0|0:0,0:0:0:0:
146,251,37238,2,0,P|196:254|220:243,1,50,8|8,0:0|0:0,0:0:0:0:
358,27,37403,6,0,B|339:96|339:96|418:228,1,200,6|8,1:2|0:0,0:0:0:0:
244,356,37897,1,0,0:0:0:0:
267,82,38062,6,0,L|259:185,1,100,0|0,1:2|1:2,0:0:0:0:
114,344,38392,1,8,0:0:0:0:
363,273,38556,1,0,0:0:0:0:
61,168,38721,6,0,P|107:204|165:216,1,100,0|0,1:2|1:0,0:0:0:0:
362,33,39051,1,8,0:0:0:0:
265,295,39216,1,0,0:0:0:0:
157,37,39381,6,0,P|179:104|180:145,1,100,0|0,1:2|1:2,0:0:0:0:
270,336,39710,1,8,0:0:0:0:
45,153,39875,1,0,0:0:0:0:
454,142,40040,5,6,1:2:0:0:
44,248,40205,1,0,1:2:0:0:
461,226,40370,1,8,0:0:0:0:
71,243,40534,1,0,1:2:0:0:
350,22,40699,5,0,1:2:0:0:
255,344,40864,1,0,1:2:0:0:
223,5,41029,1,8,0:0:0:0:
332,370,41194,1,0,1:2:0:0:
277,75,41359,5,8,0:0:0:0:
167,366,41523,1,0,1:2:0:0:
118,65,41688,5,8,0:0:0:0:
331,341,41853,1,0,1:2:0:0:
431,100,42018,6,0,P|436:159|423:207,1,100,8|0,0:0|1:2,0:0:0:0:
426,198,42265,1,0,1:2:0:0:
426,198,42348,2,8,P|418:222|417:258,1,50
464,318,42512,2,0,P|472:342|473:378,1,50,10|8,0:0|0:0,0:0:0:0:
387,384,42677,6,0,B|327:372|327:372|276:281,1,160,6|10,1:2|0:0,0:0:0:0:
185,236,43172,2,0,L|200:148,1,80,2|0,0:0|0:0,0:0:0:0:
286,49,43501,2,0,L|301:137,1,80,2|8,1:2|0:0,0:0:0:0:
198,157,43831,6,0,B|102:160|152:199|46:202,1,160,2|2,1:2|1:2,0:0:0:0:
31,344,44326,2,0,P|80:306|90:274,1,80,10|0,0:0|0:0,0:0:0:0:
48,201,44655,1,0,1:2:0:0:
159,259,44820,1,2,1:2:0:0:
34,175,44985,1,10,0:0:0:0:
195,149,45150,1,2,0:0:0:0:
0,18,45315,6,0,B|67:36|67:36|87:50|87:50|153:70,1,160,2|10,1:2|0:0,0:0:0:0:
195,149,45809,2,0,L|281:141,1,80,2|0,0:0|0:0,0:0:0:0:
378,90,46139,1,2,1:2:0:0:
363,252,46304,2,0,P|355:205|365:166,1,80,10|0,0:0|1:2,0:0:0:0:
480,77,46633,5,2,0:0:0:0:
350,93,46798,1,0,1:2:0:0:
443,150,46963,2,0,L|441:237,1,80,10|0,0:0|0:0,0:0:0:0:
438,258,47210,1,2,0:0:0:0:
438,258,47293,2,0,P|385:244|356:256,1,80,0|0,1:2|1:2,0:0:0:0:
285,333,47622,2,0,P|232:347|203:335,1,80,10|8,0:0|0:0,0:0:0:0:
185,325,47870,1,8,0:0:0:0:
185,325,47952,6,0,L|181:235,1,80,4|0,1:2|0:0,0:0:0:0:
172,120,48282,1,10,0:0:0:0:
91,243,48447,1,2,0:0:0:0:
172,99,48611,1,2,1:2:0:0:
179,229,48776,1,2,1:2:0:0:
76,56,48941,2,0,L|79:141,1,80,10|2,0:0|1:2,0:0:0:0:
260,170,49271,6,0,L|263:85,1,80,2|2,0:0|1:2,0:0:0:0:
444,29,49600,2,0,P|399:18|355:24,1,80,10|2,0:0|0:0,0:0:0:0:
230,14,49930,1,2,1:2:0:0:
342,94,50095,1,2,1:2:0:0:
260,249,50260,2,0,L|259:164,1,80,10|0,0:0|0:0,0:0:0:0:
382,289,50589,6,0,P|334:337|242:345,1,160,2|10,1:2|0:0,0:0:0:0:
167,247,51084,1,0,0:0:0:0:
61,272,51249,2,0,P|74:232|71:188,1,80,0|0,0:0|1:2,0:0:0:0:
21,29,51578,2,0,P|8:69|11:113,1,80,8|0,0:0|1:2,0:0:0:0:
106,109,51908,6,0,B|203:102|140:158|267:149,1,160,2|8,0:0|0:0,0:0:0:0:
356,82,52403,1,0,0:0:0:0:
345,172,52567,6,0,B|418:235|334:230|430:314,1,160,2|8,1:2|0:0,0:0:0:0:
492,368,53062,1,2,0:0:0:0:
502,205,53227,5,6,1:2:0:0:
411,334,53392,1,0,1:2:0:0:
505,181,53556,1,10,1:2:0:0:
492,368,53721,1,2,1:2:0:0:
381,69,54051,6,0,P|321:71|289:64,1,80,2|8,1:2|0:0,0:0:0:0:
216,120,54381,2,0,P|156:118|124:125,1,80,2|0,1:2|0:0,0:0:0:0:
41,184,54710,1,2,1:2:0:0:
121,297,54875,1,10,1:2:0:0:
121,297,55205,5,0,1:2:0:0:
47,148,55370,1,2,1:2:0:0:
0,297,55534,1,10,1:2:0:0:
55,108,55699,1,2,0:0:0:0:
195,234,55864,5,0,1:2:0:0:
36,75,56029,1,0,1:2:0:0:
218,152,56194,1,10,1:2:0:0:
0,297,56359,1,2,1:2:0:0:
438,195,56688,6,0,L|441:279,1,80,2|10,1:2|0:0,0:0:0:0:
361,142,57018,2,0,L|364:63,1,80,0|0,1:2|0:0,0:0:0:0:
301,242,57348,1,0,1:2:0:0:
131,117,57512,2,0,P|177:126|217:120,1,80,8|0,1:2|0:0,0:0:0:0:
389,56,57842,1,2,1:2:0:0:
233,140,58007,1,0,1:2:0:0:
324,245,58172,2,0,L|324:330,1,80,8|0,0:0|0:0,0:0:0:0:
218,298,58501,6,0,P|176:268|134:265,1,80,4|0,1:2|1:2,0:0:0:0:
53,335,58831,2,0,P|95:365|137:368,1,80,0|2,1:2|1:2,0:0:0:0:
277,109,59161,5,10,1:2:0:0:
386,353,59326,1,8,1:2:0:0:
375,67,59490,5,10,1:2:0:0:
281,384,59655,1,10,1:2:0:0:
201,35,59820,6,0,P|171:77|167:119,1,80,4|0,1:2|1:2,0:0:0:0:
184,269,60150,2,0,P|214:227|217:185,1,80,0|2,1:2|1:2,0:0:0:0:
66,70,60480,5,10,1:2:0:0:
138,336,60644,1,10,1:2:0:0:
291,51,60809,5,8,1:2:0:0:
227,339,60974,1,8,1:2:0:0:
386,129,61139,5,4,0:0:0:0:
452,243,61304,1,0,1:0:0:0:
452,243,61386,1,0,1:0:0:0:
452,243,61469,2,0,L|451:287,3,40,0|0|0|0,1:2|1:2|1:2|1:2,0:0:0:0:
350,347,61798,5,8,0:0:0:0:
350,347,61880,1,8,0:0:0:0:
350,347,61963,2,0,L|349:303,1,40,8|8,0:0|0:0,0:0:0:0:
292,176,62128,2,0,L|291:220,1,40,8|8,0:0|0:0,0:0:0:0:
210,359,62293,2,0,L|209:319,1,40,8|8,0:0|0:0,0:0:0:0:
139,156,62458,6,0,B|93:204|48:148|-8:230,1,160,10|0,0:0|0:0,0:0:0:0:
91,371,63447,2,0,L|92:289,1,80,4|0,0:3|0:0,0:0:0:0:
31,94,63776,6,0,P|97:139|158:133,1,100,6|0,1:2|0:0,0:0:0:0:
367,94,64106,2,0,P|301:49|240:55,1,100,10|0,0:0|0:0,0:0:0:0:
77,265,64436,5,2,1:2:0:0:
177,17,64600,1,0,0:0:0:0:
219,316,64765,1,10,0:0:0:0:
113,67,64930,1,0,0:0:0:0:
0,339,65095,6,0,L|99:343,1,100,2|0,1:2|0:0,0:0:0:0:
419,267,65425,2,0,L|320:263,1,100,10|0,0:0|0:0,0:0:0:0:
99,343,65754,5,2,1:2:0:0:
241,89,65919,1,0,0:0:0:0:
174,367,66084,1,10,0:0:0:0:
237,114,66249,1,0,0:0:0:0:
303,331,66414,5,2,1:2:0:0:
94,85,66578,1,2,0:0:0:0:
326,333,66743,1,8,0:0:0:0:
297,19,66908,5,2,0:0:0:0:
184,347,67073,1,2,1:2:0:0:
320,64,67238,1,0,0:0:0:0:
40,214,67403,5,10,0:0:0:0:
388,149,67567,1,2,0:0:0:0:
52,198,67732,1,0,1:2:0:0:
385,335,67897,5,2,0:0:0:0:
252,24,68062,1,10,0:0:0:0:
391,318,68227,1,0,0:0:0:0:
456,8,68392,5,2,1:2:0:0:
303,347,68556,1,2,0:0:0:0:
346,129,68721,2,0,P|291:132|255:167,1,100,8|10,0:0|0:0,0:0:0:0:
258,193,68969,1,8,0:0:0:0:
258,193,69051,6,0,P|222:214|157:213,1,100,6|0,1:2|0:0,0:0:0:0:
49,312,69381,1,10,0:0:0:0:
234,339,69545,2,0,B|352:330|283:403|428:384,1,200,2|2,0:0|0:0,0:0:0:0:
512,244,70040,1,10,0:0:0:0:
421,132,70205,1,2,1:2:0:0:
421,132,70287,1,2,1:2:0:0:
421,132,70370,6,0,L|424:241,1,100,2|0,1:2|0:0,0:0:0:0:
256,184,70699,1,10,0:0:0:0:
352,37,70864,2,0,B|270:52|270:52|251:74|251:74|159:92,1,200,2|0,0:0|0:0,0:0:0:0:
33,190,71359,2,0,L|135:197,1,100,8|2,0:0|0:0,0:0:0:0:
171,203,71606,1,2,0:0:0:0:
171,203,71688,6,0,P|175:268|166:319,1,100,2|0,1:2|0:0,0:0:0:0:
33,190,72018,2,0,P|29:125|38:74,1,100,8|2,0:0|0:0,0:0:0:0:
245,58,72348,1,0,1:2:0:0:
124,208,72512,1,0,0:0:0:0:
215,65,72677,1,10,0:0:0:0:
277,270,72842,1,2,0:0:0:0:
413,23,73007,5,8,0:0:0:0:
318,289,73172,1,0,1:2:0:0:
291,14,73337,5,8,0:0:0:0:
331,321,73501,1,0,1:2:0:0:
500,70,73666,5,10,0:0:0:0:
245,289,73831,1,0,1:2:0:0:
486,186,73996,6,8,P|474:174|442:165,1,40,10|8,0:0|0:0,0:0:0:0:
88,178,74161,2,0,P|100:190|132:199,1,40,8|8,0:0|0:0,0:0:0:0:
338,344,74326,6,0,P|352:263|326:144,1,200,6|10,1:2|0:0,0:0:0:0:
150,366,74820,1,0,0:0:0:0:
73,194,74985,2,0,P|93:240|92:293,1,100,2|0,1:2|0:0,0:0:0:0:
192,49,75315,2,0,P|172:95|173:148,1,100,10|0,0:0|0:0,0:0:0:0:
279,285,75644,6,0,B|385:280|345:348|473:340,1,200,2|10,1:2|0:0,0:0:0:0:
184,237,76139,1,0,0:0:0:0:
356,182,76304,2,0,P|285:195|251:177,1,100,2|0,1:2|0:0,0:0:0:0:
290,10,76633,2,0,L|305:116,1,100,10|0,0:0|0:0,0:0:0:0:
507,5,76963,5,2,1:2:0:0:
397,251,77128,1,0,0:0:0:0:
205,23,77293,1,10,0:0:0:0:
121,270,77458,1,2,0:0:0:0:
31,47,77622,6,0,P|48:113|44:186,1,100,2|0,1:2|0:0,0:0:0:0:
7,334,77952,1,10,0:0:0:0:
155,139,78117,6,0,P|138:205|142:278,1,100,2|0,0:0|1:0,0:0:0:0:
254,371,78447,1,0,0:0:0:0:
353,156,78611,1,10,0:0:0:0:
409,331,78776,2,0,P|326:294|287:293,1,100,2|0,0:0|1:0,0:0:0:0:
129,349,79106,1,0,0:0:0:0:
329,165,79271,1,10,0:0:0:0:
180,18,79436,1,10,0:0:0:0:
180,18,79518,1,10,0:0:0:0:
180,18,79600,6,0,L|179:89,3,60.0000022888184,6|0|0|0,1:2|0:0|1:2|0:0,0:0:0:0:
254,210,80260,2,0,L|253:150,1,60.0000022888184,0|0,1:2|0:0,0:0:0:0:
336,27,80589,2,0,L|336:86,1,60.0000022888184,0|10,1:2|0:0,0:0:0:0:
358,117,80837,1,10,0:0:0:0:
358,117,80919,6,0,L|359:188,1,60.0000022888184,4|0,1:2|0:0,0:0:0:0:
452,306,81249,2,0,L|451:235,1,60.0000022888184,0|0,1:2|0:0,0:0:0:0:
457,114,81578,1,0,1:2:0:0:
357,299,81743,1,2,0:0:0:0:
253,150,81908,1,2,1:2:0:0:
451,246,82073,1,2,0:0:0:0:
263,350,82238,5,14,0:0:0:0:
333,7,82403,2,0,L|339:63,1,30.0000011444092,0|0,1:0|1:0,0:0:0:0:
459,280,82567,1,0,1:0:0:0:
246,22,82732,5,14,0:0:0:0:
100,323,82897,2,0,L|106:270,1,30.0000011444092,0|0,1:0|1:0,0:0:0:0:
275,93,83062,1,0,1:0:0:0:
44,186,83227,6,8,L|99:184,1,30.0000011444092,14|8,0:0|0:0,0:0:0:0:
376,283,83392,2,0,L|321:281,1,30.0000011444092,8|8,0:0|0:0,0:0:0:0:
38,101,83556,1,14,1:2:0:0:
388,88,84545,2,0,L|390:173,1,80,4|0,0:3|0:0,0:0:0:0:
485,289,84875,6,0,B|408:309|408:309|385:326|385:326|310:348,1,184.000003509522,4|8,1:2|0:0,0:0:0:0:
180,344,85370,1,0,0:0:0:0:
389,167,85534,1,0,1:2:0:0:
130,270,85699,1,0,1:2:0:0:
295,61,85864,2,0,L|298:153,1,92.0000017547608,8|0,0:0|0:0,0:0:0:0:
312,347,86194,5,0,1:2:0:0:
200,97,86359,1,0,1:2:0:0:
47,271,86523,2,0,L|44:179,1,92.0000017547608,8|0,0:0|0:0,0:0:0:0:
32,44,86853,5,0,1:2:0:0:
130,270,87018,1,0,1:2:0:0:
174,0,87183,2,0,P|233:-9|278:14,1,92.0000017547608,8|0,0:0|0:0,0:0:0:0:
440,332,87512,5,2,1:2:0:0:
354,70,87677,1,2,1:2:0:0:
314,349,87842,1,8,0:0:0:0:
249,95,88007,5,2,0:0:0:0:
461,249,88172,1,2,1:2:0:0:
208,117,88337,1,0,1:2:0:0:
493,163,88501,5,10,0:0:0:0:
209,324,88666,1,2,0:0:0:0:
487,143,88831,1,0,1:2:0:0:
118,146,88996,5,2,1:2:0:0:
440,236,89161,1,10,0:0:0:0:
172,335,89326,1,0,0:0:0:0:
466,112,89490,5,2,1:2:0:0:
312,380,89655,1,0,1:0:0:0:
236,34,89820,2,8,P|252:66|251:90,1,46.0000008773804,10|8,0:0|0:0,0:0:0:0:
320,302,89985,2,8,P|324:279|336:260,1,46.0000008773804,10|8,0:0|0:0,0:0:0:0:
462,80,90150,6,0,B|362:104|395:147|288:169,1,184.000003509522,6|8,1:2|0:0,0:0:0:0:
90,88,90644,1,0,0:0:0:0:
191,289,90809,1,0,1:2:0:0:
280,58,90974,1,0,1:2:0:0:
128,344,91139,2,0,P|110:290|122:239,1,92.0000017547608,8|0,0:0|0:0,0:0:0:0:
452,55,91469,5,0,1:2:0:0:
187,207,91633,1,0,0:0:0:0:
341,0,91798,2,0,P|359:54|347:105,1,92.0000017547608,8|0,0:0|0:0,0:0:0:0:
154,79,92128,5,0,1:2:0:0:
433,202,92293,1,0,1:2:0:0:
88,296,92458,2,0,P|136:287|185:295,1,92.0000017547608,8|0,0:0|0:0,0:0:0:0:
316,327,92787,5,2,1:2:0:0:
420,35,92952,1,2,1:2:0:0:
289,293,93117,1,8,0:0:0:0:
270,27,93282,5,2,0:0:0:0:
382,296,93447,1,2,1:2:0:0:
295,47,93611,1,0,1:2:0:0:
197,284,93776,5,10,0:0:0:0:
477,124,93941,1,0,0:0:0:0:
125,21,94106,6,0,P|112:57|119:115,1,92.0000017547608,8|0,0:0|1:2,0:0:0:0:
381,168,94436,2,0,L|284:168,1,80,10|0,0:0|1:2,0:0:0:0:
44,18,94765,2,0,P|31:71|40:110,1,80,10|0,0:0|1:2,0:0:0:0:
45,121,95012,1,0,1:2:0:0:
45,121,95095,2,8,P|58:174|52:191,1,40,10|8,0:0|0:0,0:0:0:0:
168,229,95260,2,0,P|155:282|161:299,1,40,8|8,0:0|0:0,0:0:0:0:
41,360,95425,5,6,1:2:0:0:
190,101,95589,1,0,1:2:0:0:
175,384,95754,1,0,1:2:0:0:
110,58,95919,1,0,1:2:0:0:
360,358,96084,6,0,P|368:298|358:222,1,120.000004577637,8|0,0:0|1:2,0:0:0:0:
95,127,96414,1,0,1:2:0:0:
410,175,96578,1,0,1:2:0:0:
0,221,96743,6,0,P|65:232|120:212,1,120.000004577637,0|0,1:2|1:2,0:0:0:0:
413,46,97073,2,0,P|348:35|293:55,1,120.000004577637,0|0,1:2|1:2,0:0:0:0:
196,382,97403,5,8,0:0:0:0:
291,65,97567,1,0,1:2:0:0:
281,336,97732,1,0,1:2:0:0:
180,37,97897,1,0,1:2:0:0:
102,345,98062,5,2,1:2:0:0:
336,138,98227,1,2,1:2:0:0:
108,324,98392,1,0,1:2:0:0:
401,271,98556,5,2,1:2:0:0:
37,200,98721,1,10,0:0:0:0:
369,132,98886,1,0,1:2:0:0:
115,311,99051,5,2,1:2:0:0:
208,8,99216,1,2,1:2:0:0:
136,303,99381,1,0,1:2:0:0:
305,46,99545,5,2,1:2:0:0:
210,356,99710,1,2,1:2:0:0:
127,53,99875,1,0,1:2:0:0:
291,384,100040,2,0,P|284:327|293:260,1,120.000004577637,10|0,0:0|1:2,0:0:0:0:
397,28,100370,6,0,P|432:53|440:90,1,60.0000022888184,8|8,0:0|0:0,0:0:0:0:
291,265,100534,2,0,P|256:240|248:203,1,60.0000022888184,8|8,0:0|0:0,0:0:0:0:
511,123,100699,6,0,P|471:180|419:222,1,120.000004577637,6|0,1:2|0:0,0:0:0:0:
263,21,101029,5,8,0:0:0:0:
393,301,101194,1,0,1:2:0:0:
432,23,101359,5,8,0:0:0:0:
301,334,101523,1,0,1:2:0:0:
136,58,101688,5,8,0:0:0:0:
201,321,101853,1,0,1:2:0:0:
350,120,102018,6,0,P|285:98|220:105,1,120.000004577637,8|0,0:0|1:2,0:0:0:0:
37,308,102348,5,8,0:0:0:0:
122,19,102512,1,0,1:2:0:0:
115,353,102677,5,8,0:0:0:0:
25,60,102842,1,0,1:2:0:0:
226,338,103007,6,0,L|242:275,1,60.0000022888184,8|8,0:0|0:0,0:0:0:0:
366,68,103172,2,0,L|380:126,1,60.0000022888184,8|8,0:0|0:0,0:0:0:0:
450,344,103337,5,12,0:0:0:0:
353,47,103501,1,0,1:2:0:0:
217,364,103666,1,0,1:2:0:0:
457,80,103831,5,8,0:0:0:0:
107,166,103996,1,0,1:2:0:0:
492,237,104161,1,0,1:2:0:0:
205,35,104326,5,8,0:0:0:0:
296,347,104490,1,0,1:2:0:0:
357,0,104655,6,0,P|367:82|353:137,1,120.000004577637,8|0,0:0|1:2,0:0:0:0:
97,373,104985,2,0,P|87:291|101:236,1,120.000004577637,8|0,0:0|1:2,0:0:0:0:
267,43,105315,5,8,0:0:0:0:
191,351,105480,1,8,0:0:0:0:
199,0,105644,1,8,0:0:0:0:
290,384,105809,1,14,0:0:0:0:
