osu file format v14

[General]
AudioFilename: audio.mp3
AudioLeadIn: 0
PreviewTime: 62375
Countdown: 0
SampleSet: Soft
StackLeniency: 0.5
Mode: 0
LetterboxInBreaks: 0
WidescreenStoryboard: 1

[Editor]
Bookmarks: 74326,84875
DistanceSpacing: 1
BeatDivisor: 4
GridSize: 4
TimelineZoom: 0.7

[Metadata]
Title:Overdrive
TitleUnicode:Overdrive
Artist:Harada Hitomi
ArtistUnicode:原田ひとみ
Creator:Fall
Version:Stack's Normal
Source:VALKYRIE DRIVE -MERMAID-
Tags:ヴァルキリードライヴ マーメイド op opening japanese anime DeRandom Otaku Ren frozz fzl_17 fixxis kowari ggf gottagof4st stack reform kujinn _tranquility rock
BeatmapID:2263088
BeatmapSetID:1065834

[Difficulty]
HPDrainRate:3
CircleSize:3
OverallDifficulty:4
ApproachRate:5
SliderMultiplier:1.1
SliderTickRate:1

[Events]
//Background and Video events
0,0,"McDrive.jpg",0,0
//Break Periods
//Storyboard Layer 0 (Background)
//Storyboard Layer 1 (Fail)
//Storyboard Layer 2 (Pass)
//Storyboard Layer 3 (Foreground)
//Storyboard Layer 4 (Overlay)
//Storyboard Sound Samples

[TimingPoints]
480,329.67032967033,4,2,1,50,1,0
480,-125,4,2,1,28,0,0
5754,-125,4,2,1,39,0,0
8392,-125,4,2,1,50,0,0
30809,-125,4,2,1,60,0,0
32128,-111.111111111111,4,2,1,80,0,0
42677,-125,4,2,1,60,0,0
61139,-125,4,2,1,65,0,0
62458,-125,4,2,1,70,0,0
63776,-111.111111111111,4,2,1,80,0,1
83556,-111.111111111111,4,2,1,50,0,0
84875,-111.111111111111,4,2,1,60,0,0

[Colours]
Combo1 : 192,192,192
Combo2 : 0,128,255
Combo3 : 0,255,64

[HitObjects]
56,76,480,6,0,P|144:66|150:219,1,264,2|2,0:0|0:0,0:0:0:0:
102,147,1798,2,0,B|230:85|229:209|354:136,1,264,2|2,0:0|0:0,0:0:0:0:
402,63,3117,2,0,B|370:29|370:29|277:37,2,132,2|2|2,0:0|0:0|0:0,0:0:0:0:
439,142,4436,2,0,P|458:191|466:237,1,88,2|2,0:0|0:0,0:0:0:0:
403,289,5095,1,2,0:0:0:0:
319,260,5425,1,2,0:0:0:0:
260,325,5754,6,0,L|160:340,1,88,2|2,0:0|0:0,0:0:0:0:
115,271,6414,2,0,L|15:256,1,88,2|2,0:0|0:0,0:0:0:0:
9,171,7073,1,2,0:0:0:0:
59,98,7403,1,2,0:0:0:0:
31,14,7732,2,0,P|88:9|126:29,1,88,2|2,0:0|0:0,0:0:0:0:
180,80,8392,6,0,B|223:93|223:93|273:77,1,88,2|2,0:0|0:0,0:0:0:0:
303,60,8886,1,2,0:0:0:0:
303,60,9051,2,0,B|346:47|346:47|396:63,1,88,2|2,0:0|0:0,0:0:0:0:
413,95,9545,2,0,L|422:188,1,88,2|2,0:0|0:0,0:0:0:0:
425,226,10040,1,2,0:0:0:0:
382,303,10370,1,14,0:0:0:0:
294,291,10699,1,2,1:0:0:0:
224,345,11029,6,0,L|124:359,2,88,6|2|2,1:2|1:2|1:2,0:0:0:0:
294,291,12018,1,2,1:2:0:0:
226,234,12348,2,0,P|218:191|226:148,1,88,2|2,1:2|1:2,0:0:0:0:
304,108,13007,2,0,P|312:65|304:22,1,88,2|0,1:2|1:2,0:0:0:0:
263,4,13501,1,2,0:0:0:0:
263,4,13666,6,0,L|163:13,2,88,2|2|0,1:2|1:2|1:0,0:0:0:0:
337,66,14655,1,0,1:0:0:0:
425,26,14985,1,0,1:2:0:0:
489,98,15315,2,0,B|497:137|497:137|493:148|493:148|502:187,2,88,0|0|0,1:2|1:2|1:2,0:0:0:0:
425,26,16304,6,0,L|328:30,1,88,6|2,1:2|1:2,0:0:0:0:
256,83,16963,2,0,L|159:79,1,88,2|2,1:2|1:2,0:0:0:0:
77,113,17622,1,2,1:2:0:0:
110,204,17952,1,2,1:2:0:0:
63,289,18282,2,0,P|93:317|150:343,1,88,2|2,1:2|1:2,0:0:0:0:
226,307,18941,6,0,P|232:246|241:208,2,88,0|0|0,1:2|1:2|1:2,0:0:0:0:
306,361,19930,1,0,1:2:0:0:
393,318,20260,2,0,P|434:273|425:203,1,132,2|0,1:2|0:0,0:0:0:0:
396,168,20919,2,0,P|372:111|405:48,1,132,2|2,1:2|0:0,0:0:0:0:
424,9,21578,6,0,L|334:1,1,88,6|2,1:2|1:2,0:0:0:0:
287,0,22073,1,2,0:0:0:0:
212,61,22403,1,2,0:0:0:0:
124,21,22732,1,2,0:0:0:0:
124,21,22897,2,0,P|113:63|129:112,1,88,2|2,1:2|1:2,0:0:0:0:
146,148,23392,2,2,P|157:190|141:239,1,88
70,293,24051,1,2,0:0:0:0:
70,293,24216,6,0,B|118:263|118:263|262:299,1,176,0|2,1:2|1:2,0:0:0:0:
300,362,25205,1,2,1:2:0:0:
364,289,25534,2,0,B|378:248|378:248|365:203,1,88,0|0,1:2|1:2,0:0:0:0:
297,135,26194,2,0,B|283:94|283:94|296:49,1,88,0|0,1:2|1:2,0:0:0:0:
387,20,26853,6,0,L|494:37,2,88,6|2|0,1:2|1:2|1:2,0:0:0:0:
295,51,27842,1,0,1:2:0:0:
259,141,28172,2,0,L|152:158,2,88,0|0|2,1:2|1:2|1:2,0:0:0:0:
338,196,29161,2,0,P|345:218|350:253,1,44,10|8,1:2|0:0,0:0:0:0:
337,285,29490,1,8,1:2:0:0:
337,285,30809,6,0,P|279:256|211:274,1,132,2|0,0:0|0:0,0:0:0:0:
187,309,31469,2,0,P|183:244|133:194,1,132,2|0,0:0|0:0,0:0:0:0:
93,179,32128,6,0,P|133:137|148:97,1,98.9999969787599,6|8,1:2|0:0,0:0:0:0:
152,0,32787,1,0,1:2:0:0:
239,45,33117,1,8,0:0:0:0:
328,2,33447,2,0,P|370:-8|426:6,1,98.9999969787599,0|8,1:2|0:0,0:0:0:0:
485,84,34106,1,0,1:2:0:0:
423,161,34436,1,8,0:0:0:0:
467,249,34765,6,0,L|517:265,2,49.4999984893799,2|2|8,1:2|1:2|0:0,0:0:0:0:
412,274,35260,2,0,P|371:257|313:268,1,98.9999969787599,2|0,1:2|1:2,0:0:0:0:
278,294,35754,2,0,L|264:356,2,49.4999984893799,10|2|0,0:0|1:2|0:0,0:0:0:0:
243,244,36249,2,0,P|237:199|209:146,1,98.9999969787599,2|0,1:2|0:0,0:0:0:0:
187,109,36743,1,0,1:2:0:0:
96,149,37073,1,10,0:0:0:0:
3,185,37403,6,0,L|13:288,1,98.9999969787599,6|8,1:2|0:0,0:0:0:0:
93,340,38062,2,0,L|196:330,1,98.9999969787599,0|8,1:2|0:0,0:0:0:0:
228,240,38721,1,0,1:2:0:0:
299,308,39051,1,8,0:0:0:0:
369,377,39381,1,0,1:2:0:0:
434,302,39710,1,8,0:0:0:0:
497,225,40040,6,0,L|489:103,2,98.9999969787599,6|8|0,1:2|0:0|1:2,0:0:0:0:
434,302,41029,1,8,0:0:0:0:
359,231,41359,2,0,P|332:222|297:219,1,49.4999984893799,8|0,0:0|1:2,0:0:0:0:
263,232,41688,1,8,0:0:0:0:
192,301,42018,2,0,B|158:280|158:280|52:305,1,148.49999546814,8|10,0:0|0:0,0:0:0:0:
10,319,42677,6,0,L|19:228,1,88,6|10,1:2|0:0,0:0:0:0:
51,202,43172,2,0,L|42:111,1,88,2|2,0:0|1:2,0:0:0:0:
19,29,43831,2,0,B|83:10|83:10|147:34,1,132,2|10,1:2|0:0,0:0:0:0:
240,123,44820,2,0,L|229:177,2,44,2|10|2,1:2|0:0|0:0,0:0:0:0:
269,90,45315,5,2,1:2:0:0:
346,47,45644,1,10,0:0:0:0:
346,47,45809,2,0,L|445:42,1,88,2|2,0:0|1:2,0:0:0:0:
473,63,46304,1,10,0:0:0:0:
423,135,46633,2,0,P|410:184|410:235,1,88,2|10,0:0|0:0,0:0:0:0:
487,261,47293,2,0,P|500:310|500:361,1,88,0|10,1:2|0:0,0:0:0:0:
419,380,47952,5,4,1:2:0:0:
351,322,48282,2,0,B|286:318|286:318|251:346|251:346|182:341,1,176,10|10,0:0|0:0,0:0:0:0:
125,276,49271,2,0,L|78:285,2,44,2|2|10,0:0|1:2|0:0,0:0:0:0:
157,246,49765,1,2,0:0:0:0:
157,246,49930,2,0,P|167:200|157:162,1,88,2|10,1:2|0:0,0:0:0:0:
105,89,50589,5,2,1:2:0:0:
149,13,50919,2,0,B|194:1|194:1|237:13,1,88,10|0,0:0|0:0,0:0:0:0:
306,62,51578,1,8,0:0:0:0:
396,50,51908,2,0,B|420:117|420:117|421:180,1,132,2|0,0:0|0:0,0:0:0:0:
384,203,52567,2,0,B|360:270|360:270|359:333,1,132,2|2,1:2|0:0,0:0:0:0:
363,374,53227,5,6,1:2:0:0:
277,381,53556,2,0,L|233:375,1,44,10|2,1:2|1:2,0:0:0:0:
165,318,54051,1,2,1:2:0:0:
88,361,54381,1,2,1:2:0:0:
23,301,54710,2,0,L|14:251,1,44,2|10,1:2|1:2,0:0:0:0:
61,182,55205,2,0,L|71:37,1,132,0|2,1:2|0:0,0:0:0:0:
91,11,55864,6,0,P|123:0|156:-1,1,44,0|0,1:2|1:2,0:0:0:0:
176,8,56194,1,10,1:2:0:0:
176,8,56359,1,2,1:2:0:0:
241,66,56688,1,2,1:2:0:0:
317,22,57018,1,0,1:2:0:0:
379,83,57348,1,0,1:2:0:0:
379,83,57512,2,0,P|398:143|399:182,1,88,8|2,1:2|1:2,0:0:0:0:
383,209,58007,2,0,P|378:231|374:268,1,44,0|8,1:2|0:0,0:0:0:0:
334,330,58501,6,0,L|227:327,1,88,4|0,1:2|1:2,0:0:0:0:
191,258,59161,2,0,L|84:261,1,88,10|10,1:2|1:2,0:0:0:0:
39,199,59820,2,0,P|21:144|35:83,2,88,4|0|10,1:2|1:2|1:2,0:0:0:0:
103,260,60809,1,8,1:2:0:0:
158,191,61139,5,6,1:2:0:0:
213,122,61469,1,0,1:2:0:0:
268,53,61798,2,0,L|321:48,1,44,8|8,0:0|0:0,0:0:0:0:
345,77,62128,2,0,L|398:82,1,44,8|8,0:0|0:0,0:0:0:0:
425,56,62458,1,10,0:0:0:0:
425,56,63447,5,4,0:3:0:0:
346,115,63776,2,0,L|246:113,1,98.9999969787599,6|10,1:2|0:0,0:0:0:0:
188,33,64435,1,2,1:2:0:0:
88,33,64765,1,10,0:0:0:0:
13,98,65095,2,0,P|3:140|17:194,1,98.9999969787599,2|10,1:2|0:0,0:0:0:0:
110,234,65754,1,2,1:2:0:0:
76,327,66084,1,10,0:0:0:0:
174,336,66413,6,0,L|186:384,2,49.4999984893799,2|2|8,1:2|0:0|0:0,0:0:0:0:
190,288,66908,2,0,B|234:269|234:269|285:278,1,98.9999969787599,2|0,0:0|0:0,0:0:0:0:
326,252,67402,2,0,L|375:249,2,49.4999984893799,10|2|0,0:0|0:0|1:2,0:0:0:0:
311,204,67897,2,0,B|292:160|292:160|301:109,1,98.9999969787599,2|0,0:0|0:0,0:0:0:0:
319,63,68391,1,2,1:2:0:0:
396,1,68721,1,8,0:0:0:0:
465,71,69051,6,0,B|469:101|457:126|457:126|477:156|479:185,1,98.9999969787599,6|10,1:2|0:0,0:0:0:0:
488,212,69545,2,0,P|455:189|388:194,1,98.9999969787599,2|2,0:0|0:0,0:0:0:0:
379,238,70040,1,10,0:0:0:0:
379,238,70205,2,0,B|328:254|328:254|305:234|268:225|230:248,1,148.49999546814,2|10,1:2|0:0,0:0:0:0:
203,278,70864,2,0,B|191:218|191:218|199:185|199:185|190:132,1,148.49999546814,2|8,0:0|0:0,0:0:0:0:
127,55,71688,6,0,L|45:53,2,74.2499977340699,2|2|2,1:2|0:0|0:0,0:0:0:0:
169,28,72348,1,0,1:2:0:0:
258,68,72677,1,10,0:0:0:0:
346,26,73007,2,0,B|392:14|392:14|448:29,1,98.9999969787599,8|8,0:0|0:0,0:0:0:0:
488,114,73666,1,10,0:0:0:0:
442,202,73996,1,10,0:0:0:0:
391,287,74326,6,0,L|291:285,1,98.9999969787599,6|10,1:2|0:0,0:0:0:0:
213,344,74985,1,2,1:2:0:0:
128,292,75315,1,10,0:0:0:0:
38,333,75645,2,0,P|28:291|46:237,1,98.9999969787599,2|10,1:2|0:0,0:0:0:0:
116,170,76304,1,2,1:2:0:0:
49,99,76634,1,10,0:0:0:0:
133,48,76963,6,0,L|123:0,2,49.4999984893799,2|0|10,1:2|0:0|0:0,0:0:0:0:
169,82,77458,1,2,0:0:0:0:
169,82,77622,2,0,P|213:95|265:81,1,98.9999969787599,2|10,1:2|0:0,0:0:0:0:
293,42,78117,2,0,P|337:29|389:43,1,98.9999969787599,2|0,0:0|0:0,0:0:0:0:
428,72,78611,1,10,0:0:0:0:
457,166,78941,1,0,1:0:0:0:
488,260,79271,2,0,L|433:269,1,49.4999984893799,10|10,0:0|0:0,0:0:0:0:
391,280,79600,6,0,B|406:324|406:324|408:385,2,98.9999969787599,6|0|0,1:2|1:2|1:2,0:0:0:0:
301,237,80589,1,0,1:2:0:0:
219,293,80919,2,0,B|173:283|173:283|119:255,2,98.9999969787599,4|0|0,1:2|1:2|1:2,0:0:0:0:
301,237,81908,1,2,1:2:0:0:
349,150,82238,6,0,P|358:101|341:51,1,98.9999969787599,14|0,0:0|1:0,0:0:0:0:
300,29,82732,2,0,L|198:34,1,98.9999969787599,14|0,0:0|1:0,0:0:0:0:
154,52,83227,2,8,L|103:49,1,49.4999984893799,14|8,0:0|0:0,0:0:0:0:
63,21,83556,1,14,1:2:0:0:
63,21,84545,5,4,0:3:0:0:
122,100,84875,2,0,B|130:159|130:159|114:186|114:186|122:253,1,148.49999546814,4|0,1:2|0:0,0:0:0:0:
129,292,85534,1,0,1:2:0:0:
206,353,85864,1,8,0:0:0:0:
280,287,86194,2,0,P|348:266|420:293,1,148.49999546814,0|0,1:2|0:0,0:0:0:0:
455,324,86853,1,0,1:2:0:0:
500,235,87183,1,8,0:0:0:0:
464,142,87512,6,0,L|468:92,2,49.4999984893799,2|2|8,1:2|1:2|0:0,0:0:0:0:
421,168,88007,2,0,L|320:161,1,98.9999969787599,2|0,0:0|1:2,0:0:0:0:
279,135,88501,2,0,L|275:85,2,49.4999984893799,10|2|0,0:0|0:0|1:2,0:0:0:0:
239,164,88996,2,0,L|138:171,1,98.9999969787599,2|0,1:2|0:0,0:0:0:0:
90,174,89490,1,2,1:2:0:0:
44,262,89820,1,10,0:0:0:0:
98,344,90150,6,0,B|145:347|170:328|170:328|194:350|240:352,1,148.49999546814,6|0,1:2|0:0,0:0:0:0:
286,344,90809,1,0,1:2:0:0:
359,277,91139,1,8,0:0:0:0:
442,330,91469,2,0,P|419:259|445:191,1,148.49999546814,0|0,1:2|0:0,0:0:0:0:
479,157,92128,1,0,1:2:0:0:
437,67,92458,1,8,0:0:0:0:
349,20,92787,6,0,L|291:14,1,49.4999984893799,2|2,1:2|1:2,0:0:0:0:
255,37,93117,2,0,L|197:31,1,49.4999984893799,8|2,0:0|0:0,0:0:0:0:
158,47,93447,2,0,P|171:92|167:148,1,98.9999969787599,2|10,1:2|0:0,0:0:0:0:
131,177,93941,1,0,0:0:0:0:
131,177,94106,2,0,L|27:186,1,98.9999969787599,8|10,0:0|0:0,0:0:0:0:
1,279,94765,1,10,0:0:0:0:
53,363,95095,1,10,0:0:0:0:
147,331,95425,6,0,L|252:324,1,98.9999969787599,6|0,1:2|1:2,0:0:0:0:
330,375,96084,2,0,L|435:382,1,98.9999969787599,8|0,0:0|1:2,0:0:0:0:
496,309,96743,1,0,1:2:0:0:
440,226,97073,1,0,1:2:0:0:
499,146,97403,2,0,P|511:100|498:50,1,98.9999969787599,8|0,0:0|1:2,0:0:0:0:
403,23,98062,6,0,L|345:36,1,49.4999984893799,2|2,1:2|1:2,0:0:0:0:
327,75,98392,2,0,L|340:133,1,49.4999984893799,0|2,1:2|1:2,0:0:0:0:
363,166,98722,2,0,L|349:266,1,98.9999969787599,10|2,0:0|1:2,0:0:0:0:
317,301,99216,1,2,1:2:0:0:
317,301,99381,2,0,P|269:291|220:304,1,98.9999969787599,0|2,1:2|1:2,0:0:0:0:
139,359,100040,1,10,0:0:0:0:
74,283,100370,2,0,L|70:223,1,49.4999984893799,8|8,0:0|0:0,0:0:0:0:
69,184,100699,5,6,1:2:0:0:
104,91,101029,1,8,0:0:0:0:
197,126,101359,1,8,0:0:0:0:
162,219,101688,1,8,0:0:0:0:
221,297,102018,2,0,B|268:311|268:311|320:299,1,98.9999969787599,8|8,0:0|0:0,0:0:0:0:
376,221,102677,2,0,B|362:174|362:174|374:122,1,98.9999969787599,8|8,0:0|0:0,0:0:0:0:
320,40,103337,6,0,L|262:37,1,49.4999984893799,12|0,0:0|1:2,0:0:0:0:
227,61,103666,1,0,1:2:0:0:
227,61,103831,2,0,L|169:58,1,49.4999984893799,8|0,0:0|1:2,0:0:0:0:
133,38,104161,1,0,1:2:0:0:
133,38,104326,2,0,L|75:35,1,49.4999984893799,8|0,0:0|1:2,0:0:0:0:
42,63,104655,2,0,B|59:100|59:100|42:176,1,98.9999969787599,8|8,0:0|0:0,0:0:0:0:
16,251,105315,1,8,0:0:0:0:
16,251,105480,2,0,L|21:304,2,49.4999984893799,8|8|14,0:0|0:0|0:0,0:0:0:0:
