osu file format v14

[General]
AudioFilename: audio.mp3
AudioLeadIn: 0
PreviewTime: 62375
Countdown: 0
SampleSet: Soft
StackLeniency: 0.5
Mode: 0
LetterboxInBreaks: 0
WidescreenStoryboard: 1

[Editor]
DistanceSpacing: 0.6
BeatDivisor: 4
GridSize: 4
TimelineZoom: 2

[Metadata]
Title:Overdrive
TitleUnicode:Overdrive
Artist:Harada Hitomi
ArtistUnicode:原田ひとみ
Creator:Fall
Version:Ren's Insane
Source:VALKYRIE DRIVE -MERMAID-
Tags:ヴァルキリードライヴ マーメイド op opening japanese anime DeRandom Otaku Ren frozz fzl_17 fixxis kowari ggf gottagof4st stack reform kujinn _tranquility rock
BeatmapID:2232066
BeatmapSetID:1065834

[Difficulty]
HPDrainRate:5.5
CircleSize:3.6
OverallDifficulty:8
ApproachRate:9
SliderMultiplier:1.6
SliderTickRate:1

[Events]
//Background and Video events
0,0,"McDrive.jpg",0,0
//Break Periods
//Storyboard Layer 0 (Background)
//Storyboard Layer 1 (Fail)
//Storyboard Layer 2 (Pass)
//Storyboard Layer 3 (Foreground)
//Storyboard Layer 4 (Overlay)
//Storyboard Sound Samples

[TimingPoints]
480,329.67032967033,4,2,1,50,1,0
11029,-100,4,2,1,50,0,0
21578,-90.9090909090909,4,2,1,50,0,0
30809,-133.333333333333,4,2,1,60,0,0
31798,-100,4,2,1,60,0,0
32128,-83.3333333333333,4,2,1,80,0,0
42677,-100,4,2,1,60,0,0
61139,-100,4,2,1,65,0,0
62458,-133.333333333333,4,2,1,70,0,0
63776,-83.3333333333333,4,2,1,80,0,0
79600,-90.9090909090909,4,2,1,80,0,0
83556,-142.857142857143,4,2,1,50,0,0
84875,-90.9090909090909,4,2,1,60,0,0
95425,-83.3333333333333,4,2,1,60,0,0

[Colours]
Combo1 : 192,192,192
Combo2 : 0,128,255
Combo3 : 0,255,64

[HitObjects]
84,125,11029,6,0,P|118:82|218:103,1,160,6|2,1:2|1:2,0:0:0:0:
267,165,11523,1,2,0:0:0:0:
267,165,11688,2,0,P|255:206|256:250,1,80,2|2,1:2|0:0,0:0:0:0:
186,329,12018,2,0,P|185:289|173:250,1,80,2|2,1:2|0:0,0:0:0:0:
127,175,12348,5,2,1:2:0:0:
127,175,12512,1,2,0:0:0:0:
88,254,12677,2,0,P|43:265|1:268,1,80,2|2,1:2|0:0,0:0:0:0:
173,250,13007,1,2,1:2:0:0:
127,175,13172,2,0,P|124:129|134:71,1,80,2|0,0:0|1:2,0:0:0:0:
254,21,13501,5,2,0:0:0:0:
254,21,13666,2,0,P|258:60|254:100,1,80,2|0,1:2|0:0,0:0:0:0:
234,186,13996,1,2,1:2:0:0:
317,159,14161,2,0,P|312:198|316:238,1,80,2|0,0:0|1:0,0:0:0:0:
237,350,14490,2,0,P|240:310|236:270,1,80,2|0,0:0|1:0,0:0:0:0:
156,230,14820,5,2,0:0:0:0:
234,186,14985,2,0,P|283:167|321:170,1,80,0|0,1:2|0:0,0:0:0:0:
443,243,15315,2,0,P|403:241|367:224,1,80,0|0,1:2|0:0,0:0:0:0:
433,82,15644,2,0,L|424:162,1,80,0|0,1:2|0:0,0:0:0:0:
360,43,15974,1,0,1:2:0:0:
481,15,16139,1,2,0:0:0:0:
424,162,16304,6,0,L|337:149,1,80,6|0,1:2|0:0,0:0:0:0:
257,42,16633,2,0,L|336:30,1,80,2|2,1:2|0:0,0:0:0:0:
247,149,16963,1,2,1:2:0:0:
247,149,17128,1,2,0:0:0:0:
177,16,17293,2,0,P|164:58|166:94,1,80,2|2,1:2|0:0,0:0:0:0:
148,251,17622,6,0,P|149:211|136:173,1,80,2|2,1:2|0:0,0:0:0:0:
69,79,17952,1,2,1:2:0:0:
69,79,18117,1,2,0:0:0:0:
21,184,18282,2,0,L|100:176,1,80,2|2,1:2|0:0,0:0:0:0:
236,129,18611,1,2,1:2:0:0:
236,129,18776,6,0,B|330:125|280:175|392:169,1,160
349,5,19271,2,0,L|361:85,1,80,0|0,1:2|0:0,0:0:0:0:
463,224,19600,2,0,L|474:144,1,80,0|0,1:2|0:0,0:0:0:0:
336,5,19930,2,0,L|347:84,1,80,0|0,1:2|0:0,0:0:0:0:
337,244,20260,6,0,P|290:218|247:216,1,80,2|0,1:2|0:0,0:0:0:0:
129,293,20589,2,0,P|168:285|201:263,1,80,0|0,1:2|0:0,0:0:0:0:
134,115,20919,2,0,L|131:195,1,80,2|0,1:2|0:0,0:0:0:0:
214,84,21249,1,8,1:2:0:0:
97,42,21414,1,2,0:0:0:0:
224,177,21578,6,0,B|299:166|299:166|317:151|317:151|404:140,2,176.000005371094,6|2|0,1:2|1:2|1:2,0:0:0:0:
349,312,22403,2,0,B|366:270|366:270|351:231,1,88.000002685547,2|0,0:0|1:2,0:0:0:0:
254,89,22732,1,2,0:0:0:0:
254,89,22815,1,2,0:0:0:0:
254,89,22897,6,0,L|266:186,1,88.000002685547,2|0,1:2|0:0,0:0:0:0:
248,319,23227,1,2,1:2:0:0:
175,163,23392,2,2,L|163:260,1,88.000002685547,2|2,0:0|1:2,0:0:0:0:
349,312,23721,2,0,L|338:224,1,88.000002685547,2|2,0:0|1:3,0:0:0:0:
250,61,24051,1,2,0:0:0:0:
250,61,24216,6,0,B|363:35|317:100|436:76,1,176.000005371094,0|0,1:2|1:2,0:0:0:0:
296,138,24710,1,2,0:0:0:0:
296,138,24875,2,0,L|305:230,1,88.000002685547,2|2,1:2|0:0,0:0:0:0:
391,370,25205,2,0,L|399:282,1,88.000002685547,2|2,1:2|0:0,0:0:0:0:
415,255,25452,1,2,0:0:0:0:
415,255,25534,6,0,B|316:212|343:298|227:274,1,176.000005371094,0|0,1:2|1:2,0:0:0:0:
157,181,26029,1,0,0:0:0:0:
278,104,26194,2,0,L|272:192,1,88.000002685547,0|0,1:2|0:0,0:0:0:0:
213,30,26523,1,0,1:2:0:0:
157,181,26688,1,2,0:0:0:0:
301,31,26853,6,0,P|357:17|435:97,1,176.000005371094,6|2,1:2|1:2,0:0:0:0:
384,243,27348,2,0,P|381:204|372:155,1,88.000002685547,2|0,0:0|1:2,0:0:0:0:
301,31,27677,2,0,P|292:74|289:118,1,88.000002685547,2|0,0:0|1:2,0:0:0:0:
303,263,28007,1,2,0:0:0:0:
303,263,28172,6,0,P|246:237|127:235,1,176.000005371094,0|0,1:2|1:2,0:0:0:0:
284,150,28666,1,2,0:0:0:0:
208,312,28831,1,2,1:2:0:0:
160,140,28996,1,2,0:0:0:0:
303,263,29161,1,10,1:2:0:0:
328,246,29243,1,8,0:0:0:0:
356,257,29326,1,8,0:0:0:0:
382,242,29408,1,8,0:0:0:0:
382,242,29490,6,0,P|375:310|372:369,1,88.000002685547,8|0,1:2|0:0,0:0:0:0:
373,329,30809,6,0,B|228:283|288:388|120:350,1,240.000009155274,2|2,0:0|0:0,0:0:0:0:
71,265,31633,1,0,1:2:0:0:
174,152,31798,2,0,B|205:189|205:189|194:260,1,120,8|0,0:0|0:0,0:0:0:0:
191,284,32128,6,0,P|148:267|80:265,1,95.9999970703126,6|0,1:2|0:0,0:0:0:0:
10,120,32458,2,0,P|57:116|102:98,1,95.9999970703126,8|0,0:0|0:0,0:0:0:0:
236,27,32787,1,0,1:2:0:0:
37,31,32952,1,0,1:2:0:0:
247,122,33117,2,0,L|235:230,1,95.9999970703126,8|0,0:0|0:0,0:0:0:0:
236,27,33447,6,0,B|356:1|314:76|429:57,2,191.999994140625,0|8|0,1:2|0:0|1:2,0:0:0:0:
356,156,34271,1,0,1:2:0:0:
181,94,34436,1,8,0:0:0:0:
381,139,34600,1,0,0:0:0:0:
162,264,34765,6,0,B|143:219|143:219|166:162,2,95.9999970703126,2|2|8,1:2|1:2|0:0,0:0:0:0:
261,59,35260,1,2,1:2:0:0:
230,221,35425,1,2,0:0:0:0:
187,43,35589,1,0,1:2:0:0:
320,202,35754,5,10,0:0:0:0:
320,202,35919,2,0,P|361:212|420:215,1,95.9999970703126,2|0,1:2|0:0,0:0:0:0:
173,144,36249,1,2,1:2:0:0:
173,144,36414,2,0,P|125:146|78:157,1,95.9999970703126,10|0,0:0|0:0,0:0:0:0:
261,59,36743,1,0,1:2:0:0:
230,221,36908,1,0,1:2:0:0:
187,43,37073,1,10,0:0:0:0:
157,22,37155,1,8,0:0:0:0:
122,16,37237,1,8,0:0:0:0:
87,25,37320,1,8,0:0:0:0:
59,47,37402,5,6,1:2:0:0:
120,206,37567,2,0,B|136:160|136:160|123:109,1,95.9999970703126,0|8,0:0|0:0,0:0:0:0:
27,231,37897,1,0,0:0:0:0:
158,306,38062,2,0,L|255:295,1,95.9999970703126,0|0,1:2|1:2,0:0:0:0:
124,114,38392,2,0,B|108:160|108:160|121:211,1,95.9999970703126,8|0,0:0|0:0,0:0:0:0:
214,378,38721,5,0,1:2:0:0:
242,194,38886,1,0,0:0:0:0:
140,330,39051,1,8,0:0:0:0:
312,237,39216,1,0,0:0:0:0:
119,205,39381,2,0,L|126:107,1,95.9999970703126,0|0,1:2|1:2,0:0:0:0:
218,15,39710,1,8,0:0:0:0:
51,66,39875,1,0,0:0:0:0:
261,114,40040,6,0,L|378:103,1,95.9999970703126,6|0,1:2|1:2,0:0:0:0:
503,157,40370,1,8,0:0:0:0:
407,12,40534,1,0,1:2:0:0:
407,177,40699,1,0,1:2:0:0:
503,32,40863,1,0,1:2:0:0:
467,233,41029,2,0,L|482:337,1,95.9999970703126,8|0,0:0|1:2,0:0:0:0:
356,105,41359,6,0,B|314:80|314:80|263:85,1,95.9999970703126,8|0,0:0|1:2,0:0:0:0:
142,181,41688,1,8,0:0:0:0:
289,164,41853,1,0,1:2:0:0:
156,85,42018,1,8,0:0:0:0:
225,233,42183,1,0,1:2:0:0:
225,233,42265,1,0,1:2:0:0:
225,233,42348,1,8,0:0:0:0:
219,267,42430,1,8,0:0:0:0:
229,299,42512,1,10,0:0:0:0:
222,334,42595,1,8,0:0:0:0:
222,334,42677,6,0,B|260:307|260:307|383:328,1,160,6|10,1:2|0:0,0:0:0:0:
499,374,43172,2,0,P|488:330|486:272,1,80,2|0,0:0|0:0,0:0:0:0:
434,176,43501,2,0,P|430:215|420:254,1,80,2|8,1:2|0:0,0:0:0:0:
381,93,43831,6,0,P|419:70|481:77,1,80,2|0,1:2|0:0,0:0:0:0:
326,162,44161,1,2,1:2:0:0:
326,162,44326,2,0,P|286:158|222:57,1,160,10|0,0:0|1:2,0:0:0:0:
176,176,44820,1,2,1:2:0:0:
309,75,44985,1,10,0:0:0:0:
156,17,45150,1,2,0:0:0:0:
156,17,45315,6,0,B|94:35|94:35|104:140,1,160,2|10,1:2|0:0,0:0:0:0:
42,252,45809,2,0,P|23:216|24:168,1,80,2|0,0:0|0:0,0:0:0:0:
173,276,46139,1,2,1:2:0:0:
173,276,46304,2,0,B|77:288|138:325|27:342,1,160,10|2,0:0|0:0,0:0:0:0:
168,359,46798,5,0,1:2:0:0:
247,248,46963,2,0,L|239:160,1,80,10|0,0:0|0:0,0:0:0:0:
228,146,47210,1,2,0:0:0:0:
228,146,47293,1,0,1:2:0:0:
298,69,47458,1,0,1:2:0:0:
191,42,47622,1,10,0:0:0:0:
317,156,47787,1,8,0:0:0:0:
340,150,47870,1,8,0:0:0:0:
363,144,47952,6,0,B|360:215|360:215|368:232|368:232|365:308,1,160,4|10,1:2|0:0,0:0:0:0:
442,184,48447,1,2,0:0:0:0:
484,290,48611,2,0,L|475:381,1,80,2|2,1:2|1:2,0:0:0:0:
442,184,48941,2,0,L|434:104,1,80,10|2,0:0|1:2,0:0:0:0:
368,240,49271,5,2,0:0:0:0:
368,240,49436,2,0,P|321:222|274:219,1,80,2|10,1:2|0:0,0:0:0:0:
175,265,49765,1,2,0:0:0:0:
255,151,49930,1,2,1:2:0:0:
128,206,50095,1,2,1:2:0:0:
260,292,50260,2,0,L|255:385,1,80,10|0,0:0|0:0,0:0:0:0:
370,217,50589,6,0,L|365:137,1,80,2|0,1:2|0:0,0:0:0:0:
470,26,50919,1,10,0:0:0:0:
446,161,51084,1,0,0:0:0:0:
370,30,51249,2,0,P|324:18|276:18,1,80,0|0,0:0|1:2,0:0:0:0:
190,90,51578,1,8,0:0:0:0:
190,90,51743,1,0,1:2:0:0:
313,257,51908,6,0,B|320:184|320:184|308:167|308:167|319:65,1,160,2|8,0:0|0:0,0:0:0:0:
238,212,52403,1,0,0:0:0:0:
392,145,52567,2,0,P|438:136|485:141,1,80,2|0,1:2|0:0,0:0:0:0:
346,25,52897,1,8,0:0:0:0:
321,194,53062,1,2,0:0:0:0:
325,217,53144,1,0,1:0:0:0:
329,240,53227,6,0,P|273:219|173:210,1,160,6|10,1:2|1:2,0:0:0:0:
62,302,53721,2,0,L|170:289,1,80,2|0,1:2|0:0,0:0:0:0:
290,365,54051,2,0,L|182:352,1,80,2|8,1:2|0:0,0:0:0:0:
238,196,54381,6,0,P|260:243|256:295,1,80,2|0,1:2|0:0,0:0:0:0:
177,132,54710,1,2,1:2:0:0:
177,132,54875,2,0,P|181:92|269:12,1,160,10|0,1:2|1:2,0:0:0:0:
355,132,55370,2,0,L|277:113,1,80,2|10,1:2|1:2,0:0:0:0:
425,29,55699,1,2,0:0:0:0:
425,29,55864,6,0,B|447:65|447:65|442:115,1,80,0|0,1:2|1:2,0:0:0:0:
400,232,56194,1,10,1:2:0:0:
277,113,56359,2,0,P|319:89|366:92,1,80,2|0,1:2|0:0,0:0:0:0:
468,184,56688,1,2,1:2:0:0:
307,228,56853,1,10,0:0:0:0:
307,228,57018,6,0,L|315:323,1,80,0|0,1:2|0:0,0:0:0:0:
362,128,57348,1,0,1:2:0:0:
232,194,57512,1,8,1:2:0:0:
400,262,57677,1,0,0:0:0:0:
400,262,57760,1,0,0:0:0:0:
400,262,57842,2,0,L|392:357,1,80,2|0,1:2|1:2,0:0:0:0:
333,133,58172,2,0,L|326:53,1,80,8|0,0:0|0:0,0:0:0:0:
232,194,58501,6,0,B|128:193|190:152|70:158,1,160,4|0,1:2|1:2,0:0:0:0:
105,318,58996,1,2,1:2:0:0:
105,318,59078,1,0,1:0:0:0:
105,318,59161,2,0,B|118:281|118:281|102:228,1,80,10|8,1:2|1:2,0:0:0:0:
7,139,59490,1,10,1:2:0:0:
36,280,59655,1,10,1:2:0:0:
97,128,59820,6,0,P|148:91|256:96,1,160,4|0,1:2|1:2,0:0:0:0:
392,177,60315,1,2,1:2:0:0:
287,21,60480,1,10,1:2:0:0:
306,199,60644,1,10,1:2:0:0:
411,43,60809,1,8,1:2:0:0:
456,245,60974,1,8,1:2:0:0:
333,92,61139,5,6,1:2:0:0:
288,294,61304,1,0,1:2:0:0:
288,294,61386,1,0,1:2:0:0:
288,294,61469,2,0,L|232:281,3,40,0|0|0|0,1:2|1:2|1:2|1:2,0:0:0:0:
143,355,61798,2,0,L|199:342,3,40,8|8|8|8,0:0|0:0|0:0|0:0,0:0:0:0:
132,242,62128,1,8,0:0:0:0:
113,206,62210,1,8,0:0:0:0:
106,167,62292,1,8,0:0:0:0:
110,127,62375,1,8,0:0:0:0:
126,91,62458,6,0,B|276:49|202:142|364:112,1,240.000009155274,10|0,0:0|0:0,0:0:0:0:
356,113,63447,1,4,0:3:0:0:
306,7,63611,1,0,0:0:0:0:
241,190,63776,6,0,L|246:299,1,95.9999970703126,6|0,1:2|0:0,0:0:0:0:
126,91,64106,2,0,L|121:200,1,95.9999970703126,10|0,0:0|0:0,0:0:0:0:
124,354,64436,1,2,1:2:0:0:
34,183,64600,1,0,0:0:0:0:
31,357,64765,1,10,0:0:0:0:
121,186,64929,1,0,0:0:0:0:
211,357,65095,6,0,P|222:277|231:225,1,95.9999970703126,2|0,1:2|0:0,0:0:0:0:
399,129,65425,2,0,P|324:159|274:177,1,95.9999970703126,10|0,0:0|0:0,0:0:0:0:
108,81,65754,2,0,P|171:130|212:164,1,95.9999970703126,2|0,1:2|0:0,0:0:0:0:
333,270,66084,1,10,0:0:0:0:
265,67,66249,1,0,0:0:0:0:
127,266,66414,6,0,B|251:236|195:312|314:291,2,191.999994140625,2|8|2,1:2|0:0|1:2,0:0:0:0:
281,107,67238,2,0,B|296:153|296:153|279:198,1,95.9999970703126,0|10,0:0|0:0,0:0:0:0:
170,356,67567,1,2,0:0:0:0:
28,128,67732,6,0,B|119:132|119:132|129:149|129:149|231:156,2,191.999994140625,0|10|2,1:2|0:0|1:2,0:0:0:0:
82,315,68556,2,0,B|93:268|93:268|70:226,1,95.9999970703126,2|8,0:0|0:0,0:0:0:0:
174,67,68886,1,10,0:0:0:0:
201,76,68969,1,8,0:0:0:0:
228,85,69051,6,0,P|191:98|139:126,1,95.9999970703126,6|0,1:2|0:0,0:0:0:0:
301,195,69381,1,10,0:0:0:0:
176,301,69545,1,2,0:0:0:0:
176,301,69710,2,0,B|155:256|155:256|176:198,1,95.9999970703126,0|2,1:0|0:0,0:0:0:0:
228,85,70040,1,10,0:0:0:0:
287,280,70205,1,2,1:2:0:0:
287,280,70287,1,2,1:2:0:0:
287,280,70370,6,0,P|336:262|416:255,1,95.9999970703126,2|0,1:2|0:0,0:0:0:0:
170,212,70699,1,10,0:0:0:0:
326,150,70864,1,2,0:0:0:0:
326,150,71029,2,0,P|399:177|519:187,1,191.999994140625,0|8,1:0|0:0,0:0:0:0:
243,105,71523,1,2,0:0:0:0:
243,105,71606,1,2,0:0:0:0:
243,105,71688,6,0,B|226:60|226:60|243:8,1,95.9999970703126,2|0,1:2|0:0,0:0:0:0:
170,212,72018,2,0,B|184:257|184:257|167:302,1,95.9999970703126,8|2,0:0|0:0,0:0:0:0:
72,149,72348,2,0,P|109:117|175:118,1,95.9999970703126,0|0,1:2|0:0,0:0:0:0:
280,212,72677,1,10,0:0:0:0:
142,193,72842,1,2,0:0:0:0:
323,139,73007,5,8,0:0:0:0:
295,342,73172,1,0,1:2:0:0:
217,167,73337,1,8,0:0:0:0:
228,377,73502,1,0,1:2:0:0:
355,218,73666,2,0,P|414:198|457:200,1,95.9999970703126,10|0,0:0|1:2,0:0:0:0:
216,299,73996,1,10,0:0:0:0:
193,270,74078,1,8,0:0:0:0:
185,236,74160,1,8,0:0:0:0:
192,201,74243,1,8,0:0:0:0:
213,172,74326,6,0,B|173:150|173:150|119:166,1,95.9999970703126,6|0,1:2|0:0,0:0:0:0:
278,47,74655,2,0,B|326:61|326:61|366:39,1,95.9999970703126,10|0,0:0|0:0,0:0:0:0:
168,20,74985,1,2,1:2:0:0:
294,144,75150,1,0,0:0:0:0:
124,164,75315,1,10,0:0:0:0:
278,47,75480,1,0,0:0:0:0:
51,66,75644,6,0,B|101:97|101:97|85:235,1,191.999994140625,2|10,1:2|0:0,0:0:0:0:
21,372,76139,1,0,0:0:0:0:
161,273,76304,2,0,P|206:258|278:258,1,95.9999970703126,2|0,1:2|0:0,0:0:0:0:
375,356,76633,1,10,0:0:0:0:
193,363,76798,1,0,0:0:0:0:
367,260,76963,6,0,L|376:377,1,95.9999970703126,2|0,1:2|0:0,0:0:0:0:
310,175,77293,2,0,L|317:79,1,95.9999970703126,10|2,0:0|0:0,0:0:0:0:
451,194,77622,1,2,1:2:0:0:
254,254,77787,1,0,0:0:0:0:
470,268,77952,1,10,0:0:0:0:
277,332,78117,1,2,0:0:0:0:
277,332,78282,6,0,L|176:322,1,95.9999970703126,0|0,1:0|0:0,0:0:0:0:
367,260,78611,1,10,0:0:0:0:
254,141,78776,2,0,L|278:347,1,191.999994140625,2|0,0:0|0:0,0:0:0:0:
350,155,79271,1,10,0:0:0:0:
200,64,79436,1,10,0:0:0:0:
172,72,79518,1,10,0:0:0:0:
144,80,79600,6,0,L|50:67,1,88.000002685547,6|0,1:2|0:0,0:0:0:0:
254,141,79930,2,0,L|341:128,1,88.000002685547,0|0,1:2|0:0,0:0:0:0:
164,219,80260,1,0,1:2:0:0:
222,42,80425,1,0,0:0:0:0:
245,232,80589,1,0,1:2:0:0:
310,62,80754,1,10,0:0:0:0:
310,62,80837,1,10,0:0:0:0:
310,62,80919,6,0,B|353:28|353:28|488:61,1,176.000005371094,4|0,1:2|1:2,0:0:0:0:
334,163,81414,1,0,0:0:0:0:
506,241,81578,2,0,L|497:134,1,88.000002685547,0|2,1:2|0:0,0:0:0:0:
343,243,81908,2,0,L|350:330,1,88.000002685547,2|2,1:2|0:0,0:0:0:0:
407,124,82238,5,14,0:0:0:0:
237,202,82403,1,0,1:0:0:0:
419,142,82567,1,0,1:0:0:0:
268,67,82732,5,14,0:0:0:0:
343,243,82897,1,0,1:0:0:0:
286,53,83061,1,0,1:0:0:0:
221,279,83227,5,14,0:0:0:0:
184,302,83309,1,8,0:0:0:0:
141,304,83391,1,8,0:0:0:0:
103,284,83474,1,8,0:0:0:0:
103,284,83556,6,0,B|124:241|124:241|106:156,2,111.999996582031,14|0|0,1:2|0:0|0:0,0:0:0:0:
38,140,84545,2,0,P|68:108|114:98,1,83.9999974365235,4|0,0:3|0:0,0:0:0:0:
130,106,84875,6,0,L|227:94,1,88.000002685547,4|0,1:2|0:0,0:0:0:0:
348,182,85205,2,0,L|260:171,1,88.000002685547,8|0,0:0|0:0,0:0:0:0:
310,9,85534,2,0,B|326:50|326:50|315:96,1,88.000002685547,0|0,1:2|1:2,0:0:0:0:
237,200,85864,1,8,0:0:0:0:
403,123,86029,1,0,0:0:0:0:
230,59,86194,6,0,L|142:69,1,88.000002685547,0|0,1:2|1:2,0:0:0:0:
149,210,86523,2,0,L|237:200,1,88.000002685547,8|0,0:0|0:0,0:0:0:0:
49,107,86853,2,0,P|41:159|44:202,1,88.000002685547,0|0,1:2|1:2,0:0:0:0:
74,365,87183,1,8,0:0:0:0:
149,210,87348,1,0,0:0:0:0:
211,369,87512,6,0,B|257:379|257:379|300:366,2,88.000002685547,2|2|8,1:2|1:2|0:0,0:0:0:0:
149,210,88007,1,2,0:0:0:0:
253,292,88172,1,2,1:2:0:0:
95,286,88337,1,0,1:2:0:0:
258,189,88501,5,10,0:0:0:0:
258,189,88666,2,0,P|308:171|351:177,1,88.000002685547,2|0,0:0|1:2,0:0:0:0:
477,264,88996,1,2,1:2:0:0:
477,264,89161,2,0,P|433:265|393:249,1,88.000002685547,10|0,0:0|0:0,0:0:0:0:
326,86,89490,5,2,1:2:0:0:
449,182,89655,1,0,0:0:0:0:
309,256,89820,1,10,0:0:0:0:
278,244,89903,1,8,0:0:0:0:
250,256,89985,1,8,0:0:0:0:
219,244,90068,1,8,0:0:0:0:
219,244,90150,6,0,B|148:256|148:256|140:269|140:269|50:287,1,176.000005371094,6|8,1:2|0:0,0:0:0:0:
78,112,90644,1,0,0:0:0:0:
78,112,90809,2,0,B|97:152|97:152|89:199,1,88.000002685547,0|0,1:2|1:2,0:0:0:0:
41,369,91139,2,0,B|33:325|33:325|52:285,1,88.000002685547,8|0,0:0|0:0,0:0:0:0:
182,163,91469,6,0,B|297:151|237:216|373:212,1,176.000005371094,0|8,1:2|0:0,0:0:0:0:
208,260,91963,1,0,0:0:0:0:
208,260,92128,2,0,L|224:363,1,88.000002685547,0|0,1:2|1:2,0:0:0:0:
279,146,92458,1,8,0:0:0:0:
130,228,92622,1,0,0:0:0:0:
321,260,92787,6,0,L|420:250,1,88.000002685547,2|2,1:2|1:2,0:0:0:0:
253,124,93117,2,0,L|165:115,1,88.000002685547,8|2,0:0|0:0,0:0:0:0:
380,74,93447,1,2,1:2:0:0:
321,260,93611,1,0,1:2:0:0:
296,49,93776,1,10,0:0:0:0:
237,235,93940,1,0,0:0:0:0:
400,112,94106,6,0,B|285:104|348:152|220:142,2,176.000005371094,8|10|10,0:0|0:0|0:0,0:0:0:0:
473,184,94930,1,0,1:2:0:0:
473,184,95012,1,0,1:2:0:0:
479,213,95095,1,10,0:0:0:0:
467,244,95178,1,8,0:0:0:0:
479,272,95260,1,8,0:0:0:0:
467,303,95343,1,8,0:0:0:0:
467,303,95425,6,0,B|420:284|420:284|366:296,1,95.9999970703126,6|0,1:2|1:2,0:0:0:0:
190,356,95754,2,0,B|234:365|234:365|281:346,1,95.9999970703126,0|0,1:2|1:2,0:0:0:0:
397,187,96084,1,8,0:0:0:0:
230,278,96249,1,0,1:2:0:0:
375,293,96414,1,0,1:2:0:0:
208,202,96579,1,0,1:2:0:0:
402,91,96743,6,0,L|396:195,1,95.9999970703126,0|0,1:2|1:2,0:0:0:0:
206,113,97073,2,0,L|200:17,1,95.9999970703126,0|0,1:2|1:2,0:0:0:0:
305,222,97403,1,8,0:0:0:0:
101,182,97567,1,0,1:2:0:0:
315,120,97732,1,0,1:2:0:0:
111,80,97896,1,0,1:2:0:0:
202,239,98062,6,0,B|222:196|222:196|209:148,2,95.9999970703126,2|2|0,1:2|1:2|1:2,0:0:0:0:
126,357,98556,1,2,1:2:0:0:
274,293,98721,1,10,0:0:0:0:
102,267,98886,1,0,1:2:0:0:
237,382,99051,5,2,1:2:0:0:
237,382,99216,2,0,P|284:370|342:366,1,95.9999970703126,2|0,1:2|1:2,0:0:0:0:
497,287,99545,1,2,1:2:0:0:
497,287,99710,2,0,P|449:282|402:270,1,95.9999970703126,2|0,1:2|1:2,0:0:0:0:
233,367,100040,2,0,P|280:355|338:351,1,95.9999970703126,10|0,0:0|1:2,0:0:0:0:
465,197,100370,1,8,0:0:0:0:
460,155,100452,1,8,0:0:0:0:
435,123,100534,1,8,0:0:0:0:
396,109,100617,1,8,0:0:0:0:
355,117,100699,5,6,1:2:0:0:
238,231,100864,2,0,L|347:221,1,95.9999970703126,0|8,0:0|0:0,0:0:0:0:
225,87,101194,1,0,1:2:0:0:
133,235,101359,2,0,B|115:191|115:191|129:139,1,95.9999970703126,8|0,0:0|1:2,0:0:0:0:
301,46,101688,2,0,B|313:92|313:92|295:136,1,95.9999970703126,8|0,0:0|1:2,0:0:0:0:
210,260,102018,5,8,0:0:0:0:
225,87,102183,1,0,1:2:0:0:
133,235,102348,1,8,0:0:0:0:
118,62,102513,1,0,1:2:0:0:
258,187,102677,2,0,P|310:169|369:164,1,95.9999970703126,8|0,0:0|1:2,0:0:0:0:
496,225,103007,1,8,0:0:0:0:
496,225,103089,1,8,0:0:0:0:
496,225,103172,2,0,P|490:182|490:140,1,47.9999985351563,8|8,0:0|0:0,0:0:0:0:
496,40,103337,5,12,0:0:0:0:
416,204,103501,1,0,1:2:0:0:
479,20,103666,1,0,1:2:0:0:
326,107,103831,1,8,0:0:0:0:
502,154,103995,1,0,1:2:0:0:
313,84,104161,1,0,1:2:0:0:
489,177,104326,2,0,L|483:274,1,95.9999970703126,8|0,0:0|1:2,0:0:0:0:
411,77,104655,5,8,0:0:0:0:
338,257,104820,1,0,1:2:0:0:
502,154,104985,1,8,0:0:0:0:
309,140,105150,1,0,1:2:0:0:
457,265,105315,1,8,0:0:0:0:
457,265,105480,1,8,0:0:0:0:
411,77,105644,1,8,0:0:0:0:
411,77,105809,1,14,0:0:0:0:
