osu file format v14

[General]
AudioFilename: audio.mp3
AudioLeadIn: 0
PreviewTime: 62375
Countdown: 0
SampleSet: Soft
StackLeniency: 0.5
Mode: 0
LetterboxInBreaks: 0
WidescreenStoryboard: 1

[Editor]
DistanceSpacing: 0.5
BeatDivisor: 4
GridSize: 32
TimelineZoom: 2

[Metadata]
Title:Overdrive
TitleUnicode:Overdrive
Artist:Harada Hitomi
ArtistUnicode:原田ひとみ
Creator:Fall
Version:Reform's Expert
Source:VALKYRIE DRIVE -MERMAID-
Tags:ヴァルキリードライヴ マーメイド op opening japanese anime DeRandom Otaku Ren frozz fzl_17 fixxis kowari ggf gottagof4st stack reform kujinn _tranquility rock
BeatmapID:2269172
BeatmapSetID:1065834

[Difficulty]
HPDrainRate:5
CircleSize:3.5
OverallDifficulty:9
ApproachRate:9
SliderMultiplier:1.7
SliderTickRate:1

[Events]
//Background and Video events
0,0,"McDrive.jpg",0,0
//Break Periods
//Storyboard Layer 0 (Background)
//Storyboard Layer 1 (Fail)
//Storyboard Layer 2 (Pass)
//Storyboard Layer 3 (Foreground)
//Storyboard Layer 4 (Overlay)
//Storyboard Sound Samples

[TimingPoints]
480,329.67032967033,4,2,1,50,1,0
11029,-166.666666666667,4,2,1,50,0,0
21578,-117.647058823529,4,2,1,50,0,0
29490,-117.647058823529,4,2,1,50,0,0
30809,-200,4,2,1,60,0,0
31386,-200,4,2,1,60,0,0
31469,-133.333333333333,4,2,1,60,0,0
32128,-86.9565217391304,4,2,1,80,0,1
42677,-100,4,2,1,60,0,0
61139,-100,4,2,1,65,0,0
62458,-200,4,2,1,70,0,0
63034,-200,4,2,1,70,0,0
63117,-100,4,2,1,70,0,0
63776,-86.9565217391304,4,2,1,80,0,1
73666,-100,4,2,1,80,0,0
74326,-86.9565217391304,4,2,1,80,0,1
79600,-86.9565217391303,4,2,1,80,0,0
82238,-133.333333333333,4,2,1,80,0,1
83556,-100,4,2,1,50,0,0
84875,-86.9565217391304,4,2,1,60,0,0
95425,-86.9565217391303,4,2,1,60,0,1
105809,-100,4,2,1,60,0,0

[Colours]
Combo1 : 192,192,192
Combo2 : 0,128,255
Combo3 : 0,255,64

[HitObjects]
66,28,11029,6,0,P|82:71|66:128,1,101.999996887207,6|2,1:2|1:2,0:0:0:0:
11,183,11523,1,2,0:0:0:0:
11,183,11688,2,0,L|71:198,1,50.9999984436036,2|2,1:2|0:0,0:0:0:0:
128,253,12018,2,0,L|177:240,1,50.9999984436036,2|2,1:2|0:0,0:0:0:0:
260,202,12348,6,0,L|272:152,1,50.9999984436036,2|2,1:2|0:0,0:0:0:0:
336,262,12677,2,0,L|348:311,1,50.9999984436036,2|2,1:2|0:0,0:0:0:0:
405,200,13007,1,2,1:2:0:0:
405,200,13172,2,0,L|463:184,1,50.9999984436036,2|0,0:0|1:2,0:0:0:0:
348,311,13501,6,0,P|318:315|255:266,1,101.999996887207,2|0,0:0|0:0,0:0:0:0:
188,230,13996,1,2,1:2:0:0:
188,230,14161,2,0,L|196:171,1,50.9999984436036,2|0,0:0|1:0,0:0:0:0:
279,141,14490,2,0,L|271:82,1,50.9999984436036,2|0,0:0|1:0,0:0:0:0:
202,27,14820,1,2,0:0:0:0:
202,27,14985,6,0,P|173:33|141:40,1,50.9999984436036,0|0,1:2|0:0,0:0:0:0:
66,108,15315,2,0,P|95:114|127:121,1,50.9999984436036,0|0,1:2|0:0,0:0:0:0:
217,180,15644,2,0,P|188:186|156:193,1,50.9999984436036,0|0,1:2|0:0,0:0:0:0:
81,259,15974,2,0,P|110:265|142:272,1,50.9999984436036,0|2,1:2|0:0,0:0:0:0:
203,366,16304,6,0,P|228:332|301:346,1,101.999996887207,6|2,1:2|1:2,0:0:0:0:
373,372,16798,1,2,0:0:0:0:
373,372,16963,2,0,L|380:312,1,50.9999984436036,2|2,1:2|0:0,0:0:0:0:
312,247,17293,2,0,L|305:187,1,50.9999984436036,2|2,1:2|0:0,0:0:0:0:
355,104,17622,6,0,L|415:88,1,50.9999984436036,2|2,1:2|0:0,0:0:0:0:
301,20,17952,2,0,L|241:4,1,50.9999984436036,2|2,1:2|0:0,0:0:0:0:
181,77,18282,1,2,1:2:0:0:
181,77,18447,1,2,0:0:0:0:
113,12,18611,2,0,L|63:25,1,50.9999984436036,2|0,1:2|0:0,0:0:0:0:
2,110,18941,6,0,L|16:178,1,50.9999984436036,0|0,1:2|0:0,0:0:0:0:
87,213,19271,2,0,L|73:281,1,50.9999984436036,0|0,1:2|0:0,0:0:0:0:
34,363,19600,2,0,L|99:346,1,50.9999984436036,0|0,1:2|0:0,0:0:0:0:
169,293,19930,2,0,L|218:305,1,50.9999984436036,0|0,1:2|0:0,0:0:0:0:
346,372,20260,6,0,P|397:370|439:323,1,101.999996887207,2|0,1:2|1:2,0:0:0:0:
370,286,20754,1,0,0:0:0:0:
370,286,20919,2,0,L|361:218,1,50.9999984436036,2|0,1:2|0:0,0:0:0:0:
367,91,21249,2,0,L|360:141,1,50.9999984436036,8|2,1:2|0:0,0:0:0:0:
252,222,21578,6,0,P|210:240|107:200,1,144.500002756119,6|2,1:2|1:2,0:0:0:0:
27,115,22073,2,0,P|34:69|43:11,1,72.2500013780594,2|0,0:0|1:2,0:0:0:0:
30,227,22403,2,0,P|35:262|40:298,1,72.2500013780594,2|0,0:0|1:2,0:0:0:0:
117,132,22732,5,2,0:0:0:0:
117,132,22815,1,2,0:0:0:0:
117,132,22897,2,0,P|166:109|263:142,1,144.500002756119,2|2,1:2|1:2,0:0:0:0:
348,221,23392,2,2,P|391:207|442:206,1,72.2500013780594,2|2,0:0|1:2,0:0:0:0:
414,85,23721,2,0,P|378:80|344:68,1,72.2500013780594,2|2,0:0|1:3,0:0:0:0:
223,191,24051,5,2,0:0:0:0:
223,191,24133,1,2,0:0:0:0:
223,191,24216,2,0,P|241:258|229:354,1,144.500002756119,0|0,1:2|1:2,0:0:0:0:
115,194,24710,1,2,0:0:0:0:
115,194,24875,2,0,P|123:151|157:125,1,72.2500013780594,2|2,1:2|0:0,0:0:0:0:
223,221,25205,1,2,1:2:0:0:
146,322,25370,1,2,0:0:0:0:
146,322,25452,1,2,0:0:0:0:
146,322,25534,6,0,P|104:332|68:323,1,72.2500013780594,0|0,1:2|0:0,0:0:0:0:
231,204,25864,2,0,P|273:194|309:203,1,72.2500013780594,0|0,1:2|0:0,0:0:0:0:
144,312,26194,2,0,P|102:322|66:313,1,72.2500013780594,0|0,1:2|0:0,0:0:0:0:
15,132,26523,1,0,1:2:0:0:
102,223,26688,1,2,0:0:0:0:
200,70,26853,6,0,B|241:55|285:75|260:81|302:100|354:79,1,144.500002756119,6|2,1:2|1:2,0:0:0:0:
469,27,27348,2,0,L|452:115,1,72.2500013780594,2|0,0:0|1:2,0:0:0:0:
386,178,27677,2,0,L|403:266,1,72.2500013780594,2|0,0:0|1:2,0:0:0:0:
474,350,28007,1,2,0:0:0:0:
323,290,28172,6,0,P|267:282|217:366,1,144.500002756119,0|0,1:2|1:2,0:0:0:0:
71,242,28666,2,0,L|85:332,1,72.2500013780594,2|2,0:0|1:2,0:0:0:0:
208,189,28996,1,2,0:0:0:0:
117,76,29161,1,10,1:2:0:0:
99,71,29243,1,8,0:0:0:0:
75,66,29326,2,8,L|29:53,2,36.1250006890297,8|8|8,0:0|0:0|1:2,0:0:0:0:
389,330,30809,6,0,P|444:330|469:226,1,170,2|2,0:0|0:0,0:0:0:0:
427,163,31633,1,0,1:2:0:0:
427,163,31798,2,0,P|433:108|437:71,1,63.7500024318696,8|0,0:0|0:0,0:0:0:0:
339,10,32128,6,0,P|285:34|227:19,1,97.7500018644333,6|0,1:2|0:0,0:0:0:0:
62,153,32458,2,0,P|110:150|153:172,1,97.7500018644333,8|0,0:0|0:0,0:0:0:0:
242,348,32787,1,0,1:2:0:0:
89,260,32952,1,0,1:2:0:0:
323,180,33117,2,0,P|341:227|326:295,1,97.7500018644333,8|0,0:0|0:0,0:0:0:0:
249,59,33447,6,0,P|310:42|375:23,1,97.7500018644333,0|0,1:2|1:0,0:0:0:0:
104,199,33776,2,0,P|43:182|-22:163,1,97.7500018644333,8|0,0:0|0:0,0:0:0:0:
133,55,34106,1,0,1:2:0:0:
225,207,34271,1,0,1:2:0:0:
365,105,34436,2,0,P|378:58|353:-4,1,97.7500018644333,8|0,0:0|0:0,0:0:0:0:
336,267,34765,5,2,1:2:0:0:
336,267,34930,2,0,P|387:270|440:291,1,97.7500018644333,2|8,1:2|0:0,0:0:0:0:
202,134,35260,1,2,1:2:0:0:
202,134,35425,2,0,P|156:150|107:152,1,97.7500018644333,2|0,0:0|1:2,0:0:0:0:
325,190,35754,5,10,0:0:0:0:
251,35,35919,1,2,1:2:0:0:
216,237,36084,1,0,0:0:0:0:
333,88,36249,5,2,1:2:0:0:
369,270,36414,1,10,0:0:0:0:
238,133,36578,1,0,0:0:0:0:
130,329,36743,6,0,P|178:337|224:351,1,97.7500018644333,0|0,1:2|1:2,0:0:0:0:
85,89,37073,2,8,P|52:93|25:102,3,48.8750009322167,10|8|8|8,0:0|0:0|0:0|0:0,0:0:0:0:
12,141,37403,6,0,P|23:197|33:258,1,97.7500018644333,6|0,1:2|0:0,0:0:0:0:
236,145,37732,2,0,P|247:89|257:28,1,97.7500018644333,8|0,0:0|0:0,0:0:0:0:
110,199,38062,1,0,1:2:0:0:
282,275,38227,1,0,1:2:0:0:
144,80,38392,2,0,P|89:81|44:124,1,97.7500018644333,8|0,0:0|0:0,0:0:0:0:
352,226,38721,6,0,P|407:225|452:182,1,97.7500018644333,0|0,1:2|0:0,0:0:0:0:
310,15,39051,2,0,P|294:71|286:135,1,97.7500018644333,8|0,0:0|0:0,0:0:0:0:
397,314,39381,1,0,1:2:0:0:
244,241,39545,1,0,1:2:0:0:
443,127,39710,2,0,P|459:183|467:247,1,97.7500018644333,8|0,0:0|0:0,0:0:0:0:
298,314,40040,5,6,1:2:0:0:
344,143,40205,1,0,1:2:0:0:
399,285,40370,1,8,0:0:0:0:
347,103,40534,1,0,1:2:0:0:
199,246,40699,5,0,1:2:0:0:
251,73,40864,1,0,1:2:0:0:
305,287,41029,1,8,0:0:0:0:
239,107,41194,1,0,1:2:0:0:
209,356,41359,6,0,P|153:348|116:295,1,97.7500018644333,8|0,0:0|1:2,0:0:0:0:
372,145,41688,2,0,P|428:153|465:206,1,97.7500018644333,8|0,0:0|1:2,0:0:0:0:
324,319,42018,1,8,0:0:0:0:
205,156,42183,2,0,L|200:92,2,48.8750009322167,0|0|8,1:2|1:2|0:0,0:0:0:0:
375,21,42512,1,10,0:0:0:0:
375,21,42595,1,8,0:0:0:0:
375,21,42677,6,0,P|426:35|470:40,1,85,6|0,1:2|0:0,0:0:0:0:
377,190,43007,1,10,0:0:0:0:
377,190,43172,2,0,P|336:201|294:208,1,85,2|0,0:0|0:0,0:0:0:0:
166,21,43501,2,0,P|207:27|248:39,1,85,2|8,1:2|0:0,0:0:0:0:
231,271,43831,6,0,P|207:222|219:166,1,85,2|0,1:2|0:0,0:0:0:0:
373,57,44161,1,2,1:2:0:0:
373,57,44326,2,0,P|397:106|385:162,1,85,10|0,0:0|0:0,0:0:0:0:
230,263,44655,2,0,P|181:250|132:236,1,85,0|2,1:2|1:2,0:0:0:0:
253,105,44985,1,10,0:0:0:0:
334,212,45150,1,2,0:0:0:0:
151,123,45315,6,0,P|156:60|256:15,1,170,2|10,1:2|0:0,0:0:0:0:
372,103,45809,2,0,P|421:122|471:120,1,85,2|0,0:0|0:0,0:0:0:0:
288,190,46139,1,2,1:2:0:0:
372,287,46304,2,0,P|414:283|452:266,1,85,10|0,0:0|1:2,0:0:0:0:
213,130,46633,6,0,P|195:181|204:234,1,85,2|0,0:0|1:2,0:0:0:0:
261,352,46963,1,10,0:0:0:0:
128,274,47128,1,0,0:0:0:0:
128,274,47210,1,2,0:0:0:0:
128,274,47293,2,0,P|75:263|30:254,1,85,0|0,1:2|1:2,0:0:0:0:
284,194,47622,1,10,0:0:0:0:
171,68,47787,5,8,0:0:0:0:
171,68,47870,1,8,0:0:0:0:
171,68,47952,2,0,P|129:76|87:85,1,85,4|0,1:2|0:0,0:0:0:0:
308,164,48282,2,0,P|321:116|302:64,1,85,10|2,0:0|0:0,0:0:0:0:
150,203,48611,1,2,1:2:0:0:
290,257,48776,1,2,1:2:0:0:
165,199,48941,1,10,0:0:0:0:
197,326,49106,1,2,1:2:0:0:
330,182,49271,5,2,0:0:0:0:
330,182,49436,2,0,P|384:174|432:167,1,85,2|10,1:2|0:0,0:0:0:0:
328,374,49765,1,2,0:0:0:0:
244,222,49930,1,2,1:2:0:0:
403,271,50095,1,2,1:2:0:0:
234,380,50260,2,0,P|180:372|132:365,1,85,10|0,0:0|0:0,0:0:0:0:
28,160,50589,6,0,P|89:152|152:249,2,170,2|10|0,1:2|0:0|0:0,0:0:0:0:
58,279,51414,1,0,1:2:0:0:
168,148,51578,2,0,P|212:129|275:137,1,85,8|0,0:0|1:2,0:0:0:0:
419,359,51908,6,0,P|430:296|442:248,1,85,2|0,0:0|1:2,0:0:0:0:
326,63,52238,2,0,P|334:104|341:146,1,85,8|0,0:0|0:0,0:0:0:0:
301,318,52567,2,0,P|290:255|278:207,1,85,2|0,1:2|0:0,0:0:0:0:
453,40,52897,2,0,P|444:81|437:123,1,85,8|2,0:0|0:0,0:0:0:0:
509,180,53144,1,0,1:0:0:0:
509,180,53227,6,0,P|444:167|381:259,1,170,6|10,1:2|1:2,0:0:0:0:
223,336,53721,2,0,P|288:350|336:363,1,85,2|0,1:2|0:0,0:0:0:0:
174,161,54051,2,0,P|109:175|61:188,1,85,2|8,1:2|0:0,0:0:0:0:
332,152,54381,6,0,P|345:106|324:50,1,85,2|0,1:2|0:0,0:0:0:0:
179,19,54710,1,2,1:2:0:0:
280,248,54875,2,0,P|331:264|387:249,1,85,10|0,1:2|0:0,0:0:0:0:
97,169,55205,1,0,1:2:0:0:
248,95,55370,1,2,1:2:0:0:
143,275,55534,2,0,P|92:291|36:276,1,85,10|2,1:2|0:0,0:0:0:0:
31,87,55864,5,0,1:2:0:0:
195,145,56029,1,0,1:2:0:0:
7,207,56194,1,10,1:2:0:0:
173,54,56359,2,0,P|215:51|254:66,1,85,2|0,1:2|0:0,0:0:0:0:
201,249,56688,2,0,P|161:263|119:261,1,85,2|10,1:2|0:0,0:0:0:0:
337,127,57018,2,0,P|358:166|361:222,1,85,0|0,1:2|0:0,0:0:0:0:
243,305,57348,5,0,1:2:0:0:
147,110,57512,2,0,P|126:147|121:188,1,85,8|0,1:2|0:0,0:0:0:0:
186,368,57842,1,2,1:2:0:0:
259,192,58007,1,0,1:2:0:0:
351,375,58172,2,0,P|372:338|377:297,1,85,8|0,0:0|0:0,0:0:0:0:
323,57,58501,6,0,P|370:39|433:59,1,85,4|0,1:2|1:2,0:0:0:0:
263,268,58831,2,0,P|220:270|182:253,1,85,0|2,1:2|1:2,0:0:0:0:
381,129,59161,1,10,1:2:0:0:
308,286,59326,1,8,1:2:0:0:
238,131,59490,1,10,1:2:0:0:
393,227,59655,1,10,1:2:0:0:
134,162,59820,6,0,P|128:107|156:57,1,85,4|0,1:2|1:2,0:0:0:0:
308,286,60150,2,0,P|314:341|286:391,1,85,0|2,1:2|1:2,0:0:0:0:
218,129,60480,1,10,1:2:0:0:
234,323,60644,1,10,1:2:0:0:
109,200,60809,1,8,1:2:0:0:
293,257,60974,1,8,1:2:0:0:
151,374,61139,6,0,P|104:367|52:360,1,85,6|0,1:2|1:2,0:0:0:0:
41,356,61386,1,0,1:2:0:0:
41,356,61469,2,0,L|-8:365,3,42.5,0|0|0|0,1:2|1:2|1:2|1:2,0:0:0:0:
113,263,61798,2,0,L|154:270,3,42.5,8|8|8|8,0:0|0:0|0:0|0:0,0:0:0:0:
24,205,62128,1,8,0:0:0:0:
22,179,62210,1,8,0:0:0:0:
20,153,62293,1,8,0:0:0:0:
17,127,62375,1,8,0:0:0:0:
18,98,62458,6,0,P|51:68|159:99,1,148.75,10|0,0:0|0:0,0:0:0:0:
199,28,63117,2,0,P|184:100|206:218,1,170,0|4,0:0|0:3,0:0:0:0:
431,357,63776,6,0,P|439:301|460:245,1,97.7500018644333,6|0,1:2|0:0,0:0:0:0:
279,47,64106,2,0,P|294:97|301:147,1,97.7500018644333,10|0,0:0|0:0,0:0:0:0:
440,75,64436,1,2,1:2:0:0:
349,264,64600,1,0,0:0:0:0:
196,114,64765,2,0,P|147:92|87:105,1,97.7500018644333,10|0,0:0|0:0,0:0:0:0:
230,359,65095,6,0,P|278:362|321:341,1,97.7500018644333,2|0,1:2|0:0,0:0:0:0:
130,180,65425,2,0,P|108:236|112:306,1,97.7500018644333,10|0,0:0|0:0,0:0:0:0:
329,99,65754,1,2,1:2:0:0:
169,27,65919,1,0,0:0:0:0:
299,229,66084,2,0,P|364:216|424:204,1,97.7500018644333,10|0,0:0|0:0,0:0:0:0:
193,19,66414,6,0,P|128:6|68:-6,1,97.7500018644333,2|2,1:2|0:0,0:0:0:0:
110,219,66743,1,8,0:0:0:0:
286,95,66908,2,0,P|351:82|411:70,1,97.7500018644333,2|2,0:0|1:2,0:0:0:0:
369,295,67237,1,0,0:0:0:0:
149,114,67403,6,0,P|169:173|190:243,1,97.7500018644333,10|2,0:0|0:0,0:0:0:0:
137,348,67732,1,0,1:2:0:0:
328,56,67897,2,0,P|308:115|287:185,1,97.7500018644333,2|10,0:0|0:0,0:0:0:0:
340,290,68226,1,0,0:0:0:0:
170,39,68392,2,0,P|122:34|80:58,1,97.7500018644333,2|2,1:2|0:0,0:0:0:0:
216,261,68721,1,8,0:0:0:0:
330,53,68886,5,10,0:0:0:0:
330,53,68969,1,8,0:0:0:0:
330,53,69051,2,0,P|401:47|465:156,1,195.500003728867,6|10,1:2|0:0,0:0:0:0:
377,280,69545,2,0,P|318:270|287:223,1,97.7500018644333,2|0,0:0|1:0,0:0:0:0:
220,98,69875,1,2,0:0:0:0:
131,246,70040,1,10,0:0:0:0:
368,152,70205,5,2,1:2:0:0:
368,152,70287,1,2,1:2:0:0:
368,152,70370,2,0,P|352:248|335:372,1,195.500003728867,2|10,1:2|0:0,0:0:0:0:
225,99,70864,1,2,0:0:0:0:
108,248,71029,2,0,P|93:183|75:107,1,97.7500018644333,0|0,1:0|0:0,0:0:0:0:
283,232,71359,1,8,0:0:0:0:
165,373,71523,5,2,0:0:0:0:
165,373,71606,1,2,0:0:0:0:
165,373,71688,2,0,P|101:357|46:345,1,97.7500018644333,2|0,1:2|0:0,0:0:0:0:
216,157,72018,1,8,0:0:0:0:
323,325,72183,2,0,P|387:309|442:297,1,97.7500018644333,2|0,0:0|1:2,0:0:0:0:
304,109,72512,1,0,0:0:0:0:
221,244,72677,1,10,0:0:0:0:
152,91,72842,1,2,0:0:0:0:
139,257,73007,5,8,0:0:0:0:
232,59,73172,1,0,1:2:0:0:
299,279,73337,1,8,0:0:0:0:
149,127,73501,1,0,1:2:0:0:
100,331,73666,1,10,0:0:0:0:
228,206,73831,1,0,1:2:0:0:
64,81,73996,1,10,0:0:0:0:
64,81,74078,1,8,0:0:0:0:
64,81,74161,1,8,0:0:0:0:
64,81,74243,1,8,0:0:0:0:
64,81,74326,6,0,P|87:140|96:204,1,97.7500018644333,6|0,1:2|0:0,0:0:0:0:
286,321,74655,2,0,P|296:273|315:228,1,97.7500018644333,10|0,0:0|0:0,0:0:0:0:
192,34,74985,1,2,1:2:0:0:
365,101,75150,1,0,0:0:0:0:
183,233,75315,2,0,P|134:255|81:250,1,97.7500018644333,10|0,0:0|0:0,0:0:0:0:
340,14,75644,6,0,P|388:13|432:34,1,97.7500018644333,2|0,1:2|0:0,0:0:0:0:
482,268,75974,2,0,P|433:268|389:247,1,97.7500018644333,10|0,0:0|0:0,0:0:0:0:
214,105,76304,1,2,1:2:0:0:
256,293,76469,1,0,0:0:0:0:
377,94,76633,2,0,P|356:147|344:215,1,97.7500018644333,10|0,0:0|0:0,0:0:0:0:
154,354,76963,6,0,P|85:344|49:305,1,97.7500018644333,2|0,1:2|0:0,0:0:0:0:
167,111,77293,1,10,0:0:0:0:
269,263,77458,1,2,0:0:0:0:
21,206,77622,2,0,P|11:147|18:88,1,97.7500018644333,2|0,1:2|0:0,0:0:0:0:
293,20,77952,2,0,P|303:79|296:138,1,97.7500018644333,10|2,0:0|0:0,0:0:0:0:
120,284,78282,6,0,P|169:255|230:260,1,97.7500018644333,0|0,1:0|0:0,0:0:0:0:
467,330,78611,1,10,0:0:0:0:
370,185,78776,1,2,0:0:0:0:
281,371,78941,2,0,P|232:367|192:340,1,97.7500018644333,0|0,1:0|0:0,0:0:0:0:
280,101,79271,1,10,0:0:0:0:
386,303,79436,1,10,0:0:0:0:
386,303,79518,1,10,0:0:0:0:
386,303,79600,6,0,P|398:239|408:172,1,97.7500018644333,6|0,1:2|0:0,0:0:0:0:
121,83,79930,2,0,P|128:131|138:179,1,97.7500018644333,0|0,1:2|0:0,0:0:0:0:
330,112,80260,1,0,1:2:0:0:
246,273,80425,1,0,0:0:0:0:
199,61,80589,1,0,1:2:0:0:
335,232,80754,1,10,0:0:0:0:
335,232,80837,1,10,0:0:0:0:
335,232,80919,6,0,P|294:199|162:250,1,195.500003728867,4|0,1:2|1:2,0:0:0:0:
251,334,81414,1,0,0:0:0:0:
42,311,81578,2,0,P|22:260|33:204,1,97.7500018644333,0|2,1:2|0:0,0:0:0:0:
226,57,81908,2,0,P|246:108|235:164,1,97.7500018644333,2|2,1:2|0:0,0:0:0:0:
153,322,82238,5,14,0:0:0:0:
112,142,82403,1,0,1:0:0:0:
291,218,82567,1,0,1:0:0:0:
81,251,82732,5,14,0:0:0:0:
214,128,82897,1,0,1:0:0:0:
242,309,83062,1,0,1:0:0:0:
73,113,83227,5,14,0:0:0:0:
73,113,83309,1,8,0:0:0:0:
73,113,83392,2,0,L|80:59,2,31.8750012159348,8|8|14,0:0|0:0|1:2,0:0:0:0:
414,217,84545,5,4,0:3:0:0:
414,217,84875,6,0,P|423:154|433:98,1,97.7500018644333,4|0,1:2|0:0,0:0:0:0:
179,25,85205,2,0,P|187:73|193:121,1,97.7500018644333,8|0,0:0|0:0,0:0:0:0:
262,319,85534,1,0,1:2:0:0:
108,236,85699,1,0,1:2:0:0:
305,168,85864,2,0,P|362:167|410:211,1,97.7500018644333,8|0,0:0|0:0,0:0:0:0:
125,349,86194,6,0,P|68:350|20:306,1,97.7500018644333,0|0,1:2|1:2,0:0:0:0:
181,87,86523,2,0,P|205:142|214:209,1,97.7500018644333,8|0,0:0|0:0,0:0:0:0:
374,114,86853,1,0,1:2:0:0:
286,306,87018,1,0,1:2:0:0:
164,152,87183,2,0,P|107:151|59:195,1,97.7500018644333,8|0,0:0|0:0,0:0:0:0:
389,371,87512,5,2,1:2:0:0:
389,371,87677,2,0,P|399:307|413:230,1,97.7500018644333,2|8,1:2|0:0,0:0:0:0:
163,151,88007,1,2,0:0:0:0:
163,151,88172,2,0,P|171:199|179:248,1,97.7500018644333,2|0,1:2|1:2,0:0:0:0:
365,81,88501,5,10,0:0:0:0:
289,278,88666,1,2,0:0:0:0:
217,48,88831,1,0,1:2:0:0:
199,276,88996,5,2,1:2:0:0:
276,111,89161,1,10,0:0:0:0:
351,311,89326,1,0,0:0:0:0:
182,150,89490,6,0,P|122:141|70:126,1,97.7500018644333,2|0,1:2|0:0,0:0:0:0:
30,335,89820,2,8,P|65:326|95:321,3,48.8750009322167,10|8|8|8,0:0|0:0|0:0|0:0,0:0:0:0:
108,340,90150,6,0,P|168:349|220:364,1,97.7500018644333,6|0,1:2|0:0,0:0:0:0:
454,251,90480,2,0,P|394:260|342:275,1,97.7500018644333,8|0,0:0|0:0,0:0:0:0:
184,172,90809,1,0,1:2:0:0:
247,352,90974,1,0,1:2:0:0:
350,94,91139,2,0,P|322:145|311:224,1,97.7500018644333,8|0,0:0|0:0,0:0:0:0:
173,30,91469,6,0,P|125:8|58:15,1,97.7500018644333,0|0,1:2|0:0,0:0:0:0:
283,280,91798,2,0,P|331:279|375:257,1,97.7500018644333,8|0,0:0|0:0,0:0:0:0:
106,135,92128,1,0,1:2:0:0:
267,48,92293,1,0,1:2:0:0:
118,270,92458,2,0,P|69:269|25:247,1,97.7500018644333,8|0,0:0|0:0,0:0:0:0:
238,103,92787,5,2,1:2:0:0:
232,305,92952,1,2,1:2:0:0:
118,145,93117,1,8,0:0:0:0:
313,214,93282,1,2,0:0:0:0:
117,295,93447,1,2,1:2:0:0:
319,236,93611,1,0,1:2:0:0:
120,192,93776,1,10,0:0:0:0:
247,347,93941,1,0,0:0:0:0:
258,126,94106,6,0,P|270:67|285:8,1,97.7500018644333,8|0,0:0|1:2,0:0:0:0:
465,203,94436,2,0,P|476:250|485:298,1,97.7500018644333,10|0,0:0|1:2,0:0:0:0:
229,280,94765,1,10,0:0:0:0:
362,90,94930,2,0,L|417:80,2,48.8750009322167,0|0|10,1:2|1:2|0:0,0:0:0:0:
361,269,95260,1,8,0:0:0:0:
361,269,95342,1,8,0:0:0:0:
361,269,95425,5,6,1:2:0:0:
201,142,95589,1,0,1:2:0:0:
389,239,95754,1,0,1:2:0:0:
177,284,95919,1,0,1:2:0:0:
335,142,96084,1,8,0:0:0:0:
290,340,96249,1,0,1:2:0:0:
108,186,96414,2,0,P|90:130|104:61,1,97.7500018644333,0|0,1:2|1:2,0:0:0:0:
280,58,96743,5,0,1:2:0:0:
228,263,96908,1,0,1:2:0:0:
117,76,97073,1,0,1:2:0:0:
335,162,97238,1,0,1:2:0:0:
125,267,97403,1,8,0:0:0:0:
247,108,97567,1,0,1:2:0:0:
302,346,97732,2,0,P|247:369|182:361,1,97.7500018644333,0|0,1:2|1:2,0:0:0:0:
461,93,98062,5,2,1:2:0:0:
461,93,98227,2,0,L|445:198,1,97.7500018644333,2|0,1:2|1:2,0:0:0:0:
135,287,98556,1,2,1:2:0:0:
135,287,98721,2,0,L|120:190,1,97.7500018644333,10|0,0:0|1:2,0:0:0:0:
294,40,99051,5,2,1:2:0:0:
338,281,99216,1,2,1:2:0:0:
206,97,99381,1,0,1:2:0:0:
220,319,99545,5,2,1:2:0:0:
340,126,99710,1,2,1:2:0:0:
320,375,99875,1,0,1:2:0:0:
182,198,100040,6,0,P|123:176|56:160,1,97.7500018644333,10|0,0:0|1:2,0:0:0:0:
312,21,100370,2,0,P|351:13|385:8,3,48.8750009322167,8|8|8|8,0:0|0:0|0:0|0:0,0:0:0:0:
402,28,100699,6,0,P|420:82|434:151,1,97.7500018644333,6|0,1:2|0:0,0:0:0:0:
194,208,101029,5,8,0:0:0:0:
411,277,101194,1,0,1:2:0:0:
153,214,101359,1,8,0:0:0:0:
387,166,101523,1,0,1:2:0:0:
104,277,101688,1,8,0:0:0:0:
397,348,101853,1,0,1:2:0:0:
195,118,102018,6,0,P|134:128|59:141,1,97.7500018644333,8|0,0:0|1:2,0:0:0:0:
199,302,102348,5,8,0:0:0:0:
298,69,102512,1,0,1:2:0:0:
334,358,102677,1,8,0:0:0:0:
199,38,102842,1,0,1:2:0:0:
148,321,103007,2,0,L|159:369,2,48.8750009322167,8|8|8,0:0|0:0|0:0,0:0:0:0:
352,260,103337,5,12,0:0:0:0:
87,179,103501,1,0,1:2:0:0:
294,120,103666,1,0,1:2:0:0:
70,94,103831,5,8,0:0:0:0:
343,194,103996,1,0,1:2:0:0:
98,263,104161,1,0,1:2:0:0:
380,285,104326,5,8,0:0:0:0:
120,182,104490,1,0,1:2:0:0:
360,24,104655,6,0,P|379:85|380:143,1,97.7500018644333,8|0,0:0|1:2,0:0:0:0:
152,360,104985,2,0,P|133:299|132:241,1,97.7500018644333,8|0,0:0|1:2,0:0:0:0:
228,57,105315,1,8,0:0:0:0:
342,334,105480,1,8,0:0:0:0:
83,189,105644,1,8,0:0:0:0:
358,80,105809,1,14,0:0:0:0:
