osu file format v14

[General]
AudioFilename: audio.mp3
AudioLeadIn: 0
PreviewTime: 62375
Countdown: 0
SampleSet: Soft
StackLeniency: 0.5
Mode: 0
LetterboxInBreaks: 0
WidescreenStoryboard: 1

[Editor]
Bookmarks: 11029,21578,21908,32128,42677,53227,63776,73666,83556,95425
DistanceSpacing: 2.6
BeatDivisor: 4
GridSize: 4
TimelineZoom: 2

[Metadata]
Title:Overdrive
TitleUnicode:Overdrive
Artist:Harada Hitomi
ArtistUnicode:原田ひとみ
Creator:Fall
Version:Fixxis & Kowari's Extra
Source:VALKYRIE DRIVE -MERMAID-
Tags:ヴァルキリードライヴ マーメイド op opening japanese anime DeRandom Otaku Ren frozz fzl_17 fixxis kowari ggf gottagof4st stack reform kujinn _tranquility rock
BeatmapID:2282103
BeatmapSetID:1065834

[Difficulty]
HPDrainRate:6
CircleSize:3.8
OverallDifficulty:9.3
ApproachRate:9.2
SliderMultiplier:1.6
SliderTickRate:1

[Events]
//Background and Video events
0,0,"McDrive.jpg",0,0
//Break Periods
//Storyboard Layer 0 (Background)
//Storyboard Layer 1 (Fail)
//Storyboard Layer 2 (Pass)
//Storyboard Layer 3 (Foreground)
//Storyboard Layer 4 (Overlay)
//Storyboard Sound Samples

[TimingPoints]
480,329.67032967033,4,2,1,50,1,0
11029,-125,4,2,1,50,0,0
21578,-111.111111111111,4,2,1,50,0,0
30809,-111.111111111111,4,2,1,60,0,0
32128,-99.9999999999999,4,2,1,80,0,0
42677,-100,4,2,1,60,0,0
53227,-111.111111111111,4,2,1,60,0,0
61139,-111.111111111111,4,2,1,65,0,0
62458,-111.111111111111,4,2,1,70,0,0
63776,-100,4,2,1,80,0,0
64436,-111.111111111111,4,2,1,80,0,0
74326,-99.9999999999999,4,2,1,80,0,0
83556,-99.9999999999999,4,2,1,50,0,0
84875,-90.9090909090909,4,2,1,60,0,0

[Colours]
Combo1 : 192,192,192
Combo2 : 0,128,255
Combo3 : 0,255,64

[HitObjects]
370,351,10370,5,12,0:0:0:0:
242,295,10534,1,0,1:0:0:0:
356,200,10699,1,0,1:0:0:0:
392,183,10782,1,0,1:0:0:0:
435,199,10864,1,0,1:0:0:0:
460,236,10947,1,0,1:0:0:0:
442,278,11029,6,0,P|408:275|370:273,1,64,6|0,1:2|0:0,0:0:0:0:
297,378,11359,2,0,P|264:381|233:382,1,64,2|2,1:2|0:0,0:0:0:0:
127,272,11688,1,2,1:2:0:0:
247,234,11853,1,2,0:0:0:0:
207,371,12018,1,2,1:2:0:0:
106,273,12183,1,2,0:0:0:0:
272,230,12348,6,0,P|281:182|274:163,1,64,2|2,1:2|0:0,0:0:0:0:
172,107,12677,2,0,P|166:75|176:45,1,64,2|2,1:2|0:0,0:0:0:0:
286,2,13007,1,2,1:2:0:0:
286,2,13172,2,0,P|351:10|421:19,1,128,2|2,0:0|0:0,0:0:0:0:
489,99,13666,6,0,P|482:148|479:184,1,64,2|0,1:2|0:0,0:0:0:0:
387,238,13996,1,2,1:2:0:0:
387,238,14161,2,0,P|353:220|323:225,1,64,2|0,0:0|1:0,0:0:0:0:
234,289,14490,2,0,P|202:290|175:273,1,64,2|0,0:0|1:0,0:0:0:0:
121,173,14820,1,2,0:0:0:0:
30,250,14985,6,0,B|46:338|46:338|15:373,2,128,0|0|0,1:2|1:2|1:2,0:0:0:0:
0,122,15809,1,0,0:0:0:0:
98,45,15974,2,0,P|142:46|164:62,1,64,0|2,1:2|0:0,0:0:0:0:
221,158,16304,6,0,P|260:153|288:150,1,64,6|0,1:2|0:0,0:0:0:0:
370,254,16633,2,0,P|401:258|433:261,1,64,2|2,1:2|0:0,0:0:0:0:
462,250,16881,1,0,0:0:0:0:
462,250,16963,1,2,1:2:0:0:
509,120,17128,1,2,0:0:0:0:
382,143,17293,1,2,1:2:0:0:
509,120,17458,1,2,0:0:0:0:
448,24,17622,6,0,P|406:17|377:34,1,64,2|2,1:2|0:0,0:0:0:0:
286,92,17952,2,0,P|255:101|225:93,1,64,2|2,1:2|0:0,0:0:0:0:
130,21,18282,1,2,1:2:0:0:
59,125,18447,1,2,0:0:0:0:
158,213,18611,2,0,P|152:267|150:290,1,64,2|0,1:2|0:0,0:0:0:0:
77,362,18941,6,0,P|26:353|-4:346,1,64,0|0,1:2|0:0,0:0:0:0:
253,335,19271,2,0,P|304:326|334:319,1,64,0|0,1:2|0:0,0:0:0:0:
403,223,19600,1,0,1:2:0:0:
311,147,19765,1,0,0:0:0:0:
406,60,19930,2,0,P|458:67|482:70,1,64,0|0,1:2|0:0,0:0:0:0:
311,147,20260,6,0,B|223:145|267:185|173:186,1,128,2|0,1:2|1:2,0:0:0:0:
79,111,20754,1,0,0:0:0:0:
79,111,20837,1,0,0:0:0:0:
79,111,20919,2,0,P|85:67|87:34,1,64,2|0,1:2|0:0,0:0:0:0:
220,0,21249,2,0,P|222:31|227:63,1,64,8|2,1:2|0:0,0:0:0:0:
346,211,21578,6,0,L|359:130,1,71.9999978027344,6|0,1:2|0:0,0:0:0:0:
207,234,21908,2,0,L|195:162,1,71.9999978027344,2|2,1:2|0:0,0:0:0:0:
286,284,22238,1,0,1:2:0:0:
265,124,22403,1,2,0:0:0:0:
43,250,22567,6,0,P|84:222|124:226,1,71.9999978027344,0|2,1:2|0:0,0:0:0:0:
126,234,22815,1,2,0:0:0:0:
126,234,22897,2,0,P|134:146|139:82,1,143.999995605469,2|2,1:2|1:2,0:0:0:0:
301,21,23392,5,2,0:0:0:0:
304,45,23474,1,2,0:0:0:0:
309,71,23556,2,0,L|318:156,1,71.9999978027344,2|2,1:2|0:0,0:0:0:0:
480,56,23886,2,0,P|442:35|405:39,1,71.9999978027344,2|2,1:3|0:0,0:0:0:0:
391,46,24133,1,2,0:0:0:0:
389,46,24216,6,0,L|412:208,1,143.999995605469,0|0,1:2|1:2,0:0:0:0:
352,287,24710,1,2,0:0:0:0:
226,226,24875,2,0,P|282:212|319:234,1,71.9999978027344,2|2,1:2|0:0,0:0:0:0:
251,353,25205,2,0,P|195:367|158:345,1,71.9999978027344,2|2,1:2|0:0,0:0:0:0:
150,360,25452,1,2,0:0:0:0:
150,360,25534,6,0,L|156:276,1,71.9999978027344,0|0,1:2|0:0,0:0:0:0:
38,146,25864,2,0,L|44:230,1,71.9999978027344,0|0,1:2|0:0,0:0:0:0:
239,132,26194,2,0,L|233:203,1,71.9999978027344,0|0,1:2|0:0,0:0:0:0:
132,29,26523,2,0,L|138:113,1,71.9999978027344,0|2,1:2|0:0,0:0:0:0:
146,122,26771,1,0,0:0:0:0:
151,145,26853,5,6,1:2:0:0:
234,20,27018,1,0,0:0:0:0:
354,213,27183,1,2,1:2:0:0:
463,65,27348,1,2,0:0:0:0:
290,120,27512,1,0,1:2:0:0:
460,179,27677,1,2,0:0:0:0:
353,34,27842,1,0,1:2:0:0:
244,197,28007,5,2,0:0:0:0:
132,51,28172,1,0,1:2:0:0:
108,230,28337,1,0,0:0:0:0:
237,84,28501,5,0,1:2:0:0:
56,138,28666,1,2,0:0:0:0:
273,283,28831,5,2,1:2:0:0:
44,153,28996,1,2,0:0:0:0:
348,40,29161,5,10,1:2:0:0:
347,83,29243,1,8,0:0:0:0:
347,129,29326,1,8,0:0:0:0:
346,175,29408,1,8,0:0:0:0:
346,221,29490,1,8,1:2:0:0:
341,240,30809,6,0,P|311:185|152:181,1,215.999993408203,2|0,0:0|0:0,0:0:0:0:
6,280,31469,1,2,0:0:0:0:
81,253,31633,1,0,1:2:0:0:
138,309,31798,1,8,0:0:0:0:
138,309,32128,6,0,L|132:388,1,80,6|0,1:2|0:0,0:0:0:0:
248,135,32458,2,0,L|242:55,1,80,8|0,0:0|0:0,0:0:0:0:
154,210,32787,1,0,1:2:0:0:
351,113,32952,1,0,1:2:0:0:
155,6,33117,1,8,0:0:0:0:
296,217,33282,1,0,0:0:0:0:
397,8,33447,6,0,P|330:-4|300:13,1,80,0|0,1:2|1:0,0:0:0:0:
250,293,33776,2,0,P|317:305|347:288,1,80,8|0,0:0|0:0,0:0:0:0:
483,128,34106,1,0,1:2:0:0:
399,370,34271,1,0,1:2:0:0:
286,124,34436,1,8,0:0:0:0:
512,265,34600,1,0,0:0:0:0:
238,289,34765,5,2,1:2:0:0:
456,136,34930,1,2,1:2:0:0:
238,289,35095,1,8,0:0:0:0:
363,1,35260,5,2,1:2:0:0:
393,244,35425,1,2,0:0:0:0:
147,137,35589,1,0,1:2:0:0:
453,109,35754,5,10,0:0:0:0:
241,301,35919,1,2,1:2:0:0:
453,109,36084,1,0,0:0:0:0:
148,122,36249,5,2,1:2:0:0:
401,229,36414,1,10,0:0:0:0:
343,20,36578,1,0,0:0:0:0:
249,278,36743,5,0,1:2:0:0:
156,20,36908,1,0,1:2:0:0:
11,170,37073,1,10,0:0:0:0:
14,199,37155,1,8,0:0:0:0:
18,229,37237,1,8,0:0:0:0:
22,259,37320,1,8,0:0:0:0:
26,289,37403,6,0,L|124:274,1,80,6|0,1:2|0:0,0:0:0:0:
295,147,37732,2,0,L|197:131,1,80,8|0,0:0|0:0,0:0:0:0:
404,246,38062,1,0,1:2:0:0:
335,31,38227,1,0,1:2:0:0:
278,300,38392,1,8,0:0:0:0:
398,112,38556,1,0,0:0:0:0:
465,323,38721,6,0,P|418:345|377:337,1,80,0|0,1:2|0:0,0:0:0:0:
221,131,39051,2,0,P|260:131|294:150,1,80,8|0,0:0|0:0,0:0:0:0:
70,310,39381,1,0,1:2:0:0:
133,66,39545,1,0,1:2:0:0:
270,270,39710,1,8,0:0:0:0:
25,162,39875,1,0,0:0:0:0:
257,42,40040,5,6,1:2:0:0:
168,255,40205,1,0,1:2:0:0:
257,42,40370,2,0,P|223:16|184:10,1,80,8|0,0:0|1:2,0:0:0:0:
371,217,40699,5,0,1:2:0:0:
130,145,40864,1,0,1:2:0:0:
371,217,41029,2,0,L|389:127,1,80,8|0,0:0|1:2,0:0:0:0:
181,337,41359,5,8,0:0:0:0:
283,31,41523,1,0,1:2:0:0:
435,305,41688,1,8,0:0:0:0:
149,166,41853,1,0,1:2:0:0:
442,63,42018,5,8,0:0:0:0:
367,240,42183,1,0,1:2:0:0:
334,262,42265,1,0,1:2:0:0:
294,267,42347,1,8,0:0:0:0:
257,255,42430,1,8,0:0:0:0:
228,227,42512,2,0,L|235:175,1,40,10|8,0:0|0:0,0:0:0:0:
213,113,42677,6,0,P|225:196|239:301,1,160,6|10,1:2|0:0,0:0:0:0:
109,359,43172,2,0,L|119:270,1,80,2|0,0:0|0:0,0:0:0:0:
26,149,43501,1,2,1:2:0:0:
146,183,43666,1,8,0:0:0:0:
162,35,43831,6,0,L|76:55,1,80,2|0,1:2|0:0,0:0:0:0:
257,187,44161,1,2,1:2:0:0:
257,187,44326,2,0,P|297:180|314:56,1,160,10|0,0:0|1:2,0:0:0:0:
491,260,44820,5,2,1:2:0:0:
433,128,44985,1,10,0:0:0:0:
310,304,45150,2,0,P|386:322|485:345,1,160,2|0,0:0|0:0,0:0:0:0:
390,231,45644,1,10,0:0:0:0:
234,365,45809,2,0,P|216:316|234:261,1,80,2|0,0:0|0:0,0:0:0:0:
126,192,46139,6,0,L|23:212,2,80,2|10|0,1:2|0:0|1:2,0:0:0:0:
276,55,46633,1,2,0:0:0:0:
250,187,46798,1,0,1:2:0:0:
139,55,46963,1,10,0:0:0:0:
340,138,47128,1,0,0:0:0:0:
340,138,47210,1,2,0:0:0:0:
340,138,47293,5,0,1:2:0:0:
224,316,47458,1,0,1:2:0:0:
205,110,47622,1,10,0:0:0:0:
340,281,47787,1,8,0:0:0:0:
340,281,47870,1,8,0:0:0:0:
340,281,47952,6,0,P|347:215|354:133,1,120,4|0,1:2|0:0,0:0:0:0:
340,138,48282,2,0,L|332:51,1,80,10|2,0:0|0:0,0:0:0:0:
250,197,48611,1,2,1:2:0:0:
126,63,48776,1,2,1:2:0:0:
137,238,48941,1,10,0:0:0:0:
228,91,49106,1,2,1:2:0:0:
68,156,49271,5,2,0:0:0:0:
207,314,49436,1,2,1:2:0:0:
164,151,49600,1,10,0:0:0:0:
123,355,49765,1,2,0:0:0:0:
238,202,49930,5,2,1:2:0:0:
38,281,50095,1,2,1:2:0:0:
281,383,50260,2,0,P|306:334|279:265,1,120,10|0,0:0|0:0,0:0:0:0:
281,271,50589,1,2,1:2:0:0:
305,123,50754,1,0,0:0:0:0:
366,259,50919,5,10,0:0:0:0:
229,187,51084,1,0,0:0:0:0:
463,190,51249,2,0,P|424:179|385:170,1,80,0|0,0:0|1:2,0:0:0:0:
259,40,51578,2,0,P|297:29|336:20,1,80,8|0,0:0|1:2,0:0:0:0:
276,251,51908,6,0,B|195:228|148:271|174:296|126:342|45:318,1,240,2|0,0:0|0:0,0:0:0:0:
74,306,52567,6,0,B|118:281|158:306|144:325|175:354|225:344,1,160,2|8,1:2|0:0,0:0:0:0:
433,319,53062,1,2,0:0:0:0:
394,285,53144,1,0,1:0:0:0:
343,304,53227,1,6,1:2:0:0:
466,150,53392,2,0,P|472:197|478:237,1,71.9999978027344,0|10,1:2|1:2,0:0:0:0:
387,62,53721,2,0,P|353:115|253:109,1,143.999995605469,2|2,1:2|1:2,0:0:0:0:
126,52,54216,1,8,0:0:0:0:
158,224,54381,6,0,P|167:172|173:137,1,71.9999978027344,2|0,1:2|0:0,0:0:0:0:
14,58,54710,1,2,1:2:0:0:
14,58,54875,2,0,P|21:117|24:145,1,71.9999978027344,10|0,1:2|0:0,0:0:0:0:
22,294,55205,1,0,1:2:0:0:
148,210,55370,1,2,1:2:0:0:
6,286,55534,1,10,1:2:0:0:
151,378,55699,5,2,0:0:0:0:
151,378,55782,1,0,0:0:0:0:
151,378,55864,2,0,P|204:382|228:370,1,71.9999978027344,0|0,1:2|1:2,0:0:0:0:
304,261,56194,1,10,1:2:0:0:
171,204,56359,2,0,P|180:270|184:301,1,71.9999978027344,2|0,1:2|0:0,0:0:0:0:
311,94,56688,1,2,1:2:0:0:
311,94,56853,2,0,P|308:138|305:175,1,71.9999978027344,10|0,0:0|1:2,0:0:0:0:
421,290,57183,5,0,0:0:0:0:
484,148,57348,1,0,1:2:0:0:
421,290,57512,2,0,P|378:293|342:266,1,71.9999978027344,8|0,1:2|0:0,0:0:0:0:
216,163,57842,5,2,1:2:0:0:
398,108,58007,1,0,1:2:0:0:
216,163,58172,2,0,P|225:211|229:235,1,71.9999978027344,8|0,0:0|0:0,0:0:0:0:
280,37,58501,6,0,P|238:22|204:26,1,71.9999978027344,4|0,1:2|1:2,0:0:0:0:
56,190,58831,1,0,1:2:0:0:
100,12,58996,1,2,1:2:0:0:
227,225,59161,1,10,1:2:0:0:
291,28,59326,1,8,1:2:0:0:
83,185,59490,1,10,1:2:0:0:
308,128,59655,1,10,1:2:0:0:
240,327,59820,6,0,P|185:320|153:318,1,71.9999978027344,4|0,1:2|1:2,0:0:0:0:
300,142,60150,1,0,1:2:0:0:
405,362,60315,1,2,1:2:0:0:
512,165,60480,1,10,1:2:0:0:
307,277,60644,1,10,1:2:0:0:
399,62,60809,1,8,1:2:0:0:
501,266,60974,1,8,1:2:0:0:
501,266,61056,1,0,3:0:0:0:
501,266,61139,1,6,1:2:0:0:
312,123,61304,5,0,1:2:0:0:
278,111,61386,1,0,1:2:0:0:
242,114,61468,1,0,1:2:0:0:
210,130,61551,1,0,1:2:0:0:
186,157,61633,1,0,1:2:0:0:
175,191,61716,1,0,1:2:0:0:
177,226,61798,2,0,L|238:216,1,35.9999989013672,8|8,0:0|0:0,0:0:0:0:
334,257,61963,1,8,0:0:0:0:
334,257,62045,1,8,0:0:0:0:
334,257,62128,2,0,L|327:317,1,35.9999989013672,8|8,0:0|0:0,0:0:0:0:
253,363,62293,1,8,0:0:0:0:
253,363,62375,1,8,0:0:0:0:
253,363,62458,1,10,0:0:0:0:
253,363,63447,5,4,0:3:0:0:
253,363,63776,2,0,L|247:284,1,80,6|0,1:2|0:0,0:0:0:0:
129,41,64106,2,0,L|123:121,1,80,10|0,0:0|0:0,0:0:0:0:
18,287,64435,5,2,1:2:0:0:
180,252,64600,1,0,0:0:0:0:
59,197,64765,5,10,0:0:0:0:
217,330,64930,1,0,0:0:0:0:
304,120,65095,6,0,P|312:85|325:23,1,71.9999978027344,2|0,1:2|0:0,0:0:0:0:
423,251,65424,2,0,P|380:277|334:268,1,71.9999978027344,10|0,0:0|0:0,0:0:0:0:
452,114,65754,5,2,1:2:0:0:
479,335,65919,1,0,0:0:0:0:
381,164,66084,5,10,0:0:0:0:
340,346,66248,1,0,0:0:0:0:
303,142,66413,5,2,1:2:0:0:
178,281,66578,1,2,0:0:0:0:
385,273,66743,1,8,0:0:0:0:
198,187,66908,5,2,0:0:0:0:
385,273,67073,1,2,1:2:0:0:
240,366,67237,1,0,0:0:0:0:
227,107,67402,5,10,0:0:0:0:
277,236,67567,1,2,0:0:0:0:
334,351,67732,1,0,1:2:0:0:
120,197,67897,5,2,0:0:0:0:
277,236,68062,1,10,0:0:0:0:
462,278,68226,1,0,0:0:0:0:
241,324,68391,5,2,1:2:0:0:
222,121,68556,1,2,0:0:0:0:
67,309,68721,1,8,0:0:0:0:
30,283,68803,1,8,0:0:0:0:
20,239,68885,1,10,0:0:0:0:
37,191,68968,1,8,0:0:0:0:
70,162,69051,6,0,P|120:172|160:181,1,71.9999978027344,6|0,1:2|0:0,0:0:0:0:
253,265,69381,1,10,0:0:0:0:
371,110,69545,2,0,P|376:168|389:268,1,143.999995605469,2|2,0:0|0:0,0:0:0:0:
290,185,70040,1,10,0:0:0:0:
470,103,70205,1,2,1:2:0:0:
470,103,70287,1,2,1:2:0:0:
470,103,70369,6,0,P|477:54|480:16,1,71.9999978027344,2|0,1:2|0:0,0:0:0:0:
286,77,70699,6,0,P|279:28|276:-10,1,71.9999978027344,10|2,0:0|0:0,0:0:0:0:
198,157,71029,2,0,P|205:206|208:244,1,71.9999978027344,0|2,1:0|0:0,0:0:0:0:
107,60,71358,1,8,0:0:0:0:
58,205,71523,1,2,0:0:0:0:
58,205,71606,1,2,0:0:0:0:
58,205,71688,5,2,1:2:0:0:
188,73,71853,1,0,0:0:0:0:
163,284,72018,2,0,P|205:275|243:271,1,71.9999978027344,8|2,0:0|0:0,0:0:0:0:
264,158,72347,5,0,1:2:0:0:
233,363,72512,1,0,0:0:0:0:
438,211,72677,2,0,P|400:205|352:199,1,71.9999978027344,10|2,0:0|0:0,0:0:0:0:
315,62,73007,5,8,0:0:0:0:
241,255,73171,1,0,1:2:0:0:
152,30,73336,5,8,0:0:0:0:
166,185,73501,1,0,1:2:0:0:
11,97,73666,5,10,0:0:0:0:
23,300,73831,1,0,1:2:0:0:
59,272,73913,1,0,1:0:0:0:
96,268,73995,1,10,0:0:0:0:
137,284,74078,1,8,0:0:0:0:
162,304,74160,2,0,L|189:349,1,35.9999989013672,8|8,0:0|0:0,0:0:0:0:
287,374,74326,6,0,P|291:335|295:290,1,80,6|0,1:2|0:0,0:0:0:0:
178,82,74655,2,0,P|180:117|187:165,1,80,10|0,0:0|0:0,0:0:0:0:
361,222,74985,5,2,1:2:0:0:
287,32,75150,1,0,0:0:0:0:
222,243,75315,1,10,0:0:0:0:
421,132,75480,1,0,0:0:0:0:
183,75,75644,6,0,P|143:65|92:76,1,80,2|0,1:2|0:0,0:0:0:0:
356,249,75974,2,0,P|396:259|438:246,1,80,10|0,0:0|0:0,0:0:0:0:
291,126,76304,5,2,1:2:0:0:
234,329,76469,1,0,0:0:0:0:
143,109,76633,1,10,0:0:0:0:
89,321,76798,1,0,0:0:0:0:
4,110,76963,6,0,B|42:156|42:156|10:263,1,160,2|10,1:2|0:0,0:0:0:0:
210,232,77458,1,2,0:0:0:0:
149,45,77622,2,0,P|141:98|136:133,1,80,2|0,1:2|0:0,0:0:0:0:
246,323,77952,1,10,0:0:0:0:
348,124,78117,1,2,0:0:0:0:
480,247,78282,6,0,P|403:241|367:237,1,80,0|0,1:0|0:0,0:0:0:0:
240,152,78611,1,10,0:0:0:0:
435,46,78776,1,2,0:0:0:0:
240,152,78941,2,0,P|193:157|150:130,1,80,0|0,1:0|0:0,0:0:0:0:
300,9,79271,1,10,0:0:0:0:
381,237,79436,5,10,0:0:0:0:
381,237,79518,1,10,0:0:0:0:
381,237,79600,2,0,P|426:257|466:245,1,80,6|0,1:2|0:0,0:0:0:0:
304,137,79930,1,0,1:2:0:0:
224,290,80095,1,0,0:0:0:0:
171,102,80260,1,0,1:2:0:0:
330,148,80425,1,0,0:0:0:0:
130,238,80589,1,0,1:2:0:0:
305,354,80754,5,10,0:0:0:0:
305,354,80837,1,10,0:0:0:0:
305,354,80919,2,0,P|354:360|397:339,1,80,4|0,1:2|0:0,0:0:0:0:
234,190,81248,1,0,1:2:0:0:
165,375,81413,1,0,0:0:0:0:
84,150,81578,1,0,1:2:0:0:
36,348,81743,1,2,0:0:0:0:
229,167,81908,1,2,1:2:0:0:
162,384,82073,1,2,0:0:0:0:
20,220,82238,5,14,0:0:0:0:
249,132,82403,1,0,1:0:0:0:
249,132,82485,1,0,1:0:0:0:
249,132,82567,1,0,1:0:0:0:
27,57,82732,5,14,0:0:0:0:
153,274,82897,1,0,1:0:0:0:
153,274,82980,1,0,1:0:0:0:
153,274,83062,1,0,1:0:0:0:
285,43,83227,5,14,0:0:0:0:
285,43,83309,1,8,0:0:0:0:
285,43,83392,2,0,L|225:33,1,40,8|8,0:0|0:0,0:0:0:0:
45,28,83556,1,14,1:2:0:0:
471,95,84545,6,0,B|392:80|392:80|367:96|367:119,1,120,4|0,0:3|0:0,0:0:0:0:
379,129,84875,6,0,P|397:76|382:25,1,88.000002685547,4|0,1:2|0:0,0:0:0:0:
183,87,85205,2,0,P|168:154|183:205,1,88.000002685547,8|0,0:0|0:0,0:0:0:0:
344,293,85534,1,0,1:2:0:0:
134,321,85699,1,0,1:2:0:0:
272,161,85864,1,8,0:0:0:0:
224,366,86029,1,0,0:0:0:0:
90,202,86194,6,0,P|36:209|-5:213,1,88.000002685547,0|0,1:2|1:2,0:0:0:0:
250,272,86523,2,0,P|293:275|337:282,1,88.000002685547,8|0,0:0|0:0,0:0:0:0:
501,147,86853,1,0,1:2:0:0:
446,351,87018,1,0,1:2:0:0:
375,104,87183,1,8,0:0:0:0:
331,310,87348,1,0,0:0:0:0:
259,112,87512,5,2,1:2:0:0:
448,19,87677,2,0,L|440:108,1,88.000002685547,2|8,1:2|0:0,0:0:0:0:
213,31,88007,1,2,0:0:0:0:
350,191,88172,2,0,P|299:209|261:204,1,88.000002685547,2|0,1:2|1:2,0:0:0:0:
82,101,88501,5,10,0:0:0:0:
160,297,88666,2,0,L|175:201,1,88.000002685547,2|0,0:0|1:2,0:0:0:0:
13,349,88996,1,2,1:2:0:0:
221,382,89161,2,0,P|254:342|262:299,1,88.000002685547,10|0,0:0|0:0,0:0:0:0:
107,163,89490,5,2,1:2:0:0:
125,373,89655,1,0,0:0:0:0:
270,219,89820,1,10,0:0:0:0:
270,219,89903,1,8,0:0:0:0:
270,219,89985,2,0,L|208:226,1,44.0000013427735,8|8,0:0|0:0,0:0:0:0:
15,242,90150,6,0,B|1:198|1:198|17:147,1,88.000002685547,6|0,1:2|0:0,0:0:0:0:
203,61,90480,2,0,B|217:105|217:105|201:156,1,88.000002685547,8|0,0:0|0:0,0:0:0:0:
113,335,90809,1,0,1:2:0:0:
302,240,90974,1,0,1:2:0:0:
106,159,91139,1,8,0:0:0:0:
303,82,91304,1,0,0:0:0:0:
360,306,91469,6,0,P|312:325|265:321,1,88.000002685547,0|0,1:2|0:0,0:0:0:0:
380,139,91798,2,0,P|428:120|475:124,1,88.000002685547,8|0,0:0|0:0,0:0:0:0:
254,80,92128,1,0,1:2:0:0:
413,218,92293,1,0,1:2:0:0:
364,12,92458,1,8,0:0:0:0:
252,190,92622,1,0,0:0:0:0:
124,21,92787,5,2,1:2:0:0:
319,100,92952,1,2,1:2:0:0:
143,217,93117,2,0,L|153:114,1,88.000002685547,8|2,0:0|0:0,0:0:0:0:
306,275,93447,5,2,1:2:0:0:
111,355,93611,1,0,1:2:0:0:
247,193,93776,2,0,P|300:176|337:185,1,88.000002685547,10|0,0:0|0:0,0:0:0:0:
213,359,94106,5,8,0:0:0:0:
167,115,94271,1,0,1:2:0:0:
82,366,94436,1,10,0:0:0:0:
29,142,94600,1,0,1:2:0:0:
231,375,94765,1,10,0:0:0:0:
304,122,94930,1,0,1:2:0:0:
338,95,95012,1,0,1:2:0:0:
381,84,95094,1,10,0:0:0:0:
424,90,95177,1,8,0:0:0:0:
461,113,95260,2,0,L|452:176,1,44.0000013427735,8|8,0:0|0:0,0:0:0:0:
417,359,95425,5,6,1:2:0:0:
249,231,95589,1,0,1:2:0:0:
455,276,95754,1,0,1:2:0:0:
265,369,95919,1,0,1:2:0:0:
369,185,96084,6,0,P|361:108|359:74,1,88.000002685547,8|0,0:0|1:2,0:0:0:0:
166,186,96414,2,0,P|162:229|157:273,1,88.000002685547,0|0,1:2|1:2,0:0:0:0:
242,80,96743,5,0,1:2:0:0:
47,163,96908,1,0,1:2:0:0:
250,221,97073,1,0,1:2:0:0:
133,44,97238,1,0,1:2:0:0:
74,247,97403,6,0,P|59:308|70:346,1,88.000002685547,8|0,0:0|1:2,0:0:0:0:
270,375,97732,2,0,P|285:314|274:276,1,88.000002685547,0|0,1:2|1:2,0:0:0:0:
170,108,98062,5,2,1:2:0:0:
379,77,98227,1,2,1:2:0:0:
264,254,98392,1,0,1:2:0:0:
262,43,98556,5,2,1:2:0:0:
400,202,98721,1,10,0:0:0:0:
188,190,98886,1,0,1:2:0:0:
373,88,99051,5,2,1:2:0:0:
267,270,99216,1,2,1:2:0:0:
476,244,99381,1,0,1:2:0:0:
292,141,99545,5,2,1:2:0:0:
378,334,99710,1,2,1:2:0:0:
479,148,99875,1,0,1:2:0:0:
295,252,100040,5,10,0:0:0:0:
272,41,100205,1,0,1:2:0:0:
99,163,100370,5,8,0:0:0:0:
99,163,100452,1,8,0:0:0:0:
99,163,100534,2,0,L|37:147,1,44.0000013427735,8|8,0:0|0:0,0:0:0:0:
129,262,100699,6,0,P|178:254|226:249,1,88.000002685547,6|0,1:2|0:0,0:0:0:0:
441,201,101029,5,8,0:0:0:0:
239,91,101194,1,0,1:2:0:0:
298,312,101359,1,8,0:0:0:0:
381,100,101523,1,0,1:2:0:0:
489,301,101688,1,8,0:0:0:0:
283,199,101853,1,0,1:2:0:0:
453,46,102018,6,0,P|472:93|461:148,1,88.000002685547,8|0,0:0|1:2,0:0:0:0:
304,291,102348,1,8,0:0:0:0:
345,67,102512,1,0,1:2:0:0:
159,259,102677,1,8,0:0:0:0:
208,36,102842,1,0,1:2:0:0:
28,178,103007,5,8,0:0:0:0:
28,178,103089,1,8,0:0:0:0:
28,178,103172,2,0,L|101:161|101:161,1,44.0000013427735,8|8,0:0|0:0,0:0:0:0:
307,151,103337,5,12,0:0:0:0:
149,337,103501,1,0,1:2:0:0:
151,107,103666,1,0,1:2:0:0:
293,323,103831,5,8,0:0:0:0:
52,258,103996,1,0,1:2:0:0:
246,83,104161,1,0,1:2:0:0:
158,351,104326,5,8,0:0:0:0:
374,190,104491,1,0,1:2:0:0:
374,190,104573,1,0,1:0:0:0:
374,190,104656,5,8,0:0:0:0:
140,88,104820,1,0,1:2:0:0:
186,359,104985,1,8,0:0:0:0:
329,62,105150,1,0,1:2:0:0:
90,267,105315,5,8,0:0:0:0:
409,195,105480,1,8,0:0:0:0:
188,25,105645,1,8,0:0:0:0:
284,358,105810,1,14,0:0:0:0:
