osu file format v14

[General]
AudioFilename: audio.mp3
AudioLeadIn: 0
PreviewTime: 62293
Countdown: 0
SampleSet: Normal
StackLeniency: 0.7
Mode: 1
LetterboxInBreaks: 0
WidescreenStoryboard: 1

[Editor]
DistanceSpacing: 0.3
BeatDivisor: 4
GridSize: 16
TimelineZoom: 0.9999999

[Metadata]
Title:Overdrive (Cut Ver.)
TitleUnicode:Overdrive (Cut Ver.)
Artist:Harada Hitomi
ArtistUnicode:原田ひとみ
Creator:Joltzzz
Version:Volta's Futsuu
Source:VALKYRIE DRIVE -MERMAID-
Tags:naverlyn [r] ron volta ヴァルキリードライヴ マーメイド op opening japanese rock jrock j-rock anime female vocals
BeatmapID:3384298
BeatmapSetID:1650551

[Difficulty]
HPDrainRate:7
CircleSize:2
OverallDifficulty:4
ApproachRate:10
SliderMultiplier:1.4
SliderTickRate:1

[Events]
//Background and Video events
0,0,"ouuuvadraiii.jpg",0,0
//Break Periods
//Storyboard Layer 0 (Background)
//Storyboard Layer 1 (Fail)
//Storyboard Layer 2 (Pass)
//Storyboard Layer 3 (Foreground)
//Storyboard Layer 4 (Overlay)
//Storyboard Sound Samples

[TimingPoints]
480,329.67032967033,4,1,0,20,1,0
5754,-100,4,1,0,35,0,0
7073,-100,4,1,0,40,0,0
8392,-100,4,1,0,45,0,0
9710,-100,4,1,0,50,0,0
10370,-100,4,1,0,55,0,0
11029,-100,4,1,0,60,0,0
31633,-100,4,1,0,70,0,0
32128,-100,4,1,0,80,0,1
42677,-100,4,1,0,70,0,0
63776,-100,4,1,0,80,0,1
83556,-100,4,1,0,80,0,0
84545,-100,4,1,0,70,0,0
84875,-100,4,1,0,80,0,0

[HitObjects]
53,117,10370,5,8,0:0:0:0:
175,102,10699,1,8,0:0:0:0:
175,102,11029,1,4,0:0:0:0:
175,102,11359,1,0,0:0:0:0:
216,122,11688,1,0,0:0:0:0:
216,122,12018,1,0,0:0:0:0:
216,122,12348,1,0,0:0:0:0:
176,108,12677,1,0,0:0:0:0:
183,122,13007,1,0,0:0:0:0:
183,122,13666,1,0,0:0:0:0:
183,122,13996,1,0,0:0:0:0:
183,122,14161,1,0,0:0:0:0:
230,145,14490,1,0,0:0:0:0:
230,145,14820,1,0,0:0:0:0:
230,145,14985,1,0,0:0:0:0:
230,145,15644,1,0,0:0:0:0:
230,145,15974,1,0,0:0:0:0:
230,145,16304,1,8,0:0:0:0:
176,108,16633,1,0,0:0:0:0:
212,78,16963,1,0,0:0:0:0:
212,78,17293,1,0,0:0:0:0:
212,78,17622,1,0,0:0:0:0:
85,136,17952,1,0,0:0:0:0:
41,146,18282,1,0,0:0:0:0:
41,146,18447,1,0,0:0:0:0:
212,78,18611,1,0,0:0:0:0:
216,122,18941,5,0,0:0:0:0:
83,151,19600,1,0,0:0:0:0:
148,117,19930,1,0,0:0:0:0:
216,122,20260,1,8,0:0:0:0:
216,122,20919,1,0,0:0:0:0:
41,146,21249,1,8,0:0:0:0:
216,122,21578,1,4,0:0:0:0:
278,81,22238,1,0,0:0:0:0:
146,140,22567,1,8,0:0:0:0:
146,140,22897,1,0,0:0:0:0:
181,97,23227,1,8,0:0:0:0:
200,95,23392,1,8,0:0:0:0:
96,148,23721,1,0,0:0:0:0:
209,142,23886,1,8,0:0:0:0:
209,142,24216,1,0,0:0:0:0:
209,142,24875,1,8,0:0:0:0:
209,142,25205,1,0,0:0:0:0:
209,142,25534,1,0,0:0:0:0:
273,84,25864,1,8,0:0:0:0:
273,84,26194,1,8,0:0:0:0:
294,60,26523,1,0,0:0:0:0:
294,60,26688,1,8,0:0:0:0:
225,4,26853,1,4,0:0:0:0:
273,84,27512,1,8,0:0:0:0:
273,84,27842,1,0,0:0:0:0:
273,84,28172,1,0,0:0:0:0:
273,84,28501,1,8,0:0:0:0:
344,77,28666,1,0,0:0:0:0:
344,77,28831,1,8,0:0:0:0:
225,4,29161,1,8,0:0:0:0:
225,4,29326,1,8,0:0:0:0:
225,4,29490,1,0,0:0:0:0:
225,4,31798,1,8,0:0:0:0:
225,4,32128,1,4,0:0:0:0:
224,96,32787,1,0,0:0:0:0:
224,96,33117,1,8,0:0:0:0:
96,112,33282,1,0,0:0:0:0:
112,128,33447,1,8,0:0:0:0:
48,144,33776,1,8,0:0:0:0:
96,112,34106,1,8,0:0:0:0:
96,112,34436,1,0,0:0:0:0:
112,128,34765,1,0,0:0:0:0:
83,146,34930,1,8,0:0:0:0:
112,128,35095,1,8,0:0:0:0:
112,112,35425,1,8,0:0:0:0:
112,112,35589,1,8,0:0:0:0:
112,112,35919,1,8,0:0:0:0:
112,112,36084,1,8,0:0:0:0:
112,112,36414,1,8,0:0:0:0:
112,112,36743,1,0,0:0:0:0:
112,112,37073,1,8,0:0:0:0:
94,126,37238,1,8,0:0:0:0:
112,112,37403,1,4,0:0:0:0:
64,144,38062,1,8,0:0:0:0:
64,144,38392,1,0,0:0:0:0:
157,138,38556,1,0,0:0:0:0:
64,144,38721,1,8,0:0:0:0:
64,144,39051,1,8,0:0:0:0:
64,144,39381,1,8,0:0:0:0:
64,144,39710,1,0,0:0:0:0:
144,80,40040,5,8,0:0:0:0:
144,80,40205,1,8,0:0:0:0:
144,80,40370,1,8,0:0:0:0:
144,80,40699,1,8,0:0:0:0:
144,80,40864,1,8,0:0:0:0:
144,80,41029,1,8,0:0:0:0:
144,80,41359,1,0,0:0:0:0:
144,80,41688,1,8,0:0:0:0:
56,154,42018,1,8,0:0:0:0:
187,111,42677,5,4,0:0:0:0:
258,25,43007,1,8,0:0:0:0:
258,25,43666,1,8,0:0:0:0:
86,128,43831,1,0,0:0:0:0:
86,128,44161,1,0,0:0:0:0:
258,25,44326,1,8,0:0:0:0:
258,25,44985,1,8,0:0:0:0:
107,103,45315,1,0,0:0:0:0:
107,103,45644,1,8,0:0:0:0:
192,98,45809,1,8,0:0:0:0:
38,139,46139,5,0,0:0:0:0:
21,180,46304,1,8,0:0:0:0:
56,143,46963,1,8,0:0:0:0:
56,143,47293,1,0,0:0:0:0:
56,143,47458,1,0,0:0:0:0:
56,143,47622,1,8,0:0:0:0:
23,180,47952,1,4,0:0:0:0:
23,180,48282,1,8,0:0:0:0:
185,88,48941,1,8,0:0:0:0:
185,88,49106,1,0,0:0:0:0:
185,88,49436,1,0,0:0:0:0:
185,88,49600,1,8,0:0:0:0:
102,87,50260,1,8,0:0:0:0:
102,87,50589,1,0,0:0:0:0:
159,73,50919,1,8,0:0:0:0:
234,16,51578,1,8,0:0:0:0:
192,98,51908,1,0,0:0:0:0:
192,98,52238,1,8,0:0:0:0:
192,98,52567,1,0,0:0:0:0:
175,102,52732,1,0,0:0:0:0:
192,98,52897,1,8,0:0:0:0:
117,153,53227,1,12,0:0:0:0:
147,56,53721,1,8,0:0:0:0:
147,56,54051,1,8,0:0:0:0:
147,56,54381,1,0,0:0:0:0:
147,56,54710,1,0,0:0:0:0:
83,123,54875,1,8,0:0:0:0:
46,155,55205,1,0,0:0:0:0:
34,173,55864,1,0,0:0:0:0:
34,173,56359,1,8,0:0:0:0:
75,140,56688,1,8,0:0:0:0:
92,148,57018,1,0,0:0:0:0:
111,107,57348,1,0,0:0:0:0:
92,148,57512,1,8,0:0:0:0:
83,123,57842,1,0,0:0:0:0:
60,128,58007,1,0,0:0:0:0:
83,123,58172,1,8,0:0:0:0:
147,56,58501,1,4,0:0:0:0:
105,168,59161,1,0,0:0:0:0:
105,168,59490,1,0,0:0:0:0:
105,168,59655,1,0,0:0:0:0:
105,168,59820,1,8,0:0:0:0:
105,168,60480,1,8,0:0:0:0:
36,148,60644,1,0,0:0:0:0:
36,148,60809,1,0,0:0:0:0:
74,166,61139,1,0,0:0:0:0:
74,166,61469,1,0,0:0:0:0:
74,166,61633,1,0,0:0:0:0:
74,166,61798,1,8,0:0:0:0:
74,166,61963,1,8,0:0:0:0:
74,166,62128,1,8,0:0:0:0:
147,56,62458,1,0,0:0:0:0:
147,56,63447,1,0,0:0:0:0:
147,56,63776,1,12,0:0:0:0:
77,124,64436,1,0,0:0:0:0:
77,124,64765,1,8,0:0:0:0:
111,122,64930,1,0,0:0:0:0:
77,124,65095,1,8,0:0:0:0:
77,124,65425,1,8,0:0:0:0:
77,124,65754,1,8,0:0:0:0:
77,124,66084,1,0,0:0:0:0:
77,124,66249,1,8,0:0:0:0:
77,124,66414,1,0,0:0:0:0:
91,115,66578,1,8,0:0:0:0:
141,97,66743,1,8,0:0:0:0:
107,148,67073,1,8,0:0:0:0:
107,148,67238,1,8,0:0:0:0:
107,148,67567,1,8,0:0:0:0:
107,148,67732,1,8,0:0:0:0:
107,148,68062,1,8,0:0:0:0:
75,119,68392,1,0,0:0:0:0:
75,119,68556,1,0,0:0:0:0:
75,119,68721,1,8,0:0:0:0:
90,165,69051,1,4,0:0:0:0:
90,165,69381,1,8,0:0:0:0:
136,141,70040,1,8,0:0:0:0:
136,141,70370,1,0,0:0:0:0:
136,141,70699,1,8,0:0:0:0:
136,141,71359,1,8,0:0:0:0:
178,108,71688,1,0,0:0:0:0:
178,108,71936,1,8,0:0:0:0:
178,108,72183,1,8,0:0:0:0:
90,151,72348,1,0,0:0:0:0:
178,108,72677,1,8,0:0:0:0:
90,151,73007,1,0,0:0:0:0:
183,27,73666,1,8,0:0:0:0:
183,27,73996,1,0,0:0:0:0:
183,27,74326,1,12,0:0:0:0:
354,193,74985,1,0,0:0:0:0:
354,193,75315,1,8,0:0:0:0:
354,193,75480,1,0,0:0:0:0:
354,193,75644,1,8,0:0:0:0:
354,193,75974,1,8,0:0:0:0:
354,193,76304,1,8,0:0:0:0:
354,193,76633,1,8,0:0:0:0:
354,193,76798,1,8,0:0:0:0:
354,193,76963,1,0,0:0:0:0:
184,91,77458,1,0,0:0:0:0:
184,91,77622,1,8,0:0:0:0:
184,91,77952,1,0,0:0:0:0:
184,91,78117,1,8,0:0:0:0:
38,157,78447,1,8,0:0:0:0:
38,157,78611,1,0,0:0:0:0:
38,157,78776,1,0,0:0:0:0:
38,157,78941,1,8,0:0:0:0:
47,156,79271,1,8,0:0:0:0:
353,193,79600,1,4,0:0:0:0:
57,162,80260,1,0,0:0:0:0:
57,162,80589,1,0,0:0:0:0:
57,162,80754,1,8,0:0:0:0:
57,162,80919,1,0,0:0:0:0:
57,162,81578,1,0,0:0:0:0:
57,162,81908,1,0,0:0:0:0:
57,162,82073,1,0,0:0:0:0:
57,162,82238,1,8,0:0:0:0:
57,162,82567,1,0,0:0:0:0:
57,162,82732,1,8,0:0:0:0:
57,162,82897,1,0,0:0:0:0:
57,162,83062,1,0,0:0:0:0:
57,162,83227,1,8,0:0:0:0:
57,162,83556,1,0,0:0:0:0:
353,193,84545,1,0,0:0:0:0:
225,4,84875,1,4,0:0:0:0:
224,96,85534,1,0,0:0:0:0:
224,96,85864,1,8,0:0:0:0:
96,112,86029,1,0,0:0:0:0:
112,128,86194,1,8,0:0:0:0:
48,144,86523,1,8,0:0:0:0:
96,112,86853,1,8,0:0:0:0:
96,112,87183,1,0,0:0:0:0:
112,128,87512,1,0,0:0:0:0:
112,128,87677,1,8,0:0:0:0:
112,128,87842,1,8,0:0:0:0:
112,112,88172,1,8,0:0:0:0:
112,112,88337,1,8,0:0:0:0:
112,112,88666,1,8,0:0:0:0:
112,112,88831,1,8,0:0:0:0:
112,112,89161,1,8,0:0:0:0:
112,112,89490,1,0,0:0:0:0:
112,112,89820,1,8,0:0:0:0:
48,144,89985,1,8,0:0:0:0:
112,112,90150,1,4,0:0:0:0:
64,144,90809,1,8,0:0:0:0:
64,144,91139,1,0,0:0:0:0:
224,126,91304,1,0,0:0:0:0:
64,144,91469,1,8,0:0:0:0:
64,144,91798,1,8,0:0:0:0:
64,144,92128,1,8,0:0:0:0:
64,144,92458,1,0,0:0:0:0:
144,80,92787,5,8,0:0:0:0:
144,80,92952,1,8,0:0:0:0:
144,80,93117,1,8,0:0:0:0:
144,80,93447,1,8,0:0:0:0:
144,80,93611,1,8,0:0:0:0:
144,80,93776,1,8,0:0:0:0:
144,80,94106,1,0,0:0:0:0:
240,88,94436,1,8,0:0:0:0:
240,88,94765,1,0,0:0:0:0:
240,88,94930,1,0,0:0:0:0:
240,88,95095,1,8,0:0:0:0:
240,88,95260,1,8,0:0:0:0:
240,88,95425,1,4,0:0:0:0:
228,76,96084,1,8,0:0:0:0:
68,150,96414,1,0,0:0:0:0:
68,150,96578,1,0,0:0:0:0:
68,150,96743,1,0,0:0:0:0:
68,150,97073,1,0,0:0:0:0:
228,76,97403,1,8,0:0:0:0:
8,151,98062,1,0,0:0:0:0:
8,151,98392,1,0,0:0:0:0:
8,151,98721,1,8,0:0:0:0:
8,151,99051,1,0,0:0:0:0:
8,151,99216,1,0,0:0:0:0:
8,151,99545,1,0,0:0:0:0:
8,151,99710,1,0,0:0:0:0:
8,151,100040,1,8,0:0:0:0:
68,150,100370,1,8,0:0:0:0:
228,76,100699,1,4,0:0:0:0:
90,117,101359,1,0,0:0:0:0:
90,117,101688,1,8,0:0:0:0:
24,151,101853,1,0,0:0:0:0:
90,117,102018,1,8,0:0:0:0:
90,117,102348,1,8,0:0:0:0:
90,117,102677,1,8,0:0:0:0:
109,119,103007,1,0,0:0:0:0:
109,119,103172,1,0,0:0:0:0:
261,162,103337,1,8,0:0:0:0:
261,162,103831,1,8,0:0:0:0:
261,162,104326,1,8,0:0:0:0:
261,162,104655,1,8,0:0:0:0:
261,162,104985,1,0,0:0:0:0:
261,162,105315,1,8,0:0:0:0:
228,76,105480,1,0,0:0:0:0:
228,76,105644,1,0,0:0:0:0:
228,76,105809,1,0,0:0:0:0:
