osu file format v14

[General]
AudioFilename: audio.mp3
AudioLeadIn: 0
PreviewTime: 62293
Countdown: 0
SampleSet: Normal
StackLeniency: 0.7
Mode: 1
LetterboxInBreaks: 0
WidescreenStoryboard: 1

[Editor]
DistanceSpacing: 0.4
BeatDivisor: 4
GridSize: 16
TimelineZoom: 2.3

[Metadata]
Title:Overdrive (Cut Ver.)
TitleUnicode:Overdrive (Cut Ver.)
Artist:Harada Hitomi
ArtistUnicode:原田ひとみ
Creator:Joltzzz
Version:Inner Oni
Source:VALKYRIE DRIVE -MERMAID-
Tags:naverlyn [r] ron volta ヴァルキリードライヴ マーメイド op opening japanese rock jrock j-rock anime female vocals
BeatmapID:3500324
BeatmapSetID:1650551

[Difficulty]
HPDrainRate:6
CircleSize:2
OverallDifficulty:6
ApproachRate:10
SliderMultiplier:1.4
SliderTickRate:1

[Events]
//Background and Video events
0,0,"ouuuvadraiii.jpg",0,0
//Break Periods
//Storyboard Layer 0 (Background)
//Storyboard Layer 1 (Fail)
//Storyboard Layer 2 (Pass)
//Storyboard Layer 3 (Foreground)
//Storyboard Layer 4 (Overlay)
//Storyboard Sound Samples

[TimingPoints]
480,329.67032967033,4,1,0,20,1,0
7073,-100,4,1,0,30,0,0
8392,-100,4,1,0,50,0,0
10370,-105.263157894737,4,1,0,50,0,0
10534,-106.382978723404,4,1,0,50,0,0
10699,-107.52688172043,4,1,0,50,0,0
10782,-108.695652173913,4,1,0,50,0,0
10864,-109.89010989011,4,1,0,50,0,0
11029,-111.111111111111,4,1,0,50,0,0
21578,-100,4,1,0,60,0,0
28501,-100,4,1,0,60,0,0
28666,-98.0392156862745,4,1,0,60,0,0
28831,-96.1538461538461,4,1,0,60,0,0
28996,-94.3396226415094,4,1,0,60,0,0
29161,-92.5925925925926,4,1,0,60,0,0
29243,-91.743119266055,4,1,0,60,0,0
29326,-90.9090909090909,4,1,0,60,0,0
29408,-90.0900900900901,4,1,0,60,0,0
29490,-89.2857142857143,4,1,0,60,0,0
30809,-111.111111111111,4,1,0,60,0,0
31633,-133.333333333333,4,1,0,70,0,0
32128,-90.9090909090909,4,1,0,80,0,1
42183,-89.2857142857143,4,1,0,80,0,1
42265,-90.9090909090909,4,1,0,80,0,1
42348,-92.5925925925926,4,1,0,80,0,1
42430,-94.3396226415094,4,1,0,80,0,1
42512,-96.1538461538461,4,1,0,80,0,1
42595,-98.0392156862745,4,1,0,80,0,1
42677,-100,4,1,0,70,0,0
58831,-95.2380952380952,4,1,0,60,0,0
60150,-93.4579439252336,4,1,0,60,0,0
61304,-90.9090909090909,4,1,0,60,0,0
61386,-90.0900900900901,4,1,0,60,0,0
61469,-89.2857142857143,4,1,0,60,0,0
61551,-88.4955752212389,4,1,0,60,0,0
61633,-87.719298245614,4,1,0,60,0,0
61716,-86.9565217391304,4,1,0,60,0,0
61798,-86.2068965517241,4,1,0,60,0,0
61881,-85.4700854700855,4,1,0,60,0,0
61963,-84.7457627118644,4,1,0,60,0,0
62045,-84.0336134453781,4,1,0,60,0,0
62128,-83.3333333333333,4,1,0,60,0,0
62210,-82.6446280991736,4,1,0,60,0,0
62293,-81.9672131147541,4,1,0,60,0,0
62375,-81.3008130081301,4,1,0,60,0,0
62458,-80.6451612903226,4,1,0,60,0,0
63447,-133.333333333333,4,1,0,70,0,0
63776,-90.9090909090909,4,1,0,80,0,1
83556,-90.9090909090909,4,1,0,80,0,0
84545,-133.333333333333,4,1,0,70,0,0
84875,-95.2380952380952,4,1,0,80,0,0
101029,-95.2380952380952,4,1,0,80,0,0
103337,-79.3650793650794,4,1,0,80,0,0
103501,-80.6451612903226,4,1,0,80,0,0
103666,-81.9672131147541,4,1,0,80,0,0
103831,-83.3333333333333,4,1,0,80,0,0
103996,-84.7457627118644,4,1,0,80,0,0
104161,-86.2068965517241,4,1,0,80,0,0
104326,-87.719298245614,4,1,0,80,0,0
104490,-89.2857142857143,4,1,0,80,0,0
104655,-90.9090909090909,4,1,0,80,0,0
104820,-92.5925925925926,4,1,0,80,0,0
104985,-94.3396226415094,4,1,0,80,0,0
105150,-96.1538461538461,4,1,0,80,0,0
105232,-98.0392156862745,4,1,0,80,0,0
105315,-100,4,1,0,80,0,0
105480,-71.4285714285714,4,1,0,80,0,0

[HitObjects]
256,192,5754,12,0,9710,0:0:0:0:
256,192,10370,5,8,0:0:0:0:
256,192,10534,1,0,0:0:0:0:
256,192,10699,1,8,0:0:0:0:
256,192,10782,1,8,0:0:0:0:
256,192,10864,1,8,0:0:0:0:
256,192,11029,1,4,0:0:0:0:
256,192,11194,1,0,0:0:0:0:
256,192,11359,1,8,0:0:0:0:
256,192,11523,1,0,0:0:0:0:
256,192,11688,1,8,0:0:0:0:
256,192,11853,1,8,0:0:0:0:
256,192,12018,1,0,0:0:0:0:
256,192,12183,1,0,0:0:0:0:
256,192,12265,1,0,0:0:0:0:
256,192,12348,1,8,0:0:0:0:
256,192,12512,1,0,0:0:0:0:
256,192,12677,1,8,0:0:0:0:
256,192,12760,1,8,0:0:0:0:
256,192,12842,1,0,0:0:0:0:
256,192,13007,1,8,0:0:0:0:
256,192,13172,1,8,0:0:0:0:
256,192,13501,1,8,0:0:0:0:
256,192,13666,1,0,0:0:0:0:
256,192,13831,1,0,0:0:0:0:
256,192,13914,1,0,0:0:0:0:
256,192,13996,1,8,0:0:0:0:
256,192,14161,1,8,0:0:0:0:
256,192,14326,1,0,0:0:0:0:
256,192,14490,1,8,0:0:0:0:
256,192,14573,1,8,0:0:0:0:
256,192,14655,1,0,0:0:0:0:
256,192,14820,1,8,0:0:0:0:
256,192,14985,1,0,0:0:0:0:
256,192,15150,1,0,0:0:0:0:
256,192,15232,1,0,0:0:0:0:
256,192,15315,1,8,0:0:0:0:
256,192,15480,1,8,0:0:0:0:
256,192,15644,1,0,0:0:0:0:
256,192,15809,1,0,0:0:0:0:
256,192,15892,1,0,0:0:0:0:
256,192,15974,1,8,0:0:0:0:
256,192,16139,1,0,0:0:0:0:
256,192,16304,1,12,0:0:0:0:
256,192,16633,1,8,0:0:0:0:
256,192,16798,1,0,0:0:0:0:
256,192,16963,1,8,0:0:0:0:
256,192,17128,1,8,0:0:0:0:
256,192,17293,1,0,0:0:0:0:
256,192,17375,1,0,0:0:0:0:
256,192,17458,1,8,0:0:0:0:
256,192,17622,1,0,0:0:0:0:
256,192,17787,1,0,0:0:0:0:
256,192,17952,1,8,0:0:0:0:
256,192,18117,1,0,0:0:0:0:
256,192,18282,1,8,0:0:0:0:
256,192,18447,1,8,0:0:0:0:
256,192,18611,1,0,0:0:0:0:
256,192,18776,1,8,0:0:0:0:
256,192,18941,1,0,0:0:0:0:
256,192,19271,1,0,0:0:0:0:
256,192,19600,1,8,0:0:0:0:
256,192,19765,1,0,0:0:0:0:
256,192,19930,1,8,0:0:0:0:
256,192,20095,1,8,0:0:0:0:
256,192,20260,1,0,0:0:0:0:
256,192,20589,1,0,0:0:0:0:
256,192,20919,1,0,0:0:0:0:
256,192,21084,1,0,0:0:0:0:
256,192,21249,1,12,0:0:0:0:
256,192,21578,1,4,0:0:0:0:
256,192,21743,1,0,0:0:0:0:
256,192,21908,1,8,0:0:0:0:
256,192,22073,1,8,0:0:0:0:
256,192,22238,1,0,0:0:0:0:
256,192,22403,1,8,0:0:0:0:
256,192,22567,1,0,0:0:0:0:
256,192,22650,1,0,0:0:0:0:
256,192,22732,1,8,0:0:0:0:
256,192,22815,1,8,0:0:0:0:
256,192,22897,1,0,0:0:0:0:
256,192,23062,1,0,0:0:0:0:
256,192,23227,1,8,0:0:0:0:
256,192,23309,1,0,0:0:0:0:
256,192,23392,1,8,0:0:0:0:
256,192,23556,1,0,0:0:0:0:
256,192,23721,1,8,0:0:0:0:
256,192,23804,1,8,0:0:0:0:
256,192,23886,1,0,0:0:0:0:
256,192,24051,1,8,0:0:0:0:
256,192,24216,1,0,0:0:0:0:
256,192,24381,1,0,0:0:0:0:
256,192,24545,1,8,0:0:0:0:
256,192,24710,1,0,0:0:0:0:
256,192,24793,1,0,0:0:0:0:
256,192,24875,1,8,0:0:0:0:
256,192,25040,1,8,0:0:0:0:
256,192,25122,1,0,0:0:0:0:
256,192,25205,1,8,0:0:0:0:
256,192,25370,1,8,0:0:0:0:
256,192,25534,1,0,0:0:0:0:
256,192,25699,1,0,0:0:0:0:
256,192,25864,1,8,0:0:0:0:
256,192,26029,1,0,0:0:0:0:
256,192,26194,1,8,0:0:0:0:
256,192,26359,1,0,0:0:0:0:
256,192,26441,1,0,0:0:0:0:
256,192,26523,1,8,0:0:0:0:
256,192,26688,1,8,0:0:0:0:
256,192,26853,1,4,0:0:0:0:
256,192,27183,1,8,0:0:0:0:
256,192,27348,1,0,0:0:0:0:
256,192,27512,1,0,0:0:0:0:
256,192,27677,1,0,0:0:0:0:
256,192,27842,1,8,0:0:0:0:
256,192,28007,1,0,0:0:0:0:
256,192,28172,1,12,0:0:0:0:
256,192,28501,1,0,0:0:0:0:
256,192,28666,1,0,0:0:0:0:
256,192,28831,1,0,0:0:0:0:
256,192,28996,1,8,0:0:0:0:
256,192,29161,1,0,0:0:0:0:
256,192,29243,1,8,0:0:0:0:
256,192,29326,1,8,0:0:0:0:
256,192,29408,1,8,0:0:0:0:
256,192,29490,1,0,0:0:0:0:
256,192,31633,1,0,0:0:0:0:
256,192,31798,1,8,0:0:0:0:
256,192,32128,1,12,0:0:0:0:
256,192,32293,1,0,0:0:0:0:
256,192,32458,1,8,0:0:0:0:
256,192,32622,1,0,0:0:0:0:
256,192,32705,1,0,0:0:0:0:
256,192,32787,1,8,0:0:0:0:
256,192,32870,1,8,0:0:0:0:
256,192,32952,1,0,0:0:0:0:
256,192,33117,1,8,0:0:0:0:
256,192,33282,1,0,0:0:0:0:
256,192,33447,1,8,0:0:0:0:
256,192,33611,1,0,0:0:0:0:
256,192,33776,1,8,0:0:0:0:
256,192,33941,1,0,0:0:0:0:
256,192,34023,1,0,0:0:0:0:
256,192,34106,1,8,0:0:0:0:
256,192,34188,1,8,0:0:0:0:
256,192,34271,1,0,0:0:0:0:
256,192,34436,1,8,0:0:0:0:
256,192,34518,1,8,0:0:0:0:
256,192,34600,1,0,0:0:0:0:
256,192,34683,1,0,0:0:0:0:
256,192,34765,1,0,0:0:0:0:
256,192,34930,1,8,0:0:0:0:
256,192,35095,1,8,0:0:0:0:
256,192,35260,1,0,0:0:0:0:
256,192,35342,1,0,0:0:0:0:
256,192,35425,1,8,0:0:0:0:
256,192,35589,1,8,0:0:0:0:
256,192,35754,1,0,0:0:0:0:
256,192,35837,1,0,0:0:0:0:
256,192,35919,1,8,0:0:0:0:
256,192,36084,1,8,0:0:0:0:
256,192,36249,1,0,0:0:0:0:
256,192,36331,1,0,0:0:0:0:
256,192,36414,1,8,0:0:0:0:
256,192,36578,1,0,0:0:0:0:
256,192,36743,1,8,0:0:0:0:
256,192,36908,1,0,0:0:0:0:
256,192,37073,1,8,0:0:0:0:
256,192,37155,1,8,0:0:0:0:
256,192,37238,1,0,0:0:0:0:
256,192,37320,1,0,0:0:0:0:
256,192,37403,1,12,0:0:0:0:
256,192,37732,1,8,0:0:0:0:
256,192,37897,1,0,0:0:0:0:
256,192,38062,1,8,0:0:0:0:
256,192,38227,1,0,0:0:0:0:
256,192,38392,1,8,0:0:0:0:
256,192,38474,1,8,0:0:0:0:
256,192,38556,1,0,0:0:0:0:
256,192,38639,1,0,0:0:0:0:
256,192,38721,1,8,0:0:0:0:
256,192,38886,1,0,0:0:0:0:
256,192,39051,1,8,0:0:0:0:
256,192,39216,1,0,0:0:0:0:
256,192,39381,1,8,0:0:0:0:
256,192,39545,1,0,0:0:0:0:
256,192,39628,1,0,0:0:0:0:
256,192,39710,1,8,0:0:0:0:
256,192,39793,1,8,0:0:0:0:
256,192,39875,1,0,0:0:0:0:
256,192,40040,1,8,0:0:0:0:
256,192,40205,1,8,0:0:0:0:
256,192,40287,1,0,0:0:0:0:
256,192,40370,1,8,0:0:0:0:
256,192,40534,1,0,0:0:0:0:
256,192,40617,1,0,0:0:0:0:
256,192,40699,1,8,0:0:0:0:
256,192,40864,1,8,0:0:0:0:
256,192,40947,1,0,0:0:0:0:
256,192,41029,1,8,0:0:0:0:
256,192,41194,1,8,0:0:0:0:
256,192,41359,1,0,0:0:0:0:
256,192,41441,1,0,0:0:0:0:
256,192,41523,1,0,0:0:0:0:
256,192,41606,1,0,0:0:0:0:
256,192,41688,1,8,0:0:0:0:
256,192,41853,1,0,0:0:0:0:
256,192,42018,1,8,0:0:0:0:
256,192,42183,1,8,0:0:0:0:
256,192,42265,1,0,0:0:0:0:
256,192,42348,1,8,0:0:0:0:
256,192,42430,1,8,0:0:0:0:
256,192,42512,1,0,0:0:0:0:
256,192,42595,1,8,0:0:0:0:
256,192,42677,1,4,0:0:0:0:
256,192,43007,1,8,0:0:0:0:
256,192,43172,1,8,0:0:0:0:
256,192,43337,1,0,0:0:0:0:
256,192,43501,1,8,0:0:0:0:
256,192,43584,1,0,0:0:0:0:
256,192,43666,1,8,0:0:0:0:
256,192,43831,1,0,0:0:0:0:
256,192,44161,1,0,0:0:0:0:
256,192,44243,1,0,0:0:0:0:
256,192,44326,1,8,0:0:0:0:
256,192,44490,1,0,0:0:0:0:
256,192,44655,1,0,0:0:0:0:
256,192,44820,1,0,0:0:0:0:
256,192,44985,1,8,0:0:0:0:
256,192,45067,1,8,0:0:0:0:
256,192,45150,1,0,0:0:0:0:
256,192,45315,1,0,0:0:0:0:
256,192,45480,1,0,0:0:0:0:
256,192,45562,1,0,0:0:0:0:
256,192,45644,1,8,0:0:0:0:
256,192,45809,1,0,0:0:0:0:
256,192,45974,1,0,0:0:0:0:
256,192,46139,1,0,0:0:0:0:
256,192,46304,1,8,0:0:0:0:
256,192,46469,1,0,0:0:0:0:
256,192,46633,1,0,0:0:0:0:
256,192,46798,1,0,0:0:0:0:
256,192,46881,1,0,0:0:0:0:
256,192,46963,1,8,0:0:0:0:
256,192,47128,1,0,0:0:0:0:
256,192,47210,1,0,0:0:0:0:
256,192,47293,1,0,0:0:0:0:
256,192,47458,1,0,0:0:0:0:
256,192,47622,1,8,0:0:0:0:
256,192,47705,1,0,0:0:0:0:
256,192,47787,1,8,0:0:0:0:
256,192,47870,1,8,0:0:0:0:
256,192,47952,1,4,0:0:0:0:
256,192,48282,1,8,0:0:0:0:
256,192,48447,1,0,0:0:0:0:
256,192,48611,1,0,0:0:0:0:
256,192,48776,1,0,0:0:0:0:
256,192,48941,1,8,0:0:0:0:
256,192,49106,1,8,0:0:0:0:
256,192,49271,1,0,0:0:0:0:
256,192,49436,1,8,0:0:0:0:
256,192,49600,1,8,0:0:0:0:
256,192,49765,1,0,0:0:0:0:
256,192,49930,1,0,0:0:0:0:
256,192,50095,1,0,0:0:0:0:
256,192,50260,1,8,0:0:0:0:
256,192,50425,1,0,0:0:0:0:
256,192,50507,1,0,0:0:0:0:
256,192,50589,1,0,0:0:0:0:
256,192,50919,1,8,0:0:0:0:
256,192,51084,1,0,0:0:0:0:
256,192,51414,1,0,0:0:0:0:
256,192,51496,1,0,0:0:0:0:
256,192,51578,1,8,0:0:0:0:
256,192,51743,1,0,0:0:0:0:
256,192,51908,1,0,0:0:0:0:
256,192,52238,1,8,0:0:0:0:
256,192,52567,1,0,0:0:0:0:
256,192,52897,1,8,0:0:0:0:
256,192,53062,1,8,0:0:0:0:
256,192,53144,1,8,0:0:0:0:
256,192,53227,1,4,0:0:0:0:
256,192,53392,1,0,0:0:0:0:
256,192,53556,1,8,0:0:0:0:
256,192,53721,1,0,0:0:0:0:
256,192,54051,1,0,0:0:0:0:
256,192,54133,1,0,0:0:0:0:
256,192,54216,1,8,0:0:0:0:
256,192,54381,1,0,0:0:0:0:
256,192,54710,1,0,0:0:0:0:
256,192,54875,1,8,0:0:0:0:
256,192,55205,1,0,0:0:0:0:
256,192,55287,1,0,0:0:0:0:
256,192,55370,1,0,0:0:0:0:
256,192,55452,1,0,0:0:0:0:
256,192,55534,1,8,0:0:0:0:
256,192,55699,1,8,0:0:0:0:
256,192,55864,1,0,0:0:0:0:
256,192,56029,1,0,0:0:0:0:
256,192,56194,1,8,0:0:0:0:
256,192,56359,1,0,0:0:0:0:
256,192,56688,1,0,0:0:0:0:
256,192,56853,1,8,0:0:0:0:
256,192,57018,1,0,0:0:0:0:
256,192,57348,1,0,0:0:0:0:
256,192,57430,1,0,0:0:0:0:
256,192,57512,1,8,0:0:0:0:
256,192,57842,1,0,0:0:0:0:
256,192,58007,1,0,0:0:0:0:
256,192,58172,1,8,0:0:0:0:
256,192,58501,1,4,0:0:0:0:
256,192,58831,1,8,0:0:0:0:
256,192,58996,1,8,0:0:0:0:
256,192,59161,1,8,0:0:0:0:
256,192,59326,1,8,0:0:0:0:
256,192,59490,1,8,0:0:0:0:
256,192,59655,1,8,0:0:0:0:
256,192,59820,1,4,0:0:0:0:
256,192,60150,1,0,0:0:0:0:
256,192,60315,1,0,0:0:0:0:
256,192,60480,1,0,0:0:0:0:
256,192,60644,1,0,0:0:0:0:
256,192,60809,1,0,0:0:0:0:
256,192,60974,1,0,0:0:0:0:
256,192,61139,1,12,0:0:0:0:
256,192,61304,1,0,0:0:0:0:
256,192,61386,1,0,0:0:0:0:
256,192,61469,1,8,0:0:0:0:
256,192,61551,1,8,0:0:0:0:
256,192,61633,1,8,0:0:0:0:
256,192,61716,1,0,0:0:0:0:
256,192,61798,1,8,0:0:0:0:
256,192,61881,1,8,0:0:0:0:
256,192,61963,1,0,0:0:0:0:
256,192,62045,1,0,0:0:0:0:
256,192,62128,1,8,0:0:0:0:
256,192,62210,1,0,0:0:0:0:
256,192,62293,1,0,0:0:0:0:
256,192,62375,1,0,0:0:0:0:
256,192,62458,1,8,0:0:0:0:
256,192,63447,1,0,0:0:0:0:
256,192,63776,1,12,0:0:0:0:
256,192,63941,1,0,0:0:0:0:
256,192,64106,1,8,0:0:0:0:
256,192,64271,1,0,0:0:0:0:
256,192,64353,1,0,0:0:0:0:
256,192,64436,1,8,0:0:0:0:
256,192,64518,1,8,0:0:0:0:
256,192,64600,1,0,0:0:0:0:
256,192,64765,1,8,0:0:0:0:
256,192,64930,1,0,0:0:0:0:
256,192,65095,1,8,0:0:0:0:
256,192,65260,1,0,0:0:0:0:
256,192,65425,1,8,0:0:0:0:
256,192,65589,1,0,0:0:0:0:
256,192,65672,1,0,0:0:0:0:
256,192,65754,1,8,0:0:0:0:
256,192,65837,1,8,0:0:0:0:
256,192,65919,1,0,0:0:0:0:
256,192,66084,1,8,0:0:0:0:
256,192,66166,1,8,0:0:0:0:
256,192,66249,1,0,0:0:0:0:
256,192,66331,1,0,0:0:0:0:
256,192,66414,1,0,0:0:0:0:
256,192,66578,1,8,0:0:0:0:
256,192,66743,1,8,0:0:0:0:
256,192,66908,1,0,0:0:0:0:
256,192,66990,1,0,0:0:0:0:
256,192,67073,1,8,0:0:0:0:
256,192,67238,1,8,0:0:0:0:
256,192,67403,1,0,0:0:0:0:
256,192,67485,1,0,0:0:0:0:
256,192,67567,1,8,0:0:0:0:
256,192,67732,1,8,0:0:0:0:
256,192,67897,1,0,0:0:0:0:
256,192,67980,1,0,0:0:0:0:
256,192,68062,1,8,0:0:0:0:
256,192,68227,1,8,0:0:0:0:
256,192,68392,1,0,0:0:0:0:
256,192,68556,1,0,0:0:0:0:
256,192,68721,1,8,0:0:0:0:
256,192,68886,1,8,0:0:0:0:
256,192,68969,1,8,0:0:0:0:
256,192,69051,1,4,0:0:0:0:
256,192,69381,1,8,0:0:0:0:
256,192,69545,1,0,0:0:0:0:
256,192,69628,1,0,0:0:0:0:
256,192,69710,1,0,0:0:0:0:
256,192,69875,1,0,0:0:0:0:
256,192,70040,1,8,0:0:0:0:
256,192,70122,1,0,0:0:0:0:
256,192,70205,1,8,0:0:0:0:
256,192,70287,1,8,0:0:0:0:
256,192,70370,1,0,0:0:0:0:
256,192,70534,1,0,0:0:0:0:
256,192,70699,1,8,0:0:0:0:
256,192,70864,1,0,0:0:0:0:
256,192,70947,1,0,0:0:0:0:
256,192,71029,1,0,0:0:0:0:
256,192,71194,1,0,0:0:0:0:
256,192,71359,1,8,0:0:0:0:
256,192,71523,1,0,0:0:0:0:
256,192,71688,1,0,0:0:0:0:
256,192,71771,1,8,0:0:0:0:
256,192,71936,1,8,0:0:0:0:
256,192,72018,1,0,0:0:0:0:
256,192,72183,1,0,0:0:0:0:
256,192,72265,1,8,0:0:0:0:
256,192,72348,1,8,0:0:0:0:
256,192,72512,1,0,0:0:0:0:
256,192,72595,1,0,0:0:0:0:
256,192,72677,1,0,0:0:0:0:
256,192,72842,1,8,0:0:0:0:
256,192,73007,1,8,0:0:0:0:
256,192,73172,1,0,0:0:0:0:
256,192,73254,1,0,0:0:0:0:
256,192,73337,1,8,0:0:0:0:
256,192,73501,1,0,0:0:0:0:
256,192,73666,1,8,0:0:0:0:
256,192,73831,1,0,0:0:0:0:
256,192,73996,1,8,0:0:0:0:
256,192,74078,1,8,0:0:0:0:
256,192,74161,1,0,0:0:0:0:
256,192,74243,1,0,0:0:0:0:
256,192,74326,1,12,0:0:0:0:
256,192,74655,1,8,0:0:0:0:
256,192,74820,1,0,0:0:0:0:
256,192,74985,1,8,0:0:0:0:
256,192,75150,1,0,0:0:0:0:
256,192,75232,1,0,0:0:0:0:
256,192,75315,1,8,0:0:0:0:
256,192,75397,1,8,0:0:0:0:
256,192,75480,1,0,0:0:0:0:
256,192,75644,1,8,0:0:0:0:
256,192,75809,1,0,0:0:0:0:
256,192,75974,1,8,0:0:0:0:
256,192,76139,1,0,0:0:0:0:
256,192,76304,1,8,0:0:0:0:
256,192,76469,1,0,0:0:0:0:
256,192,76552,1,0,0:0:0:0:
256,192,76634,1,8,0:0:0:0:
256,192,76717,1,8,0:0:0:0:
256,192,76799,1,0,0:0:0:0:
256,192,76964,1,8,0:0:0:0:
256,192,77129,1,8,0:0:0:0:
256,192,77211,1,0,0:0:0:0:
256,192,77294,1,8,0:0:0:0:
256,192,77458,1,0,0:0:0:0:
256,192,77541,1,0,0:0:0:0:
256,192,77623,1,8,0:0:0:0:
256,192,77788,1,8,0:0:0:0:
256,192,77871,1,0,0:0:0:0:
256,192,77953,1,8,0:0:0:0:
256,192,78118,1,8,0:0:0:0:
256,192,78282,1,0,0:0:0:0:
256,192,78447,1,0,0:0:0:0:
256,192,78611,1,8,0:0:0:0:
256,192,78694,1,8,0:0:0:0:
256,192,78776,1,0,0:0:0:0:
256,192,78859,1,0,0:0:0:0:
256,192,78941,1,0,0:0:0:0:
256,192,79106,1,0,0:0:0:0:
256,192,79271,1,8,0:0:0:0:
256,192,79436,1,8,0:0:0:0:
256,192,79518,1,8,0:0:0:0:
256,192,79600,1,4,0:0:0:0:
256,192,79930,1,0,0:0:0:0:
256,192,80260,1,0,0:0:0:0:
272,192,80425,1,8,0:0:0:0:
256,192,80589,1,0,0:0:0:0:
256,192,80754,1,8,0:0:0:0:
256,192,80837,1,8,0:0:0:0:
256,192,80919,1,4,0:0:0:0:
256,192,81249,1,0,0:0:0:0:
256,192,81578,1,0,0:0:0:0:
256,192,81743,1,8,0:0:0:0:
256,192,81908,1,0,0:0:0:0:
256,192,82073,1,0,0:0:0:0:
256,192,82155,1,0,0:0:0:0:
256,192,82238,1,8,0:0:0:0:
256,192,82403,1,0,0:0:0:0:
256,192,82485,1,0,0:0:0:0:
256,192,82567,1,0,0:0:0:0:
256,192,82650,1,0,0:0:0:0:
256,192,82732,1,8,0:0:0:0:
256,192,82897,1,0,0:0:0:0:
256,192,82980,1,0,0:0:0:0:
256,192,83062,1,0,0:0:0:0:
256,192,83227,1,8,0:0:0:0:
256,192,83309,1,8,0:0:0:0:
256,192,83392,1,0,0:0:0:0:
256,192,83474,1,0,0:0:0:0:
256,192,83556,1,0,0:0:0:0:
256,192,84545,1,0,0:0:0:0:
256,192,84875,1,12,0:0:0:0:
256,192,85040,1,0,0:0:0:0:
256,192,85205,1,8,0:0:0:0:
256,192,85370,1,0,0:0:0:0:
256,192,85452,1,0,0:0:0:0:
256,192,85535,1,8,0:0:0:0:
256,192,85617,1,8,0:0:0:0:
256,192,85699,1,0,0:0:0:0:
256,192,85864,1,8,0:0:0:0:
256,192,86029,1,0,0:0:0:0:
256,192,86194,1,8,0:0:0:0:
256,192,86359,1,0,0:0:0:0:
256,192,86524,1,8,0:0:0:0:
256,192,86688,1,0,0:0:0:0:
256,192,86771,1,0,0:0:0:0:
256,192,86853,1,8,0:0:0:0:
256,192,86936,1,8,0:0:0:0:
256,192,87018,1,0,0:0:0:0:
256,192,87183,1,8,0:0:0:0:
256,192,87265,1,8,0:0:0:0:
256,192,87348,1,0,0:0:0:0:
256,192,87430,1,0,0:0:0:0:
256,192,87513,1,0,0:0:0:0:
256,192,87677,1,8,0:0:0:0:
256,192,87842,1,8,0:0:0:0:
256,192,88007,1,0,0:0:0:0:
256,192,88089,1,0,0:0:0:0:
256,192,88172,1,8,0:0:0:0:
256,192,88337,1,8,0:0:0:0:
256,192,88502,1,0,0:0:0:0:
256,192,88584,1,0,0:0:0:0:
256,192,88666,1,8,0:0:0:0:
256,192,88831,1,8,0:0:0:0:
256,192,88996,1,0,0:0:0:0:
256,192,89079,1,0,0:0:0:0:
256,192,89161,1,8,0:0:0:0:
256,192,89326,1,0,0:0:0:0:
256,192,89490,1,8,0:0:0:0:
256,192,89655,1,0,0:0:0:0:
256,192,89820,1,8,0:0:0:0:
256,192,89903,1,0,0:0:0:0:
256,192,89985,1,8,0:0:0:0:
256,192,90068,1,8,0:0:0:0:
256,192,90150,1,4,0:0:0:0:
256,192,90480,1,8,0:0:0:0:
256,192,90645,1,0,0:0:0:0:
256,192,90810,1,8,0:0:0:0:
256,192,90975,1,0,0:0:0:0:
256,192,91140,1,8,0:0:0:0:
256,192,91222,1,8,0:0:0:0:
256,192,91304,1,0,0:0:0:0:
256,192,91387,1,0,0:0:0:0:
256,192,91469,1,8,0:0:0:0:
256,192,91634,1,0,0:0:0:0:
256,192,91799,1,8,0:0:0:0:
256,192,91964,1,0,0:0:0:0:
256,192,92129,1,8,0:0:0:0:
256,192,92293,1,0,0:0:0:0:
256,192,92376,1,0,0:0:0:0:
256,192,92458,1,8,0:0:0:0:
256,192,92541,1,8,0:0:0:0:
256,192,92623,1,0,0:0:0:0:
256,192,92788,1,8,0:0:0:0:
256,192,92953,1,8,0:0:0:0:
256,192,93035,1,0,0:0:0:0:
256,192,93118,1,8,0:0:0:0:
256,192,93282,1,0,0:0:0:0:
256,192,93365,1,0,0:0:0:0:
256,192,93447,1,8,0:0:0:0:
256,192,93612,1,8,0:0:0:0:
256,192,93695,1,0,0:0:0:0:
256,192,93777,1,8,0:0:0:0:
256,192,93942,1,8,0:0:0:0:
256,192,94107,1,0,0:0:0:0:
256,192,94189,1,0,0:0:0:0:
256,192,94271,1,0,0:0:0:0:
256,192,94354,1,0,0:0:0:0:
256,192,94436,1,8,0:0:0:0:
256,192,94601,1,0,0:0:0:0:
256,192,94766,1,8,0:0:0:0:
256,192,94931,1,8,0:0:0:0:
256,192,95013,1,8,0:0:0:0:
256,192,95096,1,8,0:0:0:0:
256,192,95177,1,8,0:0:0:0:
256,192,95260,1,8,0:0:0:0:
256,192,95342,1,8,0:0:0:0:
256,192,95425,1,4,0:0:0:0:
256,192,95589,1,0,0:0:0:0:
256,192,95754,1,0,0:0:0:0:
256,192,95919,1,0,0:0:0:0:
256,192,96084,1,8,0:0:0:0:
256,192,96249,1,0,0:0:0:0:
256,192,96331,1,0,0:0:0:0:
256,192,96414,1,0,0:0:0:0:
256,192,96578,1,0,0:0:0:0:
256,192,96743,1,8,0:0:0:0:
256,192,96908,1,0,0:0:0:0:
256,192,97073,1,8,0:0:0:0:
256,192,97238,1,0,0:0:0:0:
256,192,97320,1,0,0:0:0:0:
256,192,97403,1,8,0:0:0:0:
256,192,97567,1,0,0:0:0:0:
256,192,97732,1,8,0:0:0:0:
256,192,97815,1,8,0:0:0:0:
256,192,97897,1,0,0:0:0:0:
256,192,97980,1,0,0:0:0:0:
256,192,98062,1,0,0:0:0:0:
256,192,98227,1,8,0:0:0:0:
256,192,98392,1,8,0:0:0:0:
256,192,98556,1,0,0:0:0:0:
256,192,98639,1,0,0:0:0:0:
256,192,98721,1,8,0:0:0:0:
256,192,98886,1,8,0:0:0:0:
256,192,99051,1,0,0:0:0:0:
256,192,99133,1,0,0:0:0:0:
256,192,99216,1,8,0:0:0:0:
256,192,99381,1,8,0:0:0:0:
256,192,99545,1,0,0:0:0:0:
256,192,99628,1,0,0:0:0:0:
256,192,99710,1,8,0:0:0:0:
256,192,99875,1,0,0:0:0:0:
256,192,100040,1,8,0:0:0:0:
256,192,100205,1,0,0:0:0:0:
256,192,100370,1,8,0:0:0:0:
256,192,100452,1,8,0:0:0:0:
256,192,100534,1,0,0:0:0:0:
256,192,100617,1,0,0:0:0:0:
256,192,100699,1,12,0:0:0:0:
256,192,101029,1,8,0:0:0:0:
256,192,101194,1,0,0:0:0:0:
256,192,101359,1,8,0:0:0:0:
256,192,101524,1,0,0:0:0:0:
256,192,101689,1,8,0:0:0:0:
256,192,101771,1,8,0:0:0:0:
256,192,101853,1,0,0:0:0:0:
256,192,101936,1,0,0:0:0:0:
256,192,102018,1,8,0:0:0:0:
256,192,102183,1,0,0:0:0:0:
256,192,102348,1,8,0:0:0:0:
256,192,102513,1,0,0:0:0:0:
256,192,102678,1,8,0:0:0:0:
256,192,102842,1,0,0:0:0:0:
256,192,102925,1,0,0:0:0:0:
256,192,103007,1,8,0:0:0:0:
256,192,103090,1,8,0:0:0:0:
256,192,103172,1,0,0:0:0:0:
256,192,103337,1,8,0:0:0:0:
256,192,103501,1,0,0:0:0:0:
256,192,103666,1,0,0:0:0:0:
256,192,103831,1,8,0:0:0:0:
256,192,103996,1,0,0:0:0:0:
256,192,104161,1,0,0:0:0:0:
256,192,104326,1,8,0:0:0:0:
256,192,104490,1,0,0:0:0:0:
256,192,104655,1,8,0:0:0:0:
256,192,104820,1,0,0:0:0:0:
256,192,104985,1,8,0:0:0:0:
256,192,105150,1,0,0:0:0:0:
256,192,105232,1,0,0:0:0:0:
256,192,105315,1,8,0:0:0:0:
256,192,105480,1,4,0:0:0:0:
256,192,105644,1,4,0:0:0:0:
256,192,105809,1,4,0:0:0:0:
