osu file format v14

[General]
AudioFilename: audio.mp3
AudioLeadIn: 0
PreviewTime: 192927
Countdown: 0
SampleSet: Soft
StackLeniency: 0.7
Mode: 0
LetterboxInBreaks: 0
WidescreenStoryboard: 1

[Editor]
DistanceSpacing: 1.4
BeatDivisor: 4
GridSize: 16
TimelineZoom: 2.1

[Metadata]
Title:Overdrive
TitleUnicode:Overdrive
Artist:Harada Hitomi
ArtistUnicode:原田ひとみ
Creator:BladeN
Version:Hard
Source:VALKYRIE DRIVE -MERMAID-
Tags:j-rock jrock ヒゲドライバー hige driver ゆよゆっぺ yuyoyuppe ヴァルキリードライヴ マーメイド japanese anime opening rock unranked mapper wenet wenect delette maruoko _milr op full version
BeatmapID:3987074
BeatmapSetID:1922959

[Difficulty]
HPDrainRate:4.7
CircleSize:3.6
OverallDifficulty:7
ApproachRate:8
SliderMultiplier:1.35
SliderTickRate:1

[Events]
//Background and Video events
0,0,"bg.jpg",0,0
//Break Periods
2,85740,98636
2,110136,113965
//Storyboard Layer 0 (Background)
//Storyboard Layer 1 (Fail)
//Storyboard Layer 2 (Pass)
//Storyboard Layer 3 (Foreground)
//Storyboard Layer 4 (Overlay)
//Storyboard Sound Samples

[TimingPoints]
1145,329.67032967033,4,2,1,80,1,0
11694,-125,4,2,1,60,0,0
16639,-125,4,2,1,40,0,0
16886,-125,4,2,1,60,0,0
22243,-105.263157894737,4,2,1,65,0,0
31474,-142.857142857143,4,2,1,65,0,0
32793,-90.9090909090909,4,2,1,75,0,0
43342,-105.263157894737,4,2,1,65,0,0
53892,-105.263157894737,4,2,1,70,0,0
59166,-100,4,2,1,70,0,0
59495,-100,4,2,1,60,0,0
60485,-100,4,2,1,70,0,0
63123,-142.857142857143,4,2,1,70,0,0
64441,-90.9090909090909,4,2,1,75,0,1
85540,-90.9090909090909,4,2,1,75,0,0
99386,329.67032967033,4,2,1,65,1,0
99715,-125,4,2,1,65,0,0
114715,-125,4,2,1,40,0,0
115210,-111.111111111111,4,2,1,70,0,0
116528,-100,4,2,1,70,0,0
119166,-142.857142857143,4,2,1,70,0,0
120484,-90.9090909090909,4,2,1,75,0,1
141583,-100,4,2,1,75,0,0
152298,-111.111111111111,4,2,1,75,0,0
157737,-100,4,2,1,75,0,0
162682,-100,4,2,1,65,0,0
163012,-125,4,2,1,65,0,0
167957,-111.111111111111,4,2,1,70,0,0
173232,-111.111111111111,4,2,1,65,0,0
173561,-125,4,2,1,65,0,0
178506,-111.111111111111,4,2,1,70,0,0
183781,-100,4,2,1,70,0,0
193012,-142.857142857143,4,2,1,70,0,0
194331,-125,4,2,1,70,0,0
195649,-86.9565217391305,4,2,1,75,0,1
211473,-95.2380952380953,4,2,1,75,0,1
212792,-86.9565217391305,4,2,1,75,0,1
216748,-95.2380952380953,4,2,1,75,0,0
227298,-86.9565217391305,4,2,1,75,0,0

[Colours]
Combo1 : 249,238,179
Combo2 : 130,185,247
Combo3 : 249,173,220
Combo4 : 141,152,246

[HitObjects]
381,334,11694,6,0,P|331:312|278:315,1,108,4|0,3:1|3:0,2:0:0:0:
207,362,12188,1,0,2:0:0:0:
207,362,12353,2,0,L|142:354,1,54,0|0,3:0|2:0,2:0:0:0:
126,277,12683,2,0,L|73:283,1,54,0|0,3:0|2:0,2:0:0:0:
5,224,13013,6,0,P|3:196|14:155,1,54,0|0,3:0|2:0,2:0:0:0:
76,125,13342,2,0,P|102:136|131:167,1,54,0|0,3:0|2:0,2:0:0:0:
198,197,13672,1,0,3:0:0:0:
198,197,13837,2,0,P|223:180|263:169,1,54,0|0,2:0|3:0,2:0:0:0:
416,131,14331,6,0,L|400:76,1,54,0|0,3:0|2:0,2:0:0:0:
316,64,14661,1,0,3:0:0:0:
316,64,14826,2,0,L|328:117,1,54,0|0,2:0|3:0,2:0:0:0:
245,120,15155,2,0,L|231:66,1,54,0|0,2:0|3:0,2:0:0:0:
153,28,15485,1,0,2:0:0:0:
153,28,15650,6,0,L|87:18,1,54,0|0,3:0|2:0,2:0:0:0:
39,80,15980,2,0,L|30:145,1,54,0|0,3:0|2:0,2:0:0:0:
77,205,16309,2,0,L|143:215,1,54,0|0,3:0|2:0,2:0:0:0:
199,267,16639,2,0,P|242:254|286:249,1,81,0|0,3:0|2:0,2:0:0:0:
300,269,16969,6,0,P|358:274|418:288,1,108,4|0,3:2|3:0,2:0:0:0:
461,354,17463,1,0,2:0:0:0:
461,354,17628,2,0,P|482:327|490:303,1,54,0|0,3:0|2:0,2:0:0:0:
462,224,17958,2,0,P|458:198|464:171,1,54,0|0,3:0|2:0,2:0:0:0:
479,85,18287,6,0,L|422:93,1,54,0|0,3:0|2:0,2:0:0:0:
357,46,18617,2,0,L|304:52,1,54,0|0,3:0|2:0,2:0:0:0:
227,75,18947,1,0,3:0:0:0:
227,75,19112,1,0,2:0:0:0:
164,17,19276,2,0,L|111:9,1,54,0|0,3:0|2:0,2:0:0:0:
37,58,19606,6,0,P|51:97|59:133,1,54,0|0,3:0|2:0,2:0:0:0:
138,106,19936,2,0,P|129:147|118:182,1,54,0|0,3:0|2:0,2:0:0:0:
199,198,20265,2,0,P|171:229|144:254,1,54,0|0,3:0|2:0,2:0:0:0:
206,307,20595,2,0,P|165:321|129:328,1,54,0|0,3:0|2:0,2:0:0:0:
274,362,20925,6,0,P|321:339|384:346,1,108,0|0,3:0|3:0,2:0:0:0:
443,287,21419,1,0,2:0:0:0:
443,287,21584,2,0,P|399:255|373:198,1,108,0|4,3:0|3:2,2:0:0:0:
414,108,22079,1,0,2:0:0:0:
414,108,22243,6,0,P|373:126|336:127,1,64.1249999999999,4|0,3:1|2:0,2:0:0:0:
363,38,22573,1,2,3:0:0:0:
363,38,22738,2,0,P|403:21|441:20,1,64.1249999999999,0|0,2:0|3:0,2:0:0:0:
494,80,23068,2,0,L|506:145,1,64.1249999999999,0|2,2:0|3:0,2:0:0:0:
468,227,23397,1,2,2:0:0:0:
468,227,23480,1,2,2:0:0:0:
468,227,23562,6,0,L|479:293,1,64.1249999999999,0|0,3:0|2:0,2:0:0:0:
411,348,23892,1,2,3:0:0:0:
411,348,24057,2,0,P|358:317|280:329,1,128.25,0|0,2:0|2:0,2:0:0:0:
215,358,24551,1,2,3:0:0:0:
122,328,24716,1,2,2:0:0:0:
122,328,24798,1,2,2:0:0:0:
122,328,24881,6,0,P|155:281|234:262,1,128.25,0|2,3:0|3:0,2:0:0:0:
293,209,25375,1,0,2:0:0:0:
293,209,25540,2,0,L|281:134,1,64.1249999999999,0|0,3:0|2:0,2:0:0:0:
195,126,25870,2,0,L|208:51,1,64.1249999999999,2|2,3:0|2:0,2:0:0:0:
199,37,26117,1,2,2:0:0:0:
199,11,26199,6,0,P|229:11|259:24,1,64.1249999999999,2|0,3:2|2:0,2:0:0:0:
329,82,26529,2,0,P|360:81|390:67,1,64.1249999999999,2|0,3:0|2:0,2:0:0:0:
453,3,26859,2,0,P|498:38|500:114,1,128.25,0|2,3:0|3:0,2:0:0:0:
422,145,27353,1,0,1:0:0:0:
433,245,27518,6,0,P|374:224|300:242,1,128.25,4|0,3:1|3:0,2:0:0:0:
236,287,28013,2,0,P|205:279|172:278,1,64.1249999999999,0|0,2:0|3:0,2:0:0:0:
127,203,28342,2,0,P|104:224|87:253,1,64.1249999999999,0|0,2:0|3:0,2:0:0:0:
57,350,28672,1,0,2:0:0:0:
57,350,28837,6,0,P|116:373|194:366,1,128.25,4|0,3:1|1:0,2:0:0:0:
248,318,29331,1,0,2:0:0:0:
248,318,29496,2,0,L|253:238,1,64.1249999999999,0|0,1:0|2:0,2:0:0:0:
311,183,29826,2,0,L|303:138,3,32.0624999999999,0|0|0|0,1:0|1:0|1:0|1:0,2:0:0:0:
330,217,30155,5,2,3:0:0:0:
57,53,31474,6,0,B|158:48|119:121|237:107,1,189,0|0,2:0|2:0,2:0:0:0:
305,58,32298,1,0,3:0:0:0:
303,170,32463,1,4,1:2:0:0:
303,170,32793,6,0,P|338:160|391:175,1,74.25,4|0,3:1|2:0,2:0:0:0:
455,220,33123,2,0,P|465:255|449:308,1,74.25,0|0,1:0|2:0,2:0:0:0:
394,363,33452,1,0,3:0:0:0:
394,363,33617,1,0,3:0:0:0:
318,303,33782,2,0,L|233:296,1,74.25,0|0,1:0|2:0,2:0:0:0:
167,218,34112,6,0,L|252:211,1,74.25,0|0,3:0|3:0,2:0:0:0:
230,123,34441,1,0,1:0:0:0:
230,123,34606,2,0,L|150:128,1,74.25,0|0,2:0|3:0,2:0:0:0:
80,71,34936,1,0,3:0:0:0:
84,187,35101,1,4,1:2:0:0:
284,273,35430,5,4,3:1:0:0:
284,273,35595,2,0,L|366:259,1,74.25,0|2,3:0|1:3,2:0:0:0:
435,172,35925,5,0,3:0:0:0:
435,172,36090,2,0,L|447:255,1,74.25,0|0,3:0|3:0,2:0:0:0:
343,179,36419,5,2,1:3:0:0:
343,179,36584,2,0,L|329:96,1,74.25,0|0,3:0|3:0,2:0:0:0:
236,30,36914,5,0,3:0:0:0:
236,30,37079,2,0,L|319:18,1,74.25,4|0,1:2|3:0,2:0:0:0:
402,10,37408,1,0,3:0:0:0:
402,10,37573,1,0,3:0:0:0:
481,71,37738,1,4,1:2:0:0:
476,89,37820,1,0,1:0:0:0:
472,106,37903,1,0,1:0:0:0:
470,126,37985,1,0,1:0:0:0:
469,143,38068,6,0,L|485:235,1,74.25,4|0,3:1|2:0,2:0:0:0:
411,289,38397,2,0,L|397:216,1,74.25,0|0,1:0|2:0,2:0:0:0:
323,151,38727,1,0,3:0:0:0:
323,151,38892,1,0,3:0:0:0:
258,219,39057,2,0,P|222:227|181:217,1,74.25,0|0,1:0|2:0,2:0:0:0:
91,178,39386,6,0,L|104:251,1,74.25,0|0,3:0|3:0,2:0:0:0:
126,345,39716,1,0,1:0:0:0:
126,345,39881,2,0,L|53:358,1,74.25,0|0,2:0|3:0,2:0:0:0:
4,281,40210,1,0,3:0:0:0:
5,177,40375,1,4,1:2:0:0:
104,0,40705,5,6,3:1:0:0:
104,0,40870,1,0,3:0:0:0:
18,45,41035,2,0,P|45:79|94:94,1,74.25,2|0,1:0|3:0,2:0:0:0:
173,74,41364,1,2,3:1:0:0:
173,74,41529,1,0,3:0:0:0:
242,139,41694,2,0,L|230:224,1,74.25,2|0,1:0|3:0,2:0:0:0:
221,315,42024,5,4,1:2:0:0:
221,315,42188,1,0,3:0:0:0:
287,377,42353,2,0,L|362:364,1,74.25,8|0,1:2|3:0,2:0:0:0:
454,352,42683,1,4,1:2:0:0:
397,284,42848,1,0,1:0:0:0:
390,267,42930,1,0,1:0:0:0:
396,249,43013,2,0,L|403:199,3,37.125,0|0|0|0,1:0|1:0|1:0|1:0,2:0:0:0:
402,167,43342,6,0,P|339:145|279:161,1,128.25,4|0,3:1|1:0,2:0:0:0:
239,237,43837,2,0,P|212:217|195:179,1,64.1249999999999,0|0,2:0|2:0,2:0:0:0:
213,105,44166,1,0,3:0:0:0:
213,105,44331,1,0,1:0:0:0:
159,31,44496,6,0,P|116:15|35:36,1,128.25,0|0,3:0|3:0,2:0:0:0:
1,114,44991,2,0,L|25:242,1,128.25,0|0,1:0|2:0,2:0:0:0:
38,331,45485,1,0,3:0:0:0:
38,331,45650,1,0,1:0:0:0:
110,274,45815,6,0,P|170:274|223:332,1,128.25,0|0,2:0|2:0,2:0:0:0:
310,291,46309,1,0,1:0:0:0:
310,291,46474,2,0,L|325:138,1,128.25,0|0,2:0|3:0,2:0:0:0:
298,82,46969,1,0,1:0:0:0:
357,11,47134,6,0,L|485:17,1,128.25,0|0,3:0|3:0,2:0:0:0:
504,106,47628,2,0,L|439:107,1,64.1249999999999,0|0,1:0|2:0,2:0:0:0:
384,178,47958,1,0,2:0:0:0:
384,178,48123,1,0,3:0:0:0:
447,237,48287,2,0,P|468:274|471:323,1,64.1249999999999,0|8,1:0|1:3,2:0:0:0:
462,328,48535,1,4,1:3:0:0:
437,350,48617,6,0,L|364:361,1,64.1249999999999,4|0,3:1|2:0,2:0:0:0:
342,275,48947,2,0,L|278:264,1,64.1249999999999,0|0,1:0|2:0,2:0:0:0:
208,320,49276,1,0,2:0:0:0:
208,320,49441,1,0,3:0:0:0:
180,234,49606,2,0,P|193:202|226:173,1,64.1249999999999,0|0,1:0|3:0,2:0:0:0:
289,128,49936,5,0,2:0:0:0:
289,128,50101,1,0,3:0:0:0:
244,51,50265,2,0,L|173:40,1,64.1249999999999,0|0,1:0|2:0,2:0:0:0:
102,0,50595,2,0,L|38:9,1,64.1249999999999,0|0,2:0|3:0,2:0:0:0:
6,96,50925,2,0,P|31:129|44:201,1,96.1874999999998,0|0,1:0|2:0,2:0:0:0:
56,208,51254,6,0,L|43:283,1,64.1249999999999,2|0,3:0|2:0,2:0:0:0:
14,357,51584,2,0,P|71:358|131:301,1,128.25,0|0,1:0|2:0,2:0:0:0:
160,235,52079,1,0,3:0:0:0:
213,316,52243,1,0,1:0:0:0:
213,316,52408,1,0,3:0:0:0:
254,232,52573,6,0,P|227:172|159:145,1,128.25,0|0,3:0|1:0,2:0:0:0:
58,4,53232,2,0,P|99:29|202:38,1,128.25,0|0,3:0|1:0,2:0:0:0:
274,17,53727,1,8,1:3:0:0:
274,17,53809,1,4,1:3:0:0:
274,17,53892,6,0,L|340:42,1,64.1249999999999,4|0,3:1|3:0,2:0:0:0:
427,39,54221,1,2,1:3:0:0:
427,39,54386,2,0,L|400:108,1,64.1249999999999,0|0,3:0|2:0,2:0:0:0:
326,143,54716,2,0,L|360:231,1,64.1249999999999,0|2,3:0|1:3,2:0:0:0:
326,291,55046,6,0,P|366:238|432:235,1,128.25,0|0,3:0|3:0,2:0:0:0:
474,314,55540,2,0,P|436:364|374:367,1,128.25,2|0,1:3|3:0,2:0:0:0:
285,369,56035,1,0,3:0:0:0:
285,369,56199,2,0,L|204:352,1,64.1249999999999,2|0,1:3|2:0,2:0:0:0:
206,339,56447,1,0,2:0:0:0:
189,319,56529,6,0,P|125:320|63:361,1,128.25,0|2,3:0|1:3,2:0:0:0:
1,299,57024,2,0,L|14:228,1,64.1249999999999,0|0,3:0|2:0,2:0:0:0:
29,151,57353,1,0,3:0:0:0:
95,209,57518,1,2,1:3:0:0:
177,179,57683,5,0,3:0:0:0:
277,36,58013,1,0,3:0:0:0:
277,36,58177,2,0,L|198:22,1,64.1249999999999,2|0,1:3|2:0,2:0:0:0:
129,9,58507,1,0,3:0:0:0:
129,9,58672,1,0,3:0:0:0:
54,62,58837,2,0,P|27:100|30:159,1,96.1874999999998,4|0,1:2|2:0,2:0:0:0:
38,182,59166,6,0,L|54:328,1,135,4|0,3:1|1:0,2:0:0:0:
126,364,59661,1,0,1:0:0:0:
197,319,59826,2,0,P|238:309|280:323,1,67.5,0|0,1:0|1:0,2:0:0:0:
346,367,60155,1,0,1:0:0:0:
346,367,60320,1,0,1:0:0:0:
344,273,60485,6,0,P|315:216|346:137,1,135,4|0,3:1|1:0,2:0:0:0:
392,91,60980,1,0,1:0:0:0:
438,167,61145,2,0,P|464:145|479:116,1,67.5,0|0,1:0|1:0,2:0:0:0:
462,25,61474,1,0,1:0:0:0:
462,25,61639,1,0,1:0:0:0:
362,1,61804,6,0,L|280:29,1,67.5,4|0,3:1|1:0,2:0:0:0:
275,45,62051,1,0,1:0:0:0:
264,70,62134,2,0,L|256:126,3,33.75,0|0|0|0,1:0|1:0|1:0|1:0,2:0:0:0:
225,124,62463,2,0,L|234:178,3,33.75,0|0|0|0,1:0|1:0|1:0|1:0,2:0:0:0:
202,185,62793,2,0,L|194:240,3,33.75,0|0|0|0,1:0|1:0|1:0|1:0,2:0:0:0:
222,242,63123,6,0,B|315:234|297:316|404:301,1,189,4|0,3:2|2:0,2:0:0:0:
509,198,64112,1,4,1:3:0:0:
410,18,64441,6,0,L|396:95,1,74.25,6|0,3:1|2:0,2:0:0:0:
302,98,64771,2,0,L|251:158,1,74.25,2|0,1:0|2:0,2:0:0:0:
167,114,65101,2,0,L|94:139,1,74.25,2|0,3:1|2:0,2:0:0:0:
23,92,65430,1,2,1:0:0:0:
23,92,65595,1,0,2:0:0:0:
28,196,65760,6,0,P|55:219|91:227,1,74.25,6|0,3:1|2:0,2:0:0:0:
110,321,66090,2,0,P|144:308|169:282,1,74.25,2|0,1:0|2:0,2:0:0:0:
259,313,66419,2,0,P|265:276|256:241,1,74.25,2|0,3:1|2:0,2:0:0:0:
290,148,66749,2,0,P|331:178|408:167,1,111.375,0|0,1:0|1:0,2:0:0:0:
421,160,67079,5,4,3:1:0:0:
421,160,67243,2,0,L|434:77,1,74.25,2|0,2:1|1:0,2:0:0:0:
510,175,67573,1,0,2:0:0:0:
510,175,67738,2,0,L|497:258,1,74.25,2|0,3:1|2:0,2:0:0:0:
414,319,68068,2,0,L|497:331,1,74.25,0|2,1:0|1:0,2:0:0:0:
364,249,68397,6,0,L|281:261,1,74.25,4|0,3:2|3:0,2:0:0:0:
244,342,68727,2,0,L|170:330,1,74.25,4|0,1:2|2:0,2:0:0:0:
87,378,69057,2,0,P|78:306|123:248,1,148.5,0|0,3:0|1:0,2:0:0:0:
187,176,69551,1,8,1:3:0:0:
187,176,69634,1,4,1:3:0:0:
187,176,69716,6,0,L|174:102,1,74.25,4|0,3:1|2:0,2:0:0:0:
119,31,70046,1,0,1:0:0:0:
119,31,70210,2,0,P|46:54|35:125,1,148.5,0|0,3:0|2:0,2:0:0:0:
77,195,70705,1,0,1:0:0:0:
37,287,70870,1,0,1:0:0:0:
37,287,70952,1,0,1:0:0:0:
37,287,71035,6,0,P|109:273|191:268,1,148.5,0|0,3:0|1:0,2:0:0:0:
248,195,71529,2,0,B|319:185|310:249|387:235,1,148.5,0|0,3:0|2:0,2:0:0:0:
462,297,72024,2,0,L|477:219,1,74.25,0|0,1:0|1:0,2:0:0:0:
494,196,72271,1,0,1:0:0:0:
510,178,72353,6,0,P|488:108|493:20,1,148.5,4|0,3:1|1:0,2:0:0:0:
392,22,72848,1,2,2:0:0:0:
391,22,73013,2,0,P|362:45|349:79,1,74.25,0|0,3:0|2:0,2:0:0:0:
262,126,73342,2,0,P|299:141|326:172,1,74.25,0|0,1:0|2:0,2:0:0:0:
361,264,73672,5,4,1:2:0:0:
361,264,73837,1,0,3:0:0:0:
294,334,74002,2,0,L|222:322,1,74.25,0|0,1:0|3:0,2:0:0:0:
110,237,74331,2,0,L|183:248,1,74.25,4|0,1:2|3:0,2:0:0:0:
208,143,74661,1,0,1:0:0:0:
211,125,74743,1,0,1:0:0:0:
214,106,74826,1,0,1:0:0:0:
219,88,74908,1,0,1:0:0:0:
221,69,74991,6,0,P|190:40|149:27,1,74.25,6|2,3:1|2:3,2:0:0:0:
65,17,75320,2,0,P|35:48|23:89,1,74.25,2|2,1:0|2:3,2:0:0:0:
12,172,75650,2,0,P|43:202|84:215,1,74.25,2|2,3:1|2:3,2:0:0:0:
170,206,75980,1,2,1:0:0:0:
170,206,76145,1,2,2:3:0:0:
186,316,76309,6,0,P|210:286|246:266,1,74.25,6|2,3:1|2:3,2:0:0:0:
266,177,76639,2,0,P|304:183|338:205,1,74.25,2|2,1:0|2:3,2:0:0:0:
425,177,76969,2,0,P|438:213|436:254,1,74.25,2|2,3:1|2:3,2:0:0:0:
509,320,77298,1,0,1:0:0:0:
509,320,77463,1,2,1:3:0:0:
416,364,77628,6,0,P|347:330|267:320,1,148.5,4|0,3:1|1:0,2:0:0:0:
191,287,78123,1,2,2:3:0:0:
191,287,78287,2,0,P|215:258|226:223,1,74.25,0|2,3:0|2:3,2:0:0:0:
159,158,78617,2,0,P|133:129|123:94,1,74.25,0|2,1:0|1:3,2:0:0:0:
210,33,78947,6,0,P|279:15|369:13,1,148.5,4|0,3:1|1:0,2:0:0:0:
429,68,79441,1,2,2:3:0:0:
509,11,79606,2,0,P|470:61|481:159,1,148.5,4|0,3:2|1:0,2:0:0:0:
510,238,80101,1,10,1:3:0:0:
510,238,80183,1,4,1:3:0:0:
510,238,80265,6,0,L|497:316,1,74.25,0|0,3:0|2:0,2:0:0:0:
406,299,80595,2,0,L|418:225,1,74.25,0|0,3:0|2:0,2:0:0:0:
327,215,80925,2,0,L|315:292,1,74.25,0|0,3:0|2:0,2:0:0:0:
224,277,81254,2,0,L|236:203,1,74.25,0|0,3:0|1:0,2:0:0:0:
208,187,81502,1,0,1:0:0:0:
189,163,81584,6,0,L|176:90,1,74.25,0|0,1:0|2:0,2:0:0:0:
176,2,81914,2,0,L|103:14,1,74.25,0|0,1:0|2:0,2:0:0:0:
12,26,82243,1,0,1:0:0:0:
12,26,82408,1,0,2:0:0:0:
68,103,82573,2,0,L|56:177,1,74.25,0|0,1:0|2:0,2:0:0:0:
89,277,82903,5,4,1:2:0:0:
151,217,83068,2,0,L|143:170,2,37.125,8|0|0,1:2|2:0|3:0,2:0:0:0:
236,271,83397,1,4,1:2:0:0:
286,341,83562,2,0,L|279:377,2,37.125,8|0|0,1:2|2:0|3:0,2:0:0:0:
382,291,83892,1,4,1:2:0:0:
382,291,83974,1,0,1:0:0:0:
382,291,84057,1,0,1:0:0:0:
333,202,84221,5,2,3:0:0:0:
333,202,85210,6,0,P|296:155|281:100,1,111.375,4|0,1:3|2:0,2:0:0:0:
279,72,85540,5,4,3:1:0:0:
94,85,99386,5,4,3:1:0:0:
94,85,99550,1,0,3:0:0:0:
152,140,99715,2,0,P|180:126|214:119,1,54,0|0,2:0|3:0,2:0:0:0:
263,65,100045,2,0,P|264:33|275:0,2,54,0|0|0,1:0|3:0|2:0,2:0:0:0:
287,147,100539,1,0,3:0:0:0:
287,147,100704,2,0,L|340:137,1,54,0|0,3:0|3:0,2:0:0:0:
383,68,101034,6,0,L|435:78,1,54,0|0,2:0|3:0,2:0:0:0:
480,156,101364,1,0,1:0:0:0:
480,156,101528,1,0,3:0:0:0:
421,311,101858,1,0,3:0:0:0:
476,370,102023,2,0,P|502:323|496:272,1,108,4|0,3:1|2:0,2:0:0:0:
426,225,102517,2,0,P|394:235|358:255,1,54,0|0,3:0|1:0,2:0:0:0:
313,298,102847,2,0,P|256:275|192:264,1,108,0|0,3:0|3:0,2:0:0:0:
135,302,103342,1,0,3:0:0:0:
135,302,103506,1,0,3:0:0:0:
68,139,103836,5,0,3:0:0:0:
117,74,104001,1,4,1:2:0:0:
117,74,104166,1,0,3:0:0:0:
192,102,104331,2,0,P|233:82|282:80,1,81,4|0,1:2|2:0,2:0:0:0:
299,104,104660,5,4,3:1:0:0:
299,104,104825,1,0,3:0:0:0:
367,60,104990,2,0,L|376:0,1,54,0|0,2:0|3:0,2:0:0:0:
456,17,105320,2,0,L|515:25,2,54,0|0|0,1:0|3:0|2:0,2:0:0:0:
439,99,105814,1,0,3:0:0:0:
439,99,105979,2,0,P|447:133|448:166,1,54,0|0,3:0|3:0,2:0:0:0:
376,192,106309,2,0,P|367:224|365:257,1,54,0|0,2:0|3:0,2:0:0:0:
356,328,106638,1,0,1:0:0:0:
356,328,106803,1,0,3:0:0:0:
193,374,107133,5,0,3:0:0:0:
126,320,107298,2,0,L|111:199,1,108,4|0,3:1|2:0,2:0:0:0:
102,129,107792,1,0,3:0:0:0:
186,159,107957,1,0,1:0:0:0:
186,159,108122,2,0,P|187:105|157:62,1,108,0|0,3:0|2:0,2:0:0:0:
83,15,108616,6,0,L|27:32,1,54,4|0,1:2|3:0,2:0:0:0:
21,118,108946,2,0,L|7:175,1,54,0|8,1:0|1:3,2:0:0:0:
12,200,109193,1,4,1:3:0:0:
25,227,109276,2,0,L|36:286,1,54,0|0,3:0|3:0,2:0:0:0:
119,322,109605,2,0,L|122:286,3,27,0|0|0|0,1:0|1:0|1:0|1:0,2:0:0:0:
94,364,109935,5,4,3:1:0:0:
399,105,114715,6,0,L|401:66,2,27,2|2|4,2:3|2:3|2:0,2:0:0:0:
389,184,115045,1,0,2:0:0:0:
330,246,115210,6,0,P|280:221|192:206,1,121.5,4|0,3:1|3:0,2:0:0:0:
145,161,115704,1,0,2:0:0:0:
145,161,115869,2,0,P|131:127|134:87,1,60.7500000000001,0|0,3:0|2:0,2:0:0:0:
47,86,116199,2,0,P|56:49|82:19,1,60.7500000000001,0|4,3:0|2:0,2:0:0:0:
165,35,116528,6,0,L|310:19,1,135,4|0,1:0|1:0,2:0:0:0:
366,77,117023,1,0,2:0:0:0:
424,141,117188,2,0,L|493:134,1,67.5,0|0,1:0|2:0,2:0:0:0:
463,233,117517,6,0,L|448:287,3,33.75,8|8|8|8,1:3|1:3|1:3|1:3,2:0:0:0:
419,282,117847,1,4,3:2:0:0:
337,237,118012,1,4,1:3:0:0:
337,237,118094,1,4,1:3:0:0:
337,237,118177,2,0,L|327:204,2,33.75,4|4|4,1:3|1:3|3:2,2:0:0:0:
248,289,118506,2,0,L|257:325,3,33.75,0|0|0|0,3:0|3:0|3:0|3:0,2:0:0:0:
235,341,118836,2,0,L|227:374,3,33.75,0|0|0|0,1:0|1:0|1:0|1:0,2:0:0:0:
186,363,119166,6,0,B|91:345|131:284|33:262,1,189,4|0,3:2|3:0,2:0:0:0:
0,86,120155,1,4,1:3:0:0:
201,28,120484,6,0,P|181:61|182:110,1,74.25,6|0,3:1|2:0,2:0:0:0:
92,129,120814,2,0,P|110:163|153:187,1,74.25,2|0,1:0|2:0,2:0:0:0:
125,275,121144,2,0,P|163:276|205:250,1,74.25,2|0,3:1|2:0,2:0:0:0:
250,185,121473,1,2,1:0:0:0:
250,185,121638,1,0,2:0:0:0:
283,287,121803,6,0,L|364:274,1,74.25,6|0,3:1|2:0,2:0:0:0:
416,200,122133,2,0,L|333:187,1,74.25,2|0,1:0|2:0,2:0:0:0:
288,108,122462,2,0,L|370:95,1,74.25,2|0,3:1|2:0,2:0:0:0:
435,29,122792,2,0,P|483:43|509:118,1,111.375,0|0,1:0|2:0,2:0:0:0:
502,136,123122,5,4,3:1:0:0:
502,136,123287,2,0,L|484:225,1,74.25,2|0,2:1|1:0,2:0:0:0:
396,281,123616,1,0,2:0:0:0:
396,281,123781,2,0,L|485:297,1,74.25,2|0,3:1|2:0,2:0:0:0:
367,360,124111,2,0,L|294:346,1,74.25,0|2,1:0|1:0,2:0:0:0:
219,253,124440,6,0,L|203:331,1,74.25,4|0,3:2|3:0,2:0:0:0:
111,304,124770,2,0,L|124:232,1,74.25,4|0,1:2|2:0,2:0:0:0:
192,159,125100,2,0,P|141:129|38:109,1,148.5,0|0,3:0|1:0,2:0:0:0:
10,30,125594,1,8,1:3:0:0:
10,30,125677,1,4,1:3:0:0:
10,30,125759,6,0,P|54:22|99:29,1,74.25,4|0,3:1|2:0,2:0:0:0:
179,58,126089,1,0,1:0:0:0:
179,58,126254,2,0,P|230:29|332:9,1,148.5,0|0,3:0|2:0,2:0:0:0:
395,62,126748,2,0,P|412:95|420:149,1,74.25,0|0,1:0|1:0,2:0:0:0:
417,164,126995,1,0,1:0:0:0:
409,199,127078,6,0,L|428:365,1,148.5,0|0,3:0|1:0,2:0:0:0:
338,318,127572,1,0,3:0:0:0:
338,318,127737,2,0,L|248:330,1,74.25,0|0,3:0|2:0,2:0:0:0:
184,378,128067,2,0,L|110:367,1,74.25,0|0,1:0|1:0,2:0:0:0:
84,346,128314,1,0,1:0:0:0:
53,332,128396,6,0,P|68:278|52:184,1,148.5,4|0,3:1|1:0,2:0:0:0:
74,98,128891,1,2,2:0:0:0:
74,98,129056,2,0,P|109:116|133:149,1,74.25,0|0,3:0|2:0,2:0:0:0:
166,229,129386,2,0,P|198:208|240:203,1,74.25,0|0,1:0|2:0,2:0:0:0:
325,255,129715,5,4,1:2:0:0:
325,255,129880,1,0,3:0:0:0:
318,161,130045,2,0,L|308:80,1,74.25,0|0,1:0|3:0,2:0:0:0:
390,37,130375,2,0,L|398:109,1,74.25,4|0,1:2|3:0,2:0:0:0:
475,183,130704,1,0,1:0:0:0:
472,201,130787,1,0,1:0:0:0:
470,219,130869,1,0,1:0:0:0:
467,238,130951,1,0,1:0:0:0:
465,255,131034,6,0,L|383:275,1,74.25,6|2,3:1|2:3,2:0:0:0:
341,353,131364,2,0,L|283:290,1,74.25,2|2,1:0|2:3,2:0:0:0:
193,293,131693,2,0,L|219:212,1,74.25,2|2,3:1|2:3,2:0:0:0:
242,133,132023,1,2,1:0:0:0:
242,133,132188,1,2,2:3:0:0:
181,37,132353,6,0,P|145:30|100:50,1,74.25,6|2,3:1|2:3,2:0:0:0:
17,15,132682,2,0,P|11:51|31:95,1,74.25,2|2,1:0|2:3,2:0:0:0:
3,179,133012,2,0,P|39:185|84:166,1,74.25,2|2,3:1|2:3,2:0:0:0:
166,143,133342,1,0,1:0:0:0:
166,143,133506,1,2,1:3:0:0:
128,248,133671,6,0,P|201:265|247:335,1,148.5,4|0,3:1|1:0,2:0:0:0:
340,352,134166,1,2,2:3:0:0:
340,352,134331,2,0,P|324:311|329:267,1,74.25,0|2,3:0|2:3,2:0:0:0:
412,303,134660,2,0,P|453:288|496:293,1,74.25,0|2,1:0|1:3,2:0:0:0:
512,189,134990,6,0,B|440:161|441:213|367:181,1,148.5,4|0,3:1|1:0,2:0:0:0:
306,117,135484,1,2,2:3:0:0:
269,25,135649,2,0,P|227:65|126:56,1,148.5,4|0,3:2|1:0,2:0:0:0:
57,22,136144,1,10,1:3:0:0:
57,22,136226,1,4,1:3:0:0:
57,22,136309,6,0,L|63:99,1,74.25,0|0,3:0|2:0,2:0:0:0:
147,138,136638,2,0,L|141:63,1,74.25,0|0,3:0|2:0,2:0:0:0:
228,107,136968,2,0,L|233:181,1,74.25,0|0,3:0|2:0,2:0:0:0:
319,222,137298,2,0,L|314:147,1,74.25,0|0,3:0|1:0,2:0:0:0:
319,115,137545,1,0,1:0:0:0:
343,91,137627,6,0,P|375:72|410:77,1,74.25,0|0,1:0|2:0,2:0:0:0:
493,127,137957,2,0,P|459:141|440:172,1,74.25,0|0,1:0|2:0,2:0:0:0:
482,261,138287,1,0,1:0:0:0:
482,261,138451,1,0,2:0:0:0:
423,333,138616,2,0,L|336:320,1,74.25,0|0,1:0|2:0,2:0:0:0:
252,300,138946,5,4,1:2:0:0:
223,224,139111,2,0,L|221:177,2,37.125,8|0|0,1:2|2:0|3:0,2:0:0:0:
126,176,139440,1,4,1:2:0:0:
156,100,139605,2,0,L|158:53,2,37.125,8|0|0,1:2|2:0|3:0,2:0:0:0:
73,44,139935,1,4,1:2:0:0:
73,44,140017,1,0,1:0:0:0:
73,44,140100,1,0,1:0:0:0:
8,108,140265,5,2,3:0:0:0:
8,108,141254,6,0,P|32:157|40:212,1,111.375,4|0,1:3|2:0,2:0:0:0:
47,251,141583,6,0,L|117:267,1,67.5,4|0,3:1|2:0,2:0:0:0:
155,343,141913,2,0,L|220:327,1,67.5,0|0,1:0|2:0,2:0:0:0:
303,367,142243,2,0,P|333:308|394:283,1,135,0|0,3:0|1:0,2:0:0:0:
476,247,142737,1,0,2:0:0:0:
476,247,142902,2,0,L|461:177,1,67.5,0|0,3:0|3:0,2:0:0:0:
387,141,143232,1,0,1:0:0:0:
398,63,143396,1,0,2:0:0:0:
398,63,143561,2,0,L|323:44,1,67.5,0|0,3:0|3:0,2:0:0:0:
259,99,143891,2,0,P|242:145|241:227,1,101.25,4|0,1:2|2:0,2:0:0:0:
254,232,144221,5,4,3:1:0:0:
254,232,144386,1,0,3:0:0:0:
319,294,144550,2,0,L|392:284,1,67.5,0|0,1:0|3:0,2:0:0:0:
431,356,144880,2,0,L|297:374,1,135,0|0,3:0|1:0,2:0:0:0:
223,317,145375,2,0,P|186:326|144:347,1,67.5,0|0,3:0|3:0,2:0:0:0:
83,290,145704,2,0,P|93:253|96:206,1,67.5,0|4,3:0|1:2,2:0:0:0:
83,133,146034,1,0,3:0:0:0:
83,133,146199,2,0,L|149:144,1,67.5,0|0,3:0|3:0,2:0:0:0:
219,210,146528,1,0,1:0:0:0:
235,205,146611,1,0,1:0:0:0:
251,201,146693,1,0,1:0:0:0:
267,196,146776,1,0,1:0:0:0:
284,192,146858,6,0,L|298:119,1,67.5,4|0,3:1|2:0,2:0:0:0:
373,69,147188,2,0,L|385:135,1,67.5,0|0,1:0|2:0,2:0:0:0:
468,174,147517,2,0,P|429:233|422:306,1,135,0|0,3:0|1:0,2:0:0:0:
342,348,148012,1,0,2:0:0:0:
342,348,148177,2,0,P|310:335|259:321,1,67.5,0|0,3:0|3:0,2:0:0:0:
189,358,148506,1,0,1:0:0:0:
97,359,148671,1,0,2:0:0:0:
97,359,148836,2,0,P|91:310|79:280,1,67.5,0|0,3:0|3:0,2:0:0:0:
16,230,149166,2,0,P|23:173|55:116,1,101.25,4|0,1:2|2:0,2:0:0:0:
65,115,149495,5,4,3:1:0:0:
65,115,149660,1,0,3:0:0:0:
128,172,149825,2,0,L|205:163,1,67.5,2|0,1:3|3:0,2:0:0:0:
286,152,150155,5,0,3:0:0:0:
286,152,150320,1,0,3:0:0:0:
251,233,150484,2,0,P|248:266|260:297,1,67.5,2|0,1:3|3:0,2:0:0:0:
328,365,150814,5,4,1:2:0:0:
328,365,150979,1,0,3:0:0:0:
392,303,151144,1,8,3:2:0:0:
392,303,151309,1,0,3:0:0:0:
465,355,151473,2,0,L|507:372,3,33.75,4|0|0|0,1:2|2:0|1:0|1:0,2:0:0:0:
480,303,151803,2,0,L|515:275,3,33.75,0|0|0|0,1:0|1:0|1:0|2:0,2:0:0:0:
487,250,152133,5,4,3:1:0:0:
487,250,152298,2,0,P|434:221|363:207,1,121.5,0|0,3:0|3:0,2:0:0:0:
291,233,152792,2,0,L|278:295,1,60.7500000000001,0|0,1:0|2:0,2:0:0:0:
204,330,153122,1,0,3:0:0:0:
204,330,153287,2,0,L|140:307,1,60.7500000000001,0|0,3:0|2:0,2:0:0:0:
71,268,153616,2,0,P|95:211|101:136,1,121.5,0|0,3:0|2:0,2:0:0:0:
97,123,154028,1,0,1:0:0:0:
86,94,154111,2,0,P|78:62|88:22,1,60.7500000000001,4|0,1:2|3:0,2:0:0:0:
165,59,154440,2,0,P|188:36|228:24,1,60.7500000000001,0|0,3:0|2:0,2:0:0:0:
286,85,154770,5,4,3:1:0:0:
286,85,154935,2,0,L|372:78,1,60.7500000000001,0|0,3:0|2:0,2:0:0:0:
438,76,155265,1,0,3:0:0:0:
438,76,155429,2,0,L|445:162,1,60.7500000000001,0|0,1:0|2:0,2:0:0:0:
449,228,155759,1,0,3:0:0:0:
449,228,155924,2,0,P|385:246|347:292,1,121.5,0|0,3:0|3:0,2:0:0:0:
326,363,156418,2,0,P|292:346|271:310,1,60.7500000000001,0|0,3:0|2:0,2:0:0:0:
234,255,156748,5,4,1:2:0:0:
234,255,156913,1,0,3:0:0:0:
193,328,157078,2,0,L|179:379,3,30.375,0|0|0|0,1:0|2:0|1:0|2:0,2:0:0:0:
149,334,157407,5,4,3:1:0:0:
149,334,157572,1,0,3:0:0:0:
56,314,157737,2,0,L|45:241,1,67.5,4|0,1:2|3:0,2:0:0:0:
8,158,158067,2,0,L|74:147,1,67.5,4|0,1:2|3:0,2:0:0:0:
131,74,158396,1,0,3:0:0:0:
131,74,158561,2,0,L|197:84,1,67.5,0|4,3:0|1:2,2:0:0:0:
263,161,158891,1,0,3:0:0:0:
263,161,159056,2,0,L|329:150,1,67.5,4|0,1:2|3:0,2:0:0:0:
419,119,159386,2,0,L|441:180,3,33.75,0|0|0|0,1:0|1:0|1:0|1:0,2:0:0:0:
440,86,159715,2,0,L|466:40,3,33.75,0|0|0|0,3:0|3:0|3:0|3:0,2:0:0:0:
431,33,160045,5,0,1:0:0:0:
431,33,160210,1,8,1:2:0:0:
341,62,160375,2,0,L|262:47,1,67.5,0|4,3:0|1:2,2:0:0:0:
193,98,160704,2,0,L|126:85,1,67.5,12|0,1:2|3:0,2:0:0:0:
39,115,161034,1,0,1:0:0:0:
39,115,161199,1,8,1:2:0:0:
55,208,161364,2,0,P|94:257|166:260,1,135,0|12,3:0|1:2,2:0:0:0:
268,364,162023,5,0,3:0:0:0:
284,360,162105,1,0,3:0:0:0:
301,357,162188,1,0,3:0:0:0:
317,354,162270,1,0,3:0:0:0:
334,351,162353,2,0,L|344:315,3,33.75,0|0|0|0,1:0|1:0|1:0|1:0,2:0:0:0:
376,341,162682,5,4,3:1:0:0:
512,330,163012,2,0,P|503:291|491:269,1,54,0|0,3:0|2:0,2:0:0:0:
425,238,163342,2,0,P|409:194|399:126,1,108,0|0,3:0|3:0,2:0:0:0:
301,31,164001,2,0,P|262:22|230:14,1,54,0|0,3:0|2:0,2:0:0:0:
184,73,164331,2,0,P|157:79|131:85,1,54,0|0,3:0|2:0,2:0:0:0:
69,30,164660,2,0,P|49:79|59:132,1,108,0|0,3:0|3:0,2:0:0:0:
76,306,165320,6,0,P|114:292|142:288,1,54,0|0,3:0|2:0,2:0:0:0:
203,323,165649,2,0,P|209:283|220:256,1,54,0|0,3:0|2:0,2:0:0:0:
290,227,165979,2,0,P|317:272|365:297,1,108,0|0,3:0|3:0,2:0:0:0:
512,173,166638,2,0,P|459:173|413:202,1,108,0|0,3:0|3:0,2:0:0:0:
344,160,167133,1,0,1:0:0:0:
290,227,167298,2,0,L|226:213,1,54,0|0,3:0|1:0,2:0:0:0:
185,147,167627,1,0,3:0:0:0:
145,231,167792,1,8,1:3:0:0:
145,231,167875,1,4,1:3:0:0:
145,231,167957,6,0,L|159:313,1,60.7500000000001,4|0,3:1|3:0,2:0:0:0:
68,300,168287,2,0,L|57:240,1,60.7500000000001,0|0,3:0|2:0,2:0:0:0:
3,168,168616,2,0,P|12:108|32:50,1,121.5,4|0,1:2|3:0,2:0:0:0:
121,62,169111,1,0,3:0:0:0:
121,62,169276,2,0,P|150:46|185:33,1,60.7500000000001,0|0,3:0|2:0,2:0:0:0:
238,96,169605,2,0,P|271:96|307:102,1,60.7500000000001,0|0,1:0|2:0,2:0:0:0:
368,41,169935,5,4,1:2:0:0:
368,41,170100,1,0,3:0:0:0:
430,99,170265,2,0,L|408:163,1,60.7500000000001,0|0,1:0|3:0,2:0:0:0:
365,235,170594,1,4,3:1:0:0:
365,235,170759,1,0,3:0:0:0:
417,307,170924,2,0,L|486:319,1,60.7500000000001,0|0,3:0|2:0,2:0:0:0:
353,361,171254,6,0,P|300:331|241:335,1,121.5,4|0,1:2|3:0,2:0:0:0:
167,284,171748,1,0,3:0:0:0:
167,284,171913,2,0,P|153:321|128:354,1,60.7500000000001,0|0,3:0|2:0,2:0:0:0:
57,348,172243,1,0,1:0:0:0:
57,348,172407,1,0,3:0:0:0:
21,260,172572,6,0,L|13:193,1,60.7500000000001,4|0,1:2|3:0,2:0:0:0:
78,140,172902,2,0,L|86:73,1,60.7500000000001,4|8,1:2|1:3,2:0:0:0:
107,61,173149,1,4,1:3:0:0:
131,45,173232,5,4,3:1:0:0:
231,154,173561,2,0,P|256:162|282:168,1,54,0|0,3:0|2:0,2:0:0:0:
340,110,173891,2,0,P|385:81|438:82,1,108,0|0,3:0|3:0,2:0:0:0:
507,240,174550,2,0,P|466:227|438:228,1,54,0|0,3:0|2:0,2:0:0:0:
388,276,174880,2,0,P|361:279|336:289,1,54,0|0,3:0|2:0,2:0:0:0:
267,237,175210,2,0,P|215:221|142:214,1,108,0|0,3:0|3:0,2:0:0:0:
79,235,175704,1,0,1:0:0:0:
79,235,175787,1,0,1:0:0:0:
79,235,175869,6,0,L|60:171,1,54,0|0,3:0|2:0,2:0:0:0:
0,128,176199,2,0,L|19:64,1,54,0|0,3:0|1:0,2:0:0:0:
83,24,176528,2,0,P|104:42|129:52,1,54,0|0,3:0|1:0,2:0:0:0:
207,80,176858,1,0,3:0:0:0:
283,33,177023,1,0,1:0:0:0:
283,33,177105,1,0,1:0:0:0:
283,33,177188,6,0,P|299:77|266:145,1,108,0|0,3:0|1:0,2:0:0:0:
198,168,177682,1,8,3:0:0:0:
198,168,177847,2,0,L|204:237,1,54,4|4,3:0|1:2,2:0:0:0:
261,289,178177,2,0,L|232:323,3,27,0|0|0|0,1:0|1:0|1:0|1:0,2:0:0:0:
308,286,178506,6,0,P|344:304|375:313,1,60.7500000000001,4|0,3:1|3:0,2:0:0:0:
420,376,178836,2,0,P|443:356|468:340,1,60.7500000000001,0|0,3:0|2:0,2:0:0:0:
430,258,179166,2,0,P|417:196|409:119,1,121.5,4|0,1:2|3:0,2:0:0:0:
489,101,179660,1,0,3:0:0:0:
489,101,179825,1,0,3:0:0:0:
371,7,180155,2,0,P|341:12|313:24,1,60.7500000000001,0|0,1:0|2:0,2:0:0:0:
272,106,180484,5,4,1:2:0:0:
272,106,180649,1,0,3:0:0:0:
337,163,180814,2,0,L|330:231,1,60.7500000000001,0|0,1:0|3:0,2:0:0:0:
319,311,181144,1,4,3:1:0:0:
319,311,181309,1,0,3:0:0:0:
250,249,181473,2,0,L|175:239,1,60.7500000000001,0|0,3:0|2:0,2:0:0:0:
113,284,181803,6,0,P|143:232|144:172,1,121.5,4|0,1:2|3:0,2:0:0:0:
78,121,182298,1,0,3:0:0:0:
78,121,182462,2,0,P|56:91|49:54,1,60.7500000000001,0|0,3:0|2:0,2:0:0:0:
96,0,182792,1,0,1:0:0:0:
181,41,182957,1,0,3:0:0:0:
181,41,183039,1,0,3:0:0:0:
181,41,183122,2,0,L|254:34,1,60.7500000000001,4|0,1:2|3:0,2:0:0:0:
315,96,183451,2,0,L|326:60,3,30.375,0|0|0|0,1:0|1:0|1:0|1:0,2:0:0:0:
280,135,183781,6,0,P|312:196|322:272,1,135,4|0,3:1|1:0,2:0:0:0:
293,339,184276,2,0,P|334:290|413:288,1,135,0|0,3:0|3:0,2:0:0:0:
445,210,184770,1,0,1:0:0:0:
445,210,184935,2,0,P|426:151|411:71,1,135,0|0,3:0|3:0,2:0:0:0:
342,17,185429,2,0,P|301:25|270:84,1,101.25,4|0,1:2|2:0,2:0:0:0:
272,100,185759,6,0,L|286:176,1,67.5,0|0,3:0|3:0,2:0:0:0:
244,250,186089,2,0,P|188:260|135:289,1,101.25,4|0,1:2|2:0,2:0:0:0:
122,310,186418,2,0,P|91:298|49:292,1,67.5,4|0,3:1|2:0,2:0:0:0:
8,215,186748,1,0,1:0:0:0:
8,215,186913,2,0,P|55:188|61:107,1,135,0|0,3:0|3:0,2:0:0:0:
27,35,187407,1,0,1:0:0:0:
27,35,187572,6,0,P|99:13|183:4,1,135,0|0,3:0|3:0,2:0:0:0:
217,74,188067,1,4,1:2:0:0:
147,129,188232,1,8,1:3:0:0:
147,129,188314,1,4,1:3:0:0:
147,129,188396,2,0,P|164:196|174:265,1,135,0|0,3:0|1:0,2:0:0:0:
221,337,188891,1,8,3:0:0:0:
271,260,189056,6,0,L|286:222,3,33.75,4|0|0|0,3:1|2:0|1:0|2:0,2:0:0:0:
310,211,189386,2,0,L|298:178,3,33.75,0|0|2|0,1:0|1:0|3:0|2:0,2:0:0:0:
331,170,189715,2,0,L|350:131,3,33.75,0|0|0|0,1:0|1:0|1:0|2:0,2:0:0:0:
369,156,190045,1,2,3:0:0:0:
469,166,190210,1,0,1:0:0:0:
469,166,190292,1,0,1:0:0:0:
469,166,190375,6,0,L|480:203,3,33.75,0|0|2|0,1:0|1:0|3:0|2:0,2:0:0:0:
469,231,190704,2,0,L|456:264,3,33.75,0|0|0|0,1:0|1:0|1:0|2:0,2:0:0:0:
423,271,191034,2,0,L|435:304,3,33.75,0|0|0|0,1:0|2:0|1:0|2:0,2:0:0:0:
405,317,191364,2,0,L|390:351,3,33.75,0|0|0|0,1:0|1:0|1:0|1:0,2:0:0:0:
355,353,191693,5,2,3:0:0:0:
8,369,193012,6,0,B|109:360|63:287|175:277,1,189,2|0,2:1|2:0,2:0:0:0:
344,286,194331,6,0,B|239:281|295:222|174:183,1,189,6|0,3:1|2:0,2:0:0:0:
156,189,194990,5,0,1:0:0:0:
132,97,195155,1,2,3:0:0:0:
362,113,195484,1,0,2:0:0:0:
362,113,195649,6,0,P|371:66|358:29,1,77.625,6|0,1:0|3:0,2:0:0:0:
262,38,195979,2,0,P|225:6|187:-1,1,77.625,2|0,1:0|3:0,2:0:0:0:
136,79,196309,2,0,P|90:94|65:124,1,77.625,2|0,1:0|3:0,2:0:0:0:
104,211,196638,1,2,1:0:0:0:
104,211,196803,1,0,3:0:0:0:
171,309,196968,6,0,L|188:225,1,77.625,6|0,1:0|3:0,2:0:0:0:
282,252,197298,2,0,L|266:328,1,77.625,2|0,1:0|3:0,2:0:0:0:
367,299,197627,1,2,1:0:0:0:
367,299,197792,1,0,3:0:0:0:
431,361,197957,2,0,P|451:313|498:258,1,116.4375,0|0,1:0|2:0,2:0:0:0:
485,233,198287,5,4,3:1:0:0:
485,233,198451,2,0,P|470:186|469:142,1,77.625,2|0,3:1|1:0,2:0:0:0:
400,61,198781,1,0,3:0:0:0:
400,61,198946,2,0,P|395:99|382:136,1,77.625,2|0,1:0|3:0,2:0:0:0:
328,217,199276,1,0,1:0:0:0:
328,217,199440,1,2,1:0:0:0:
289,129,199605,2,0,L|196:110,1,77.625,4|0,1:2|3:0,2:0:0:0:
185,25,199935,2,0,L|108:40,1,77.625,4|0,1:2|3:0,2:0:0:0:
19,68,200265,5,4,1:2:0:0:
19,68,200429,2,0,P|45:125|58:224,1,155.25,0|8,3:0|1:3,2:0:0:0:
54,248,200842,1,4,1:3:0:0:
43,278,200924,2,0,B|129:274|110:342|205:330,1,155.25,4|0,3:1|1:0,2:0:0:0:
252,277,201418,1,0,3:0:0:0:
326,343,201583,6,0,P|361:322|405:308,1,77.625,0|0,1:0|3:0,2:0:0:0:
494,308,201913,1,0,1:0:0:0:
494,308,202078,1,0,1:0:0:0:
437,231,202243,2,0,P|403:179|425:88,1,155.25,0|0,1:0|1:0,2:0:0:0:
505,43,202737,5,0,3:0:0:0:
505,43,202902,2,0,P|478:15|443:0,1,77.625,0|0,1:0|3:0,2:0:0:0:
356,34,203232,1,0,1:0:0:0:
271,10,203396,1,0,1:0:0:0:
271,10,203479,1,0,1:0:0:0:
271,10,203561,2,0,P|253:70|238:177,1,155.25,4|0,1:0|1:0,2:0:0:0:
162,211,204056,1,2,3:0:0:0:
162,211,204221,2,0,P|125:185|68:171,1,77.625,4|0,3:2|2:0,2:0:0:0:
3,141,204550,1,0,1:0:0:0:
81,79,204715,1,0,3:0:0:0:
81,79,204798,1,0,3:0:0:0:
81,79,204880,6,0,L|131:93,3,38.8125,4|0|0|0,1:0|2:0|1:0|2:0,2:0:0:0:
142,65,205210,2,0,L|157:100,3,38.8125,0|0|0|0,3:0|3:0|3:0|3:0,2:0:0:0:
197,97,205539,2,0,L|187:134,3,38.8125,0|0|0|0,1:0|1:0|1:0|1:0,2:0:0:0:
222,149,205869,1,0,1:0:0:0:
277,257,206034,1,0,1:0:0:0:
277,257,206116,1,0,1:0:0:0:
277,257,206199,6,0,L|366:243,1,77.625,6|2,3:1|2:3,2:0:0:0:
448,277,206528,2,0,L|434:188,1,77.625,2|2,1:0|2:3,2:0:0:0:
460,106,206858,2,0,L|371:120,1,77.625,2|2,3:1|2:3,2:0:0:0:
326,50,207188,1,2,1:0:0:0:
326,50,207353,1,2,2:3:0:0:
304,152,207517,6,0,P|267:133|225:124,1,77.625,6|2,3:1|2:3,2:0:0:0:
214,218,207847,2,0,P|172:220|131:233,1,77.625,2|2,1:0|2:3,2:0:0:0:
78,307,208177,1,2,3:1:0:0:
78,307,208342,1,2,2:3:0:0:
48,215,208506,2,0,P|40:154|19:90,1,116.4375,0|0,1:0|1:0,2:0:0:0:
31,67,208836,5,4,3:1:0:0:
31,67,209001,2,0,L|130:70,1,77.625,2|0,2:3|1:0,2:0:0:0:
183,7,209331,1,2,2:3:0:0:
183,7,209495,2,0,P|147:74|164:148,1,155.25,0|0,3:0|1:0,2:0:0:0:
116,230,209990,1,2,1:3:0:0:
116,230,210155,2,0,P|178:184|253:169,1,155.25,4|0,3:1|1:0,2:0:0:0:
331,240,210649,1,2,2:3:0:0:
331,240,210814,2,0,B|420:218|373:174|454:155,1,155.25,4|0,3:2|1:0,2:0:0:0:
485,60,211309,1,10,1:3:0:0:
485,60,211391,1,4,1:3:0:0:
485,60,211473,6,0,L|410:78,1,70.875,0|0,3:0|2:0,2:0:0:0:
347,126,211803,2,0,L|278:109,1,70.875,0|0,3:0|2:0,2:0:0:0:
241,29,212133,2,0,L|166:47,1,70.875,0|0,3:0|2:0,2:0:0:0:
103,95,212462,2,0,L|34:78,1,70.875,0|0,3:0|1:0,2:0:0:0:
19,103,212710,1,0,1:0:0:0:
0,131,212792,6,0,P|14:167|28:217,1,77.625,0|0,1:0|2:0,2:0:0:0:
12,294,213122,2,0,P|50:299|100:312,1,77.625,0|0,1:0|2:0,2:0:0:0:
166,367,213451,1,0,1:0:0:0:
166,367,213616,1,0,2:0:0:0:
233,303,213781,2,0,L|249:222,1,77.625,0|0,1:0|2:0,2:0:0:0:
269,130,214111,5,4,1:2:0:0:
339,177,214276,2,0,L|345:231,2,38.8125,8|0|0,1:2|2:0|3:0,2:0:0:0:
405,102,214605,1,4,1:2:0:0:
472,53,214770,2,0,L|478:-1,2,38.8125,8|0|0,1:2|2:0|3:0,2:0:0:0:
511,149,215100,1,4,1:2:0:0:
511,149,215182,1,0,1:0:0:0:
511,149,215265,1,0,1:0:0:0:
430,187,215429,5,2,3:0:0:0:
430,187,216418,6,0,P|407:255|400:317,1,116.4375,4|0,1:3|2:0,2:0:0:0:
401,331,216748,6,0,L|326:348,1,70.875,4|0,3:1|2:0,2:0:0:0:
267,287,217078,2,0,L|197:271,1,70.875,0|0,1:0|2:0,2:0:0:0:
126,326,217407,1,0,3:0:0:0:
126,326,217572,1,0,3:0:0:0:
117,236,217737,2,0,P|136:205|166:186,1,70.875,0|0,1:0|2:0,2:0:0:0:
229,118,218067,6,0,L|219:43,1,70.875,0|0,3:0|3:0,2:0:0:0:
307,36,218396,2,0,L|316:106,1,70.875,0|0,1:0|2:0,2:0:0:0:
286,188,218726,1,0,3:0:0:0:
286,188,218891,1,0,3:0:0:0:
361,232,219056,2,0,P|404:209|480:222,1,106.3125,4|0,1:2|2:0,2:0:0:0:
489,231,219386,5,4,3:1:0:0:
489,231,219550,2,0,L|476:322,1,70.875,0|2,3:0|1:3,2:0:0:0:
394,374,219880,5,0,3:0:0:0:
394,374,220045,2,0,L|485:387,1,70.875,0|0,3:0|3:0,2:0:0:0:
345,299,220375,5,2,1:3:0:0:
345,299,220539,2,0,L|254:286,1,70.875,0|0,3:0|3:0,2:0:0:0:
200,203,220869,5,0,3:0:0:0:
200,203,221034,2,0,L|187:294,1,70.875,4|0,1:2|3:0,2:0:0:0:
112,338,221364,2,0,L|101:267,1,70.875,0|0,3:0|3:0,2:0:0:0:
38,190,221693,1,4,1:2:0:0:
41,172,221776,1,0,1:0:0:0:
45,155,221858,1,0,1:0:0:0:
48,137,221940,1,0,1:0:0:0:
52,120,222023,6,0,P|66:82|103:54,1,70.875,4|0,3:1|2:0,2:0:0:0:
171,97,222353,2,0,P|210:90|253:108,1,70.875,0|0,1:0|2:0,2:0:0:0:
241,189,222682,2,0,P|266:220|272:266,1,70.875,0|0,3:0|3:0,2:0:0:0:
262,339,223012,1,0,1:0:0:0:
262,339,223177,1,0,2:0:0:0:
351,381,223342,6,0,L|429:358,1,70.875,0|0,3:0|3:0,2:0:0:0:
478,293,223671,2,0,L|400:270,1,70.875,0|0,1:0|2:0,2:0:0:0:
359,204,224001,1,0,3:0:0:0:
359,204,224166,1,0,3:0:0:0:
315,281,224331,2,0,P|270:286|195:303,1,106.3125,4|0,1:2|2:0,2:0:0:0:
172,329,224660,5,6,3:1:0:0:
172,329,224825,1,0,3:0:0:0:
103,263,224990,2,0,L|96:190,1,70.875,2|0,1:0|2:0,2:0:0:0:
87,100,225320,1,2,3:1:0:0:
87,100,225484,1,0,3:0:0:0:
179,129,225649,2,0,P|207:115|237:85,1,70.875,2|0,1:0|3:0,2:0:0:0:
291,13,225979,5,4,1:2:0:0:
291,13,226144,1,0,2:0:0:0:
368,67,226309,2,0,L|359:156,1,70.875,8|0,1:2|3:0,2:0:0:0:
438,184,226638,2,0,L|447:273,1,70.875,4|0,1:2|1:0,2:0:0:0:
402,341,226968,1,0,1:0:0:0:
384,343,227050,1,0,1:0:0:0:
366,345,227133,1,0,1:0:0:0:
349,347,227215,1,0,1:0:0:0:
330,351,227298,6,0,P|286:339|220:332,1,77.625,4|0,3:1|3:0,2:0:0:0:
161,267,227627,2,0,P|205:255|271:248,1,77.625,0|0,3:0|3:0,2:0:0:0:
334,232,227957,1,0,1:0:0:0:
334,232,228122,1,0,3:0:0:0:
261,161,228287,2,0,P|245:131|241:76,1,77.625,0|0,3:0|3:0,2:0:0:0:
281,0,228616,5,4,3:1:0:0:
281,0,228781,1,0,3:0:0:0:
180,15,228946,2,0,L|95:2,1,77.625,0|0,3:0|3:0,2:0:0:0:
11,29,229276,1,0,1:0:0:0:
11,29,229440,1,0,3:0:0:0:
79,88,229605,2,0,P|90:141|96:222,1,116.4375,0|0,3:0|2:0,2:0:0:0:
79,228,229935,5,4,1:0:0:0:
79,228,230100,2,0,L|103:320,1,77.625,0|0,3:0|3:0,2:0:0:0:
178,384,230429,5,0,1:0:0:0:
178,384,230594,2,0,L|197:308,1,77.625,0|0,1:0|3:0,2:0:0:0:
295,238,230924,5,0,1:0:0:0:
295,238,231089,2,0,L|219:218,1,77.625,0|0,3:0|3:0,2:0:0:0:
131,152,231418,5,0,1:0:0:0:
131,152,231583,2,0,L|206:132,1,77.625,0|0,1:0|3:0,2:0:0:0:
254,51,231913,1,4,3:2:0:0:
254,51,232078,1,0,3:0:0:0:
337,110,232243,1,0,1:0:0:0:
355,103,232325,1,0,1:0:0:0:
373,97,232407,1,0,1:0:0:0:
392,91,232490,1,0,1:0:0:0:
410,85,232572,6,0,P|464:92|509:189,1,155.25,4|0,3:1|1:0,2:0:0:0:
491,273,233067,1,0,3:0:0:0:
491,273,233232,2,0,P|450:278|408:299,1,77.625,0|0,1:0|3:0,2:0:0:0:
363,373,233561,2,0,P|327:357|289:353,1,77.625,0|0,1:0|3:0,2:0:0:0:
192,296,233891,6,0,L|213:392,1,77.625,4|0,1:0|3:0,2:0:0:0:
109,370,234221,2,0,L|92:294,1,77.625,0|0,1:0|3:0,2:0:0:0:
23,229,234550,1,0,1:0:0:0:
23,229,234715,1,0,3:0:0:0:
89,153,234880,2,0,L|96:107,3,38.8125,0|0|0|0,1:0|3:0|3:0|3:0,2:0:0:0:
107,184,235210,5,4,3:1:0:0:
107,184,235375,2,0,L|190:201,1,77.625,0|0,3:0|3:0,2:0:0:0:
289,142,235704,5,4,1:2:0:0:
289,142,235869,2,0,L|272:225,1,77.625,0|0,3:0|3:0,2:0:0:0:
323,310,236199,1,4,1:2:0:0:
323,310,236364,1,0,3:0:0:0:
397,245,236528,2,0,P|427:220|464:210,1,77.625,4|0,1:2|3:0,2:0:0:0:
478,116,236858,2,0,P|442:102|414:74,1,77.625,8|0,1:2|3:0,2:0:0:0:
346,7,237188,1,4,1:2:0:0:
255,26,237353,1,8,3:2:0:0:
245,119,237517,1,8,3:2:0:0:
245,119,237682,1,8,3:2:0:0:
