osu file format v14

[General]
AudioFilename: audio.mp3
AudioLeadIn: 0
PreviewTime: 192927
Countdown: 0
SampleSet: Soft
StackLeniency: 0.7
Mode: 0
LetterboxInBreaks: 0
WidescreenStoryboard: 0

[Editor]
DistanceSpacing: 1
BeatDivisor: 4
GridSize: 16
TimelineZoom: 2.899999

[Metadata]
Title:Overdrive
TitleUnicode:Overdrive
Artist:Harada Hitomi
ArtistUnicode:原田ひとみ
Creator:BladeN
Version:Determination
Source:VALKYRIE DRIVE -MERMAID-
Tags:j-rock jrock ヒゲドライバー hige driver ゆよゆっぺ yuyoyuppe ヴァルキリードライヴ マーメイド japanese anime opening rock unranked mapper wenet wenect delette maruoko _milr op full version
BeatmapID:3969583
BeatmapSetID:1922959

[Difficulty]
HPDrainRate:5.6
CircleSize:4
OverallDifficulty:9
ApproachRate:9.4
SliderMultiplier:1.92
SliderTickRate:1

[Events]
//Background and Video events
0,0,"bg.jpg",0,0
//Break Periods
//Storyboard Layer 0 (Background)
//Storyboard Layer 1 (Fail)
//Storyboard Layer 2 (Pass)
//Storyboard Layer 3 (Foreground)
//Storyboard Layer 4 (Overlay)
//Storyboard Sound Samples

[TimingPoints]
1145,329.67032967033,4,2,1,80,1,0
11694,-125,4,2,1,60,0,0
22243,-111.111111111111,4,2,1,65,0,0
31474,-166.666666666666,4,2,1,65,0,0
32298,-100,4,2,1,65,0,0
32463,-125,4,2,1,65,0,0
32793,-100,4,2,1,75,0,1
43342,-117.647058823529,4,2,1,65,0,0
53892,-117.647058823529,4,2,1,70,0,0
59166,-111.111111111111,4,2,1,70,0,0
59496,-111.111111111111,4,2,1,60,0,0
60485,-111.111111111111,4,2,1,70,0,0
63123,-166.666666666667,4,2,1,70,0,0
64276,-125,4,2,1,70,0,0
64441,-100,4,2,1,75,0,1
85210,-125,4,2,1,75,0,0
85540,-100,4,2,1,75,0,0
96090,-250,4,2,1,75,0,0
96337,-71.4285714285714,4,2,1,75,0,0
96584,-250,4,2,1,75,0,0
96831,-71.4285714285714,4,2,1,75,0,0
97079,-100,4,2,1,75,0,0
99386,329.67032967033,4,2,1,65,1,0
99715,-125,4,2,1,65,0,0
109935,-250,4,2,1,65,0,0
114715,-125,4,2,1,40,0,0
114880,-166.666666666667,4,2,1,40,0,0
115127,-166.666666666667,4,2,1,65,0,0
115210,-125,4,2,1,70,0,0
116528,-111.111111111111,4,2,1,70,0,0
119166,-166.666666666666,4,2,1,70,0,0
120320,-111.111111111111,4,2,1,70,0,0
120484,-100,4,2,1,75,0,1
141254,-125,4,2,1,75,0,0
141913,-100,4,2,1,75,0,0
152298,-125,4,2,1,75,0,0
158561,-100,4,2,1,75,0,0
162682,-100,4,2,1,65,0,0
163012,-142.857142857143,4,2,1,65,0,0
167957,-142.857142857143,4,2,1,70,0,0
168287,-117.647058823529,4,2,1,70,0,0
173232,-142.857142857143,4,2,1,65,0,0
178506,-142.857142857143,4,2,1,70,0,0
178836,-117.647058823529,4,2,1,70,0,0
183781,-111.111111111111,4,2,1,70,0,0
193012,-166.666666666666,4,2,1,70,0,0
194331,-142.857142857142,4,2,1,70,0,0
195484,-111.111111111111,4,2,1,70,0,0
195649,-86.9565217391305,4,2,1,75,0,1
216418,-125,4,2,1,75,0,0
216748,-86.9565217391305,4,2,1,75,0,0

[Colours]
Combo1 : 249,238,179
Combo2 : 130,185,247
Combo3 : 249,173,220
Combo4 : 141,152,246

[HitObjects]
246,173,11035,5,0,1:0:0:0:
279,42,11199,1,0,3:0:0:0:
157,175,11364,2,0,L|166:222,1,48,0|0,1:0|2:0,2:0:0:0:
283,318,11529,1,0,3:0:0:0:
283,318,11612,1,0,3:0:0:0:
283,318,11694,6,0,P|291:270|315:217,1,76.8,4|0,3:1|2:0,2:0:0:0:
442,243,12024,1,0,3:0:0:0:
374,195,12188,1,0,2:0:0:0:
429,87,12353,2,0,P|447:120|454:157,1,76.8,0|0,3:0|2:0,2:0:0:0:
342,114,12683,1,0,3:0:0:0:
262,146,12848,1,0,2:0:0:0:
200,35,13013,6,0,P|234:50|271:62,1,76.8,0|0,3:0|2:0,2:0:0:0:
154,107,13342,2,0,P|157:145|166:182,1,76.8,0|0,3:0|2:0,2:0:0:0:
42,218,13672,1,0,3:0:0:0:
3,143,13837,2,0,P|39:132|76:140,1,76.8,0|0,2:0|3:0,2:0:0:0:
79,304,14166,1,2,2:0:0:0:
79,304,14249,1,2,2:0:0:0:
79,304,14331,6,0,P|88:341|94:405,1,76.8,2|0,3:2|2:0,2:0:0:0:
189,242,14661,1,0,3:0:0:0:
189,242,14826,2,0,P|180:279|174:343,1,76.8,0|0,2:0|3:0,2:0:0:0:
265,294,15155,2,0,P|274:331|280:395,1,76.8,0|0,2:0|3:0,2:0:0:0:
411,246,15485,5,0,2:0:0:0:
411,246,15650,2,0,L|486:260,1,76.8,0|0,3:0|2:0,2:0:0:0:
405,164,15980,2,0,L|468:121,1,76.8,0|0,3:0|2:0,2:0:0:0:
335,117,16309,2,0,L|349:41,1,76.8,0|0,3:0|2:0,2:0:0:0:
256,141,16639,6,0,L|247:120,6,19.2,0|0|0|0|0|0|0,3:0|2:0|2:0|2:0|2:0|2:0|2:0,2:0:0:0:
252,225,16969,6,0,P|218:215|161:214,1,76.8,4|0,3:2|2:0,2:0:0:0:
47,295,17298,2,0,P|81:285|138:284,1,76.8,0|0,3:0|2:0,2:0:0:0:
94,172,17628,1,0,3:0:0:0:
176,212,17793,1,0,2:0:0:0:
169,128,17958,2,0,P|171:89|181:52,1,76.8,0|0,3:0|2:0,2:0:0:0:
382,88,18287,6,0,P|341:82|299:47,1,76.8,0|0,3:0|2:0,2:0:0:0:
418,165,18617,2,0,P|392:197|340:216,1,76.8,0|0,3:0|2:0,2:0:0:0:
332,355,18947,1,0,3:0:0:0:
381,289,19112,1,0,2:0:0:0:
459,290,19276,2,0,P|491:315|510:367,1,76.8,0|0,3:0|2:0,2:0:0:0:
332,355,19606,6,0,P|294:348|239:346,1,76.8,0|0,3:0|2:0,2:0:0:0:
172,339,19936,2,0,P|179:301|181:246,1,76.8,0|0,3:0|2:0,2:0:0:0:
267,185,20265,2,0,P|229:178|174:176,1,76.8,0|0,3:0|2:0,2:0:0:0:
107,169,20595,2,0,P|114:131|116:76,1,76.8,0|0,3:0|2:0,2:0:0:0:
244,20,20925,6,0,B|313:15|302:81|392:67,1,153.6,0|0,3:0|3:0,2:0:0:0:
394,167,21419,1,0,2:0:0:0:
482,59,21584,2,0,P|416:95|394:167,1,153.6,0|4,3:0|3:2,2:0:0:0:
491,163,22079,1,0,2:0:0:0:
326,226,22243,6,0,P|285:212|248:175,1,86.40000000000008,4|0,3:1|2:0,2:0:0:0:
192,113,22573,1,2,3:0:0:0:
119,70,22738,2,0,P|160:84|197:121,1,86.40000000000008,0|0,2:0|3:0,2:0:0:0:
43,202,23068,2,0,P|75:173|126:159,1,86.40000000000008,0|2,2:0|3:0,2:0:0:0:
282,102,23397,1,2,2:0:0:0:
282,102,23480,1,2,2:0:0:0:
282,102,23562,6,0,P|265:138|253:183,1,86.40000000000008,2|0,3:2|2:0,2:0:0:0:
233,313,23892,1,2,3:0:0:0:
339,226,24057,1,2,2:0:0:0:
339,226,24139,1,2,2:0:0:0:
339,226,24221,1,0,3:0:0:0:
402,282,24386,1,0,2:0:0:0:
486,148,24551,1,2,3:0:0:0:
397,75,24716,1,2,2:0:0:0:
397,75,24798,1,2,2:0:0:0:
397,75,24881,6,0,P|348:127|253:109,1,172.80000000000015,0|2,3:0|3:0,2:0:0:0:
314,43,25375,1,0,2:0:0:0:
175,140,25540,2,0,P|212:119|255:110,1,86.40000000000008,0|0,3:0|2:0,2:0:0:0:
125,0,25870,2,0,P|123:43|110:84,1,86.40000000000008,2|2,3:0|2:0,2:0:0:0:
106,185,26117,1,2,2:0:0:0:
101,169,26199,6,0,L|23:134,1,86.40000000000008,0|0,3:0|2:0,2:0:0:0:
137,265,26529,2,0,L|57:322,1,86.40000000000008,2|0,3:0|2:0,2:0:0:0:
225,288,26859,2,0,L|208:388,1,86.40000000000008,0|0,3:0|2:0,2:0:0:0:
225,288,27188,1,2,3:0:0:0:
66,315,27353,1,0,1:0:0:0:
293,219,27518,6,0,P|363:270|455:267,1,172.80000000000015,4|0,3:1|3:0,2:0:0:0:
369,108,28013,2,0,P|366:151|385:189,1,86.40000000000008,0|0,2:0|3:0,2:0:0:0:
512,74,28342,2,0,P|489:109|451:129,1,86.40000000000008,0|0,2:0|3:0,2:0:0:0:
408,11,28672,1,0,2:0:0:0:
229,109,28837,6,0,B|170:151|116:123|116:123|116:88|151:78,1,172.80000000000015,4|0,3:1|1:0,2:0:0:0:
84,219,29331,1,0,2:0:0:0:
211,296,29496,1,0,1:0:0:0:
55,305,29661,1,0,2:0:0:0:
242,208,29826,1,0,1:0:0:0:
281,225,29908,1,0,1:0:0:0:
307,258,29991,1,0,1:0:0:0:
315,301,30073,1,0,1:0:0:0:
302,341,30155,5,2,3:0:0:0:
302,341,31474,6,0,P|235:335|308:276,1,201.6000000000008,0|0,2:0|2:0,2:0:0:0:
366,294,32134,5,0,2:0:0:0:
313,138,32298,6,0,P|300:158|293:181,1,48,0|0,3:0|2:0,2:0:0:0:
188,212,32463,6,0,P|240:181|297:182,1,115.2,4|0,1:2|2:0,2:0:0:0:
380,191,32793,6,0,P|424:206|478:200,1,96,4|0,3:1|2:0,2:0:0:0:
275,49,33123,2,0,P|322:44|367:59,1,96,0|0,1:0|2:0,2:0:0:0:
472,201,33452,5,0,3:0:0:0:
432,118,33617,1,0,3:0:0:0:
474,10,33782,1,0,1:0:0:0:
448,105,33947,1,0,2:0:0:0:
413,266,34112,5,0,3:0:0:0:
315,234,34276,1,0,3:0:0:0:
209,342,34441,5,0,1:0:0:0:
228,357,34606,1,0,2:0:0:0:
312,149,34771,5,0,3:0:0:0:
240,97,34936,1,0,3:0:0:0:
308,22,35101,6,0,L|326:77,1,48,4|0,1:2|2:0,2:0:0:0:
230,178,35265,2,0,L|184:192,1,48,0|0,2:0|2:0,2:0:0:0:
1,56,35430,5,4,3:1:0:0:
42,149,35595,1,0,3:0:0:0:
135,108,35760,1,2,1:3:0:0:
223,281,35925,5,0,3:0:0:0:
191,377,36090,1,0,3:0:0:0:
123,294,36254,1,0,3:0:0:0:
323,270,36419,5,2,1:3:0:0:
374,179,36584,1,0,3:0:0:0:
282,131,36749,1,0,3:0:0:0:
40,240,36914,5,0,3:0:0:0:
90,134,37079,1,4,1:2:0:0:
194,89,37243,1,0,3:0:0:0:
65,245,37408,5,0,3:0:0:0:
89,373,37573,1,0,3:0:0:0:
323,270,37738,5,4,1:2:0:0:
316,266,37820,1,0,1:0:0:0:
304,264,37903,1,0,1:0:0:0:
291,268,37985,1,0,1:0:0:0:
262,300,38068,6,0,P|317:309|392:312,1,96,4|0,3:1|2:0,2:0:0:0:
509,204,38397,2,0,P|454:213|379:216,1,96,0|0,1:0|2:0,2:0:0:0:
317,85,38727,1,0,3:0:0:0:
417,123,38892,1,0,3:0:0:0:
297,106,39057,1,0,1:0:0:0:
168,9,39221,1,2,2:0:0:0:
176,18,39304,1,2,2:0:0:0:
182,27,39386,6,0,P|193:75|204:139,1,96,2|0,3:0|3:0,2:0:0:0:
108,85,39716,1,0,1:0:0:0:
216,207,39881,2,0,P|263:221|323:243,1,96,0|0,2:0|3:0,2:0:0:0:
431,277,40210,1,0,3:0:0:0:
269,376,40375,2,0,P|268:351|276:318,1,48,4|0,1:2|2:0,2:0:0:0:
307,236,40540,2,0,P|324:218|353:200,1,48,0|0,2:0|2:0,2:0:0:0:
451,153,40705,5,6,3:1:0:0:
306,69,40870,1,0,3:0:0:0:
437,121,41035,5,2,1:0:0:0:
459,263,41199,1,0,3:0:0:0:
347,384,41364,5,2,3:1:0:0:
424,259,41529,1,0,3:0:0:0:
319,360,41694,5,2,1:0:0:0:
169,295,41859,1,0,3:0:0:0:
0,384,42024,5,4,1:2:0:0:
178,313,42188,1,0,3:0:0:0:
20,172,42353,5,8,1:2:0:0:
198,101,42518,1,0,3:0:0:0:
376,172,42683,6,0,P|410:167|436:149,1,48,4|0,1:2|2:0,2:0:0:0:
214,7,42848,1,0,1:0:0:0:
184,50,42930,1,0,1:0:0:0:
198,101,43013,1,0,1:0:0:0:
218,129,43095,1,0,1:0:0:0:
226,156,43177,1,0,1:0:0:0:
225,173,43260,1,0,1:0:0:0:
181,210,43342,6,0,P|256:238|270:325,1,163.20000000000056,4|0,3:1|1:0,2:0:0:0:
172,358,43837,1,2,2:0:0:0:
172,358,43919,1,2,2:0:0:0:
172,358,44002,1,2,2:0:0:0:
348,341,44166,2,0,P|306:318|250:314,1,81.60000000000028,0|0,3:0|1:0,2:0:0:0:
436,321,44496,6,0,P|436:249|491:167,1,163.20000000000056,0|0,3:0|3:0,2:0:0:0:
423,20,44991,2,0,B|433:64|472:81|472:81|429:85|409:126,1,163.20000000000056,0|0,1:0|2:0,2:0:0:0:
328,193,45485,1,0,3:0:0:0:
351,69,45650,1,0,1:0:0:0:
219,80,45815,1,2,2:0:0:0:
225,92,45897,1,2,2:0:0:0:
230,105,45980,6,0,P|188:95|144:91,1,81.60000000000028,2|0,3:0|2:0,2:0:0:0:
64,25,46309,1,0,1:0:0:0:
52,214,46474,2,0,B|135:177|76:130|160:85,1,163.20000000000056,0|0,2:0|3:0,2:0:0:0:
302,42,46969,1,0,1:0:0:0:
238,187,47134,6,0,P|320:168|401:166,1,163.20000000000056,0|0,3:0|3:0,2:0:0:0:
283,264,47628,2,0,P|263:307|257:353,1,81.60000000000028,0|0,1:0|2:0,2:0:0:0:
160,234,47958,1,0,2:0:0:0:
238,187,48123,1,0,3:0:0:0:
271,107,48287,2,0,P|278:75|282:50,1,40.80000000000014,0|0,1:0|2:0,2:0:0:0:
401,42,48452,1,8,1:3:0:0:
394,49,48535,1,4,1:3:0:0:
391,60,48617,6,0,P|402:101|411:162,1,81.60000000000028,4|0,3:1|2:0,2:0:0:0:
512,219,48947,2,0,P|471:226|432:236,1,81.60000000000028,0|0,1:0|2:0,2:0:0:0:
393,320,49276,1,0,2:0:0:0:
314,219,49441,1,0,3:0:0:0:
250,272,49606,2,0,P|209:285|149:289,1,81.60000000000028,0|0,1:0|3:0,2:0:0:0:
44,136,49936,6,0,P|73:176|118:188,1,81.60000000000028,0|0,2:0|3:0,2:0:0:0:
201,126,50265,1,0,1:0:0:0:
165,43,50430,1,0,2:0:0:0:
257,51,50595,2,0,P|280:83|289:123,1,81.60000000000028,0|0,2:0|3:0,2:0:0:0:
416,143,50925,2,0,P|352:179|340:232,1,122.40000000000045,0|0,1:0|2:0,2:0:0:0:
361,297,51254,6,0,P|403:286|458:279,1,81.60000000000028,2|0,3:0|2:0,2:0:0:0:
495,159,51584,2,0,P|454:152|415:142,1,81.60000000000028,0|0,1:0|2:0,2:0:0:0:
359,38,51914,1,0,2:0:0:0:
310,107,52079,1,0,3:0:0:0:
177,132,52243,1,0,1:0:0:0:
163,33,52408,1,0,3:0:0:0:
298,131,52573,6,0,P|284:195|278:261,1,122.40000000000045,0|0,3:0|2:0,2:0:0:0:
233,315,52903,2,0,P|191:304|136:297,1,81.60000000000028,0|0,1:0|2:0,2:0:0:0:
357,256,53232,2,0,P|397:262|436:272,1,81.60000000000028,0|0,3:0|2:0,2:0:0:0:
477,129,53562,6,0,L|470:60,1,40.80000000000014,0|0,1:0|2:0,2:0:0:0:
371,27,53727,1,8,1:3:0:0:
366,37,53809,1,4,1:3:0:0:
367,51,53892,5,4,3:1:0:0:
268,133,54057,1,0,3:0:0:0:
194,8,54221,1,2,1:3:0:0:
281,52,54386,2,0,P|271:91|267:132,1,81.60000000000028,0|0,3:0|2:0,2:0:0:0:
401,220,54716,2,0,P|361:210|320:206,1,81.60000000000028,0|2,3:0|1:3,2:0:0:0:
28,251,55046,6,0,P|107:253|166:200,1,163.20000000000056,0|0,3:0|3:0,2:0:0:0:
61,86,55540,2,0,P|74:124|78:165,1,81.60000000000028,2|0,1:3|2:0,2:0:0:0:
147,49,55870,1,0,3:0:0:0:
234,8,56035,1,0,3:0:0:0:
413,106,56199,1,2,1:3:0:0:
315,55,56364,1,2,2:0:0:0:
325,49,56447,1,2,2:0:0:0:
334,51,56529,6,0,P|343:118|346:235,1,163.20000000000056,2|2,3:0|1:3,2:0:0:0:
459,248,57024,2,0,P|420:267|385:292,1,81.60000000000028,0|0,3:0|2:0,2:0:0:0:
320,343,57353,1,0,3:0:0:0:
177,256,57518,1,2,1:3:0:0:
248,297,57683,6,0,P|212:272|172:254,1,81.60000000000028,0|0,3:0|2:0,2:0:0:0:
87,102,58013,1,0,3:0:0:0:
38,181,58177,2,0,P|97:190|153:168,1,122.40000000000045,2|0,1:3|2:0,2:0:0:0:
215,120,58507,1,0,3:0:0:0:
229,23,58672,1,0,3:0:0:0:
374,17,58837,2,0,P|403:63|486:88,1,122.40000000000045,4|0,1:2|2:0,2:0:0:0:
504,156,59166,6,0,P|487:213|481:256,1,86.40000000000008,4|0,3:1|2:0,2:0:0:0:
511,353,59496,1,0,1:0:0:0:
427,384,59661,1,0,1:0:0:0:
386,276,59826,1,0,1:0:0:0:
300,252,59991,1,0,1:0:0:0:
328,73,60155,1,0,1:0:0:0:
429,61,60320,2,0,L|450:23,1,43.20000000000003,2|2,1:2|2:0,2:0:0:0:
240,94,60485,6,0,P|324:91|398:158,1,172.80000000000015,4|0,3:1|1:0,2:0:0:0:
485,289,60980,1,0,1:0:0:0:
443,384,61145,1,0,1:0:0:0:
258,319,61309,1,0,1:0:0:0:
366,244,61474,1,0,1:0:0:0:
173,142,61639,1,0,1:0:0:0:
110,207,61804,6,0,L|120:253,1,43.20000000000003,4|0,3:1|2:0,2:0:0:0:
258,319,61969,2,0,L|215:305,1,43.20000000000003,0|0,1:0|1:0,2:0:0:0:
259,85,62134,5,0,1:0:0:0:
264,59,62216,1,0,1:0:0:0:
279,38,62298,1,0,1:0:0:0:
299,23,62381,1,0,1:0:0:0:
323,16,62463,1,0,1:0:0:0:
374,9,62546,1,0,1:0:0:0:
426,31,62628,1,0,1:0:0:0:
463,73,62710,1,0,1:0:0:0:
475,129,62793,1,0,1:0:0:0:
451,185,62875,1,0,1:0:0:0:
409,231,62958,1,0,1:0:0:0:
345,238,63040,1,0,1:0:0:0:
276,215,63123,6,0,P|238:255|333:324,1,201.5999999999996,4|0,3:2|2:0,2:0:0:0:
396,306,63782,5,0,2:0:0:0:
337,132,64112,5,4,1:3:0:0:
248,48,64276,6,0,L|257:85,1,38.4,2|2,2:0|2:0,2:0:0:0:
76,115,64441,6,0,P|117:91|141:50,1,96,6|0,3:1|2:0,2:0:0:0:
27,254,64771,2,0,P|26:206|2:165,1,96,2|0,1:0|2:0,2:0:0:0:
122,366,65101,2,0,P|80:343|32:343,1,96,2|0,3:1|2:0,2:0:0:0:
269,287,65430,1,2,1:0:0:0:
311,207,65595,1,0,2:0:0:0:
494,182,65760,5,6,3:1:0:0:
344,123,65925,1,0,2:0:0:0:
456,79,66090,5,2,1:0:0:0:
422,155,66254,1,0,2:0:0:0:
466,300,66419,5,2,3:1:0:0:
494,307,66584,1,0,2:0:0:0:
312,209,66749,5,0,1:0:0:0:
172,341,66914,1,2,1:0:0:0:
172,341,66996,1,0,1:0:0:0:
172,341,67079,5,4,3:1:0:0:
74,310,67243,1,2,2:1:0:0:
103,218,67408,1,0,1:0:0:0:
250,134,67573,5,0,2:0:0:0:
208,42,67738,1,2,3:1:0:0:
310,52,67903,1,0,2:0:0:0:
406,176,68068,5,0,1:0:0:0:
357,336,68232,1,2,1:0:0:0:
357,336,68315,1,0,1:0:0:0:
357,336,68397,5,4,3:2:0:0:
441,210,68562,1,0,3:0:0:0:
409,49,68727,2,0,P|342:37|299:25,1,96,4|0,1:2|2:0,2:0:0:0:
250,134,69057,1,0,3:0:0:0:
53,72,69221,2,0,P|136:89|146:211,1,192,0|8,2:0|1:3,2:0:0:0:
87,240,69634,1,4,1:3:0:0:
89,250,69716,6,0,P|174:209|276:250,1,192,4|0,3:1|1:0,2:0:0:0:
320,342,70210,1,0,3:0:0:0:
327,339,70293,1,0,3:0:0:0:
336,340,70375,2,0,P|383:342|431:348,1,96,0|0,3:0|2:0,2:0:0:0:
377,238,70705,1,0,1:0:0:0:
494,158,70870,1,0,1:0:0:0:
502,167,70952,1,0,1:0:0:0:
505,179,71035,6,0,B|415:172|444:109|326:87,1,192,0|0,3:0|1:0,2:0:0:0:
194,25,71529,1,0,3:0:0:0:
189,37,71612,1,0,3:0:0:0:
188,48,71694,2,0,P|123:67|84:68,1,96,0|0,3:0|2:0,2:0:0:0:
239,127,72024,1,0,1:0:0:0:
419,0,72188,1,0,1:0:0:0:
412,10,72271,1,0,1:0:0:0:
415,24,72353,6,0,P|431:97|436:172,1,144,4|2,3:1|2:0,2:0:0:0:
434,242,72683,1,0,1:0:0:0:
512,384,72848,1,2,2:0:0:0:
501,375,72930,1,2,2:0:0:0:
483,368,73013,2,0,P|432:359|382:361,1,96,2|0,3:2|2:0,2:0:0:0:
254,383,73342,1,0,1:0:0:0:
139,213,73507,1,2,2:0:0:0:
147,222,73590,1,2,2:0:0:0:
154,240,73672,5,4,1:2:0:0:
314,100,73837,1,0,3:0:0:0:
291,10,74002,5,0,1:0:0:0:
491,169,74166,1,0,3:0:0:0:
476,258,74331,5,4,1:2:0:0:
401,77,74496,1,0,3:0:0:0:
492,0,74661,6,0,L|479:46,1,48,0|0,1:0|1:0,2:0:0:0:
314,100,74826,2,0,L|326:146,1,48,0|0,1:0|1:0,2:0:0:0:
445,345,74991,6,0,P|399:332|352:330,1,96,6|2,3:1|2:3,2:0:0:0:
265,219,75320,2,0,P|291:179|326:146,1,96,2|2,1:0|2:3,2:0:0:0:
92,149,75650,2,0,P|103:195|125:237,1,96,2|2,3:1|2:3,2:0:0:0:
246,318,75980,1,2,1:0:0:0:
265,219,76145,1,2,2:3:0:0:
426,149,76309,5,6,3:1:0:0:
368,27,76474,1,2,2:3:0:0:
509,174,76639,5,2,1:0:0:0:
464,319,76804,1,2,2:3:0:0:
341,187,76969,5,2,3:1:0:0:
426,149,77134,1,2,2:3:0:0:
270,25,77298,5,0,1:0:0:0:
111,131,77463,1,2,1:3:0:0:
111,131,77546,1,0,1:0:0:0:
111,131,77628,5,4,3:1:0:0:
85,235,77793,1,2,2:3:0:0:
5,158,77958,1,0,1:0:0:0:
186,207,78123,5,2,2:3:0:0:
46,358,78287,2,0,P|89:337|135:322,1,96,0|2,3:0|2:3,2:0:0:0:
314,381,78617,1,0,1:0:0:0:
452,252,78782,1,2,1:3:0:0:
431,245,78864,1,0,1:0:0:0:
415,250,78947,6,0,P|410:186|426:53,1,192,4|0,3:1|1:0,2:0:0:0:
504,191,79441,1,2,2:3:0:0:
305,57,79606,2,0,B|202:64|239:130|129:117,1,192,4|0,3:2|1:0,2:0:0:0:
32,185,80101,2,0,P|26:161|20:138,1,48,10|4,1:3|1:3,2:0:0:0:
162,23,80265,5,0,3:0:0:0:
129,117,80430,1,0,2:0:0:0:
289,220,80595,1,0,3:0:0:0:
245,114,80760,1,0,2:0:0:0:
448,24,80925,1,0,3:0:0:0:
387,125,81090,1,0,2:0:0:0:
512,274,81254,1,0,3:0:0:0:
504,127,81419,1,0,1:0:0:0:
502,141,81502,1,0,1:0:0:0:
506,156,81584,5,0,1:0:0:0:
404,222,81749,1,0,2:0:0:0:
370,372,81914,5,0,1:0:0:0:
302,269,82079,1,0,2:0:0:0:
135,248,82243,5,0,1:0:0:0:
243,176,82408,1,0,2:0:0:0:
0,176,82573,5,0,1:0:0:0:
130,326,82738,1,0,3:0:0:0:
141,313,82820,1,0,3:0:0:0:
142,295,82903,6,0,L|133:235,1,48,4|0,1:2|2:0,2:0:0:0:
88,165,83068,2,0,L|124:116,1,48,8|0,1:2|2:0,2:0:0:0:
172,55,83232,1,0,3:0:0:0:
393,277,83397,6,0,L|336:254,1,48,4|0,1:2|2:0,2:0:0:0:
253,258,83562,2,0,L|228:202,1,48,8|0,1:2|2:0,2:0:0:0:
200,131,83727,1,0,3:0:0:0:
509,54,83892,6,0,L|461:91,1,48,4|0,1:2|1:0,2:0:0:0:
422,165,84057,2,0,L|361:158,1,48,0|0,1:0|1:0,2:0:0:0:
286,148,84221,1,2,3:0:0:0:
456,360,84551,5,0,2:0:0:0:
253,258,84881,5,0,2:0:0:0:
31,370,85210,6,0,P|78:342|64:272,1,115.2,4|0,1:3|2:0,2:0:0:0:
17,223,85540,6,0,P|60:204|107:211,1,96,4|0,3:1|2:0,2:0:0:0:
231,63,85870,2,0,P|225:110|195:147,1,96,0|0,1:0|2:0,2:0:0:0:
301,288,86199,1,0,3:0:0:0:
277,198,86364,1,0,3:0:0:0:
347,109,86529,1,0,1:0:0:0:
309,205,86694,1,0,2:0:0:0:
346,364,86859,5,0,3:0:0:0:
444,326,87024,1,0,3:0:0:0:
499,168,87188,5,0,1:0:0:0:
457,240,87353,1,0,2:0:0:0:
347,109,87518,5,0,3:0:0:0:
479,50,87683,1,0,3:0:0:0:
287,38,87848,6,0,P|257:30|217:24,1,48,4|0,1:2|2:0,2:0:0:0:
359,187,88013,2,0,P|382:182|405:175,1,48,0|0,2:0|2:0,2:0:0:0:
285,323,88177,5,4,3:1:0:0:
198,285,88342,1,0,3:0:0:0:
117,325,88507,1,2,1:3:0:0:
14,164,88672,5,0,3:0:0:0:
45,79,88837,1,0,3:0:0:0:
78,0,89002,1,0,3:0:0:0:
156,198,89166,5,2,1:3:0:0:
257,208,89331,1,0,3:0:0:0:
208,119,89496,1,0,3:0:0:0:
259,38,89661,1,0,3:0:0:0:
384,211,89826,5,4,1:2:0:0:
339,352,89991,1,0,3:0:0:0:
465,208,90155,5,0,3:0:0:0:
399,26,90320,1,0,3:0:0:0:
315,259,90485,6,0,P|329:304|339:352,1,96,4|0,1:2|3:0,2:0:0:0:
73,366,90815,6,0,P|113:320|120:264,1,96,4|0,3:1|2:0,2:0:0:0:
1,183,91145,2,0,P|60:194|112:172,1,96,0|0,1:0|2:0,2:0:0:0:
195,101,91474,1,0,3:0:0:0:
251,20,91639,1,0,3:0:0:0:
101,95,91804,1,0,1:0:0:0:
190,84,91969,1,0,2:0:0:0:
313,178,92134,5,0,3:0:0:0:
436,215,92298,1,0,3:0:0:0:
352,81,92463,5,0,1:0:0:0:
439,0,92628,1,0,2:0:0:0:
251,20,92793,5,0,3:0:0:0:
281,169,92958,1,0,3:0:0:0:
240,350,93123,6,0,P|244:314|249:289,1,48,4|0,1:2|2:0,2:0:0:0:
201,187,93287,2,0,P|197:151|192:126,1,48,0|0,2:0|2:0,2:0:0:0:
166,25,93452,5,4,1:2:0:0:
68,136,93617,1,4,1:2:0:0:
114,279,93782,1,0,3:0:0:0:
86,120,93947,5,8,3:0:0:0:
275,84,94112,1,8,3:0:0:0:
110,105,94276,1,0,3:0:0:0:
376,206,94441,5,0,1:0:0:0:
342,34,94606,1,0,1:0:0:0:
246,301,94771,5,4,3:2:0:0:
442,249,94936,1,0,3:0:0:0:
223,224,95101,5,4,1:2:0:0:
31,205,95265,1,0,3:0:0:0:
163,384,95430,6,0,P|186:378|210:375,1,48,4|0,1:2|2:0,2:0:0:0:
139,147,95595,5,0,1:0:0:0:
156,91,95677,1,0,1:0:0:0:
194,62,95760,1,0,1:0:0:0:
234,58,95842,1,0,1:0:0:0:
262,71,95925,1,0,1:0:0:0:
275,88,96007,1,0,1:0:0:0:
311,135,96090,6,0,L|348:129,1,38.4,2|0,3:0|2:0,2:0:0:0:
481,149,96337,6,0,L|348:128,1,134.40000000000006,0|0,1:0|2:0,2:0:0:0:
308,225,96584,6,0,L|345:219,1,38.4,2|0,3:0|2:0,2:0:0:0:
478,239,96831,6,0,L|345:218,1,134.40000000000006,0|0,1:0|2:0,2:0:0:0:
249,289,97079,6,0,L|201:281,1,48,4|0,3:2|2:0,2:0:0:0:
57,284,97243,1,0,1:0:0:0:
35,242,97326,1,0,1:0:0:0:
61,169,97408,5,4,3:1:0:0:
89,184,97491,1,2,1:3:0:0:
141,174,97573,1,2,1:3:0:0:
172,125,97655,1,2,1:3:0:0:
160,62,97738,2,0,P|152:27|159:-5,1,48,2|2,1:3|1:3,2:0:0:0:
347,22,97903,5,0,3:0:0:0:
371,67,97985,1,2,1:2:0:0:
317,123,98068,1,2,1:2:0:0:
301,174,98150,1,2,1:2:0:0:
322,226,98232,1,2,1:2:0:0:
365,250,98315,1,2,1:2:0:0:
421,310,98397,5,8,3:0:0:0:
397,334,98480,1,8,3:0:0:0:
377,340,98562,1,4,3:0:0:0:
362,337,98645,1,4,3:0:0:0:
352,331,98727,1,0,1:0:0:0:
352,331,99386,5,4,3:1:0:0:
235,180,99550,1,0,3:0:0:0:
302,129,99715,2,0,P|345:123|399:125,1,76.8,0|0,2:0|3:0,2:0:0:0:
235,180,100045,2,0,P|192:186|138:184,1,76.8,0|0,1:0|3:0,2:0:0:0:
78,100,100375,1,0,2:0:0:0:
122,0,100539,2,0,P|136:30|140:55,1,38.4,2|2,3:2|2:0,2:0:0:0:
208,82,100704,5,0,3:0:0:0:
268,27,100869,1,0,3:0:0:0:
363,82,101034,1,0,2:0:0:0:
426,25,101199,1,0,3:0:0:0:
512,82,101364,1,0,1:0:0:0:
438,111,101528,2,0,P|427:159|423:197,1,76.8,0|0,3:0|2:0,2:0:0:0:
495,318,101858,1,0,3:0:0:0:
420,269,102023,6,0,B|340:278|372:332|286:349,1,153.6,4|0,3:1|2:0,2:0:0:0:
179,229,102517,2,0,P|219:259|238:304,1,76.8,0|0,3:0|1:0,2:0:0:0:
117,384,102847,2,0,P|133:349|136:311,1,76.8,0|0,3:0|2:0,2:0:0:0:
95,177,103177,1,0,3:0:0:0:
27,241,103342,6,0,P|90:227|188:230,1,153.6,0|0,3:0|2:0,2:0:0:0:
254,172,103836,1,0,3:0:0:0:
194,83,104001,5,4,1:2:0:0:
162,3,104166,1,0,3:0:0:0:
350,3,104331,5,4,1:2:0:0:
318,83,104495,1,0,2:0:0:0:
451,150,104660,5,4,3:1:0:0:
406,77,104825,1,0,3:0:0:0:
508,6,104990,2,0,P|495:62|490:101,1,76.8,0|0,2:0|3:0,2:0:0:0:
466,225,105320,2,0,P|459:187|450:149,1,76.8,0|0,1:0|3:0,2:0:0:0:
378,205,105649,1,0,2:0:0:0:
349,310,105814,2,0,P|345:297|333:272,1,38.4,2|2,3:2|2:0,2:0:0:0:
250,231,105979,5,2,3:2:0:0:
260,145,106144,1,0,3:0:0:0:
170,104,106309,1,0,2:0:0:0:
162,54,106473,1,0,3:0:0:0:
79,149,106638,6,0,P|69:200|66:235,1,76.8,0|0,1:0|3:0,2:0:0:0:
77,343,106968,1,2,2:0:0:0:
80,329,107050,1,2,2:0:0:0:
91,318,107133,2,0,P|122:327|151:332,1,38.4,2|0,3:2|2:0,2:0:0:0:
299,356,107298,5,4,3:1:0:0:
224,244,107462,2,0,P|230:295|234:351,1,76.8,0|0,3:0|2:0,2:0:0:0:
359,245,107792,1,0,3:0:0:0:
410,187,107957,1,0,1:0:0:0:
477,140,108122,2,0,P|473:101|468:63,1,76.8,0|0,3:0|2:0,2:0:0:0:
386,13,108451,1,0,3:0:0:0:
257,124,108616,5,4,1:2:0:0:
137,36,108781,1,0,3:0:0:0:
328,74,108946,5,0,1:0:0:0:
103,111,109111,1,8,1:3:0:0:
92,123,109193,1,4,1:3:0:0:
87,145,109276,5,0,3:0:0:0:
202,214,109440,1,0,3:0:0:0:
93,348,109605,5,0,1:0:0:0:
122,318,109688,1,0,1:0:0:0:
125,288,109770,1,0,1:0:0:0:
113,266,109853,1,0,1:0:0:0:
80,244,109935,6,0,P|166:230|241:296,1,191.99999999999997,4|0,3:1|2:0,2:0:0:0:
468,363,111089,6,0,B|368:279|520:246|395:152,1,230.4,0|0,2:0|2:0,2:0:0:0:
193,62,112407,6,0,P|241:49|310:45,1,115.2,0|0,2:0|2:0,2:0:0:0:
329,123,113067,1,0,2:0:0:0:
329,123,113232,2,0,P|315:192|317:252,1,115.2,0|0,2:0|2:0,2:0:0:0:
329,311,113891,5,0,2:0:0:0:
101,368,114715,6,0,P|111:340|115:321,1,38.4,2|2,2:3|2:3,2:0:0:0:
66,265,114880,6,0,P|86:314|119:333,1,86.39999999999982,4|0,2:0|2:0,2:0:0:0:
147,252,115210,6,0,P|157:202|170:156,1,76.8,4|0,3:1|2:0,2:0:0:0:
264,159,115539,1,0,3:0:0:0:
264,159,115704,2,0,P|247:110|235:64,1,76.8,0|0,2:0|3:0,2:0:0:0:
357,0,116034,2,0,P|347:37|340:74,1,76.8,0|0,2:0|3:0,2:0:0:0:
457,173,116364,2,0,P|431:163|394:156,1,38.4,6|2,2:0|2:0,2:0:0:0:
283,252,116528,6,0,B|380:238|331:177|421:160,1,172.80000000000015,4|0,1:0|1:0,2:0:0:0:
512,295,117023,1,0,2:0:0:0:
420,335,117188,2,0,P|427:289|429:243,1,86.40000000000008,0|0,1:0|2:0,2:0:0:0:
303,348,117517,5,8,1:3:0:0:
251,317,117600,1,8,1:3:0:0:
216,359,117682,2,0,L|176:373,1,43.20000000000003,8|8,1:3|1:3,2:0:0:0:
104,250,117847,6,0,L|62:242,1,43.20000000000003,4|0,3:2|2:0,2:0:0:0:
333,174,118012,1,4,1:3:0:0:
275,138,118094,1,4,1:3:0:0:
219,178,118177,2,0,L|151:187,1,43.20000000000003,4|4,1:3|1:3,2:0:0:0:
83,55,118342,6,0,L|5:32,1,43.20000000000003,4|0,3:2|2:0,2:0:0:0:
335,22,118506,1,0,3:0:0:0:
271,0,118589,1,0,3:0:0:0:
216,30,118671,1,0,3:0:0:0:
207,87,118754,1,0,3:0:0:0:
271,140,118836,5,0,1:0:0:0:
338,96,118918,1,0,1:0:0:0:
406,119,119001,1,0,1:0:0:0:
434,157,119083,1,0,1:0:0:0:
420,206,119166,6,0,P|387:258|473:229,1,201.6000000000008,4|0,3:2|2:0,2:0:0:0:
509,178,119825,5,0,3:0:0:0:
351,350,120155,5,4,1:3:0:0:
324,197,120320,6,0,P|312:228|310:262,1,43.20000000000003,2|2,2:0|2:0,2:0:0:0:
160,293,120484,6,0,P|202:300|246:331,1,96,6|0,3:1|2:0,2:0:0:0:
211,144,120814,2,0,P|174:166|141:211,1,96,2|0,1:0|2:0,2:0:0:0:
87,21,121144,2,0,P|129:28|177:58,1,96,2|0,3:1|2:0,2:0:0:0:
142,207,121473,1,2,1:0:0:0:
53,175,121638,1,0,2:0:0:0:
258,89,121803,5,6,3:1:0:0:
381,16,121968,1,0,2:0:0:0:
466,159,122133,5,2,1:0:0:0:
371,130,122298,1,0,2:0:0:0:
425,294,122462,5,2,3:1:0:0:
447,249,122627,1,0,2:0:0:0:
245,180,122792,5,0,1:0:0:0:
260,377,122957,1,2,1:0:0:0:
274,360,123039,1,0,1:0:0:0:
297,353,123122,5,4,3:1:0:0:
353,243,123287,1,2,2:1:0:0:
312,100,123451,1,0,1:0:0:0:
501,0,123616,5,0,2:0:0:0:
460,93,123781,1,2,3:1:0:0:
512,192,123946,1,0,2:0:0:0:
312,100,124111,5,0,1:0:0:0:
180,257,124276,1,2,1:0:0:0:
180,257,124358,1,0,1:0:0:0:
180,257,124440,5,4,3:2:0:0:
0,179,124605,1,0,3:0:0:0:
128,40,124770,2,0,P|180:27|230:22,1,96,4|0,1:2|2:0,2:0:0:0:
312,100,125100,1,0,3:0:0:0:
512,179,125265,2,0,P|448:141|336:191,1,192,0|8,2:0|1:3,2:0:0:0:
379,258,125677,1,4,1:3:0:0:
369,269,125759,6,0,B|274:287|313:348|187:357,1,192,4|0,3:1|1:0,2:0:0:0:
481,372,126254,1,0,3:0:0:0:
466,376,126336,1,0,3:0:0:0:
445,371,126418,2,0,P|456:313|474:272,1,96,0|0,3:0|2:0,2:0:0:0:
403,184,126748,1,0,1:0:0:0:
296,22,126913,1,0,1:0:0:0:
311,20,126995,1,0,1:0:0:0:
325,25,127078,6,0,P|387:80|401:188,1,192,0|0,3:0|1:0,2:0:0:0:
493,16,127572,1,0,3:0:0:0:
482,30,127655,1,0,3:0:0:0:
481,44,127737,2,0,P|437:63|399:92,1,96,0|0,3:0|2:0,2:0:0:0:
327,233,128067,1,0,1:0:0:0:
203,144,128232,2,0,P|209:120|217:98,1,48,0|0,1:0|1:0,2:0:0:0:
37,49,128396,6,0,B|141:42|110:113|220:97,1,192,4|0,3:1|1:0,2:0:0:0:
156,254,128891,1,2,2:0:0:0:
139,241,128973,1,2,2:0:0:0:
115,242,129056,2,0,P|66:241|13:233,1,96,0|0,3:0|2:0,2:0:0:0:
199,328,129386,1,0,1:0:0:0:
327,233,129550,1,2,2:0:0:0:
321,248,129633,1,2,2:0:0:0:
328,269,129715,5,4,1:2:0:0:
453,351,129880,1,0,3:0:0:0:
199,328,130045,5,0,1:0:0:0:
74,384,130210,1,0,3:0:0:0:
46,104,130375,5,4,1:2:0:0:
252,186,130539,1,0,3:0:0:0:
332,188,130704,6,0,P|322:225|316:257,1,48,0|0,1:0|1:0,2:0:0:0:
201,120,130869,2,0,P|195:96|188:73,1,48,0|0,1:0|2:0,2:0:0:0:
404,135,131034,6,0,P|444:151|500:159,1,96,6|2,3:1|2:3,2:0:0:0:
279,72,131364,2,0,P|321:65|374:44,1,96,2|2,1:0|2:3,2:0:0:0:
120,72,131693,2,0,P|153:45|188:0,1,96,2|2,3:1|2:3,2:0:0:0:
136,198,132023,1,2,1:0:0:0:
100,287,132188,1,2,2:3:0:0:
320,370,132353,5,6,3:1:0:0:
232,276,132517,1,2,2:3:0:0:
63,320,132682,5,2,1:0:0:0:
126,162,132847,1,2,2:3:0:0:
285,88,133012,5,2,3:1:0:0:
206,35,133177,1,2,2:3:0:0:
422,10,133342,5,0,1:0:0:0:
512,180,133506,1,2,1:3:0:0:
512,180,133589,1,0,1:0:0:0:
512,180,133671,5,4,3:1:0:0:
396,124,133836,1,2,2:3:0:0:
290,186,134001,1,0,1:0:0:0:
108,129,134166,5,2,2:3:0:0:
42,71,134331,2,0,P|20:133|29:177,1,96,0|2,3:0|2:3,2:0:0:0:
177,203,134660,1,0,1:0:0:0:
137,379,134825,1,2,1:3:0:0:
130,354,134907,1,0,1:0:0:0:
139,334,134990,6,0,P|230:349|334:382,1,192,4|0,3:1|1:0,2:0:0:0:
244,269,135484,1,2,2:3:0:0:
477,161,135649,2,0,P|434:237|316:225,1,192,4|0,3:2|1:0,2:0:0:0:
253,108,136144,2,0,P|247:70|239:43,1,48,10|2,1:3|2:0,2:0:0:0:
120,11,136309,5,0,3:0:0:0:
53,94,136473,1,0,2:0:0:0:
244,60,136638,1,0,3:0:0:0:
338,124,136803,1,0,2:0:0:0:
115,170,136968,1,0,3:0:0:0:
58,259,137133,1,0,2:0:0:0:
299,233,137298,1,0,3:0:0:0:
400,348,137462,1,0,1:0:0:0:
386,363,137545,1,0,1:0:0:0:
360,366,137627,5,0,1:0:0:0:
385,235,137792,1,0,2:0:0:0:
190,324,137957,5,0,1:0:0:0:
58,259,138122,1,0,2:0:0:0:
252,154,138287,5,0,1:0:0:0:
389,89,138451,1,0,2:0:0:0:
149,14,138616,5,0,1:0:0:0:
209,207,138781,1,0,3:0:0:0:
231,181,138864,1,0,3:0:0:0:
251,175,138946,6,0,P|295:183|339:193,1,48,4|0,1:2|2:0,2:0:0:0:
372,43,139111,2,0,P|387:85|400:128,1,48,8|0,1:2|2:0,2:0:0:0:
511,148,139276,1,0,3:0:0:0:
298,183,139440,6,0,P|274:179|251:175,1,48,4|0,1:2|2:0,2:0:0:0:
122,305,139605,2,0,P|126:281|130:257,1,48,8|0,1:2|2:0,2:0:0:0:
55,149,139770,1,0,3:0:0:0:
251,175,139935,6,0,P|274:179|298:183,1,48,4|0,1:2|2:0,2:0:0:0:
460,210,140100,2,0,P|444:228|428:246,1,48,0|0,1:0|2:0,2:0:0:0:
314,359,140265,1,2,3:0:0:0:
394,134,140594,5,0,2:0:0:0:
170,47,140924,5,0,2:0:0:0:
52,277,141254,6,0,P|60:218|50:154,1,115.2,4|0,1:3|2:0,2:0:0:0:
122,115,141583,6,0,P|170:128|234:112,1,95.99999999999999,4|0,3:1|2:0,2:0:0:0:
309,0,141913,2,0,P|296:48|312:112,1,96,0|0,1:0|2:0,2:0:0:0:
402,193,142243,1,0,3:0:0:0:
447,68,142407,1,0,3:0:0:0:
402,193,142572,1,0,1:0:0:0:
485,332,142737,1,2,2:0:0:0:
485,332,142820,1,2,2:0:0:0:
485,332,142902,5,0,3:0:0:0:
432,384,143067,2,0,P|364:371|304:369,1,96,0|0,3:0|1:0,2:0:0:0:
232,377,143396,1,0,2:0:0:0:
315,221,143561,1,0,3:0:0:0:
224,224,143726,1,0,3:0:0:0:
165,68,143891,2,0,P|93:50|64:114,1,144,4|0,1:2|2:0,2:0:0:0:
92,180,144221,5,4,3:1:0:0:
34,280,144386,1,0,3:0:0:0:
224,224,144550,5,0,1:0:0:0:
92,180,144715,1,0,3:0:0:0:
297,180,144880,6,0,P|353:220|492:229,1,192,0|0,3:0|1:0,2:0:0:0:
499,98,145375,5,0,3:0:0:0:
388,104,145539,1,0,3:0:0:0:
431,16,145704,1,0,3:0:0:0:
281,98,145869,1,4,1:2:0:0:
336,188,146034,1,0,3:0:0:0:
194,268,146199,1,0,3:0:0:0:
236,186,146364,1,0,3:0:0:0:
145,27,146528,1,0,1:0:0:0:
132,36,146611,1,0,1:0:0:0:
110,42,146693,1,0,1:0:0:0:
91,45,146776,1,0,1:0:0:0:
60,27,146858,6,0,P|73:83|76:142,1,96,4|0,3:1|2:0,2:0:0:0:
6,281,147188,2,0,P|47:241|97:209,1,96,0|0,1:0|2:0,2:0:0:0:
236,186,147517,1,0,3:0:0:0:
132,298,147682,1,0,3:0:0:0:
236,186,147847,1,0,1:0:0:0:
406,230,148012,1,2,2:0:0:0:
406,230,148094,1,2,2:0:0:0:
406,230,148177,5,0,3:0:0:0:
295,323,148342,2,0,P|346:328|419:362,1,96,0|0,3:0|1:0,2:0:0:0:
487,263,148671,1,0,2:0:0:0:
425,101,148836,1,0,3:0:0:0:
493,42,149001,1,0,3:0:0:0:
308,0,149166,2,0,P|325:62|340:150,1,144,4|0,1:2|2:0,2:0:0:0:
312,220,149495,5,4,3:1:0:0:
152,261,149660,1,0,3:0:0:0:
32,171,149825,1,2,1:3:0:0:
177,127,149990,1,0,3:0:0:0:
441,152,150155,5,2,3:2:0:0:
397,137,150237,1,0,3:0:0:0:
374,177,150320,1,2,3:2:0:0:
326,176,150402,1,0,3:0:0:0:
312,220,150484,5,2,1:3:0:0:
468,287,150649,1,0,3:0:0:0:
215,376,150814,5,6,1:2:0:0:
225,321,150896,1,0,3:0:0:0:
190,282,150979,1,2,3:2:0:0:
210,229,151061,1,0,3:0:0:0:
179,183,151144,5,8,3:2:0:0:
0,272,151309,1,0,3:0:0:0:
131,79,151473,5,4,1:2:0:0:
177,25,151556,1,0,1:0:0:0:
244,52,151638,1,0,1:0:0:0:
298,3,151721,1,0,1:0:0:0:
364,40,151803,5,0,1:0:0:0:
419,4,151886,1,0,1:0:0:0:
464,13,151968,1,0,1:0:0:0:
491,42,152050,1,0,1:0:0:0:
501,59,152133,5,4,3:1:0:0:
397,124,152298,2,0,B|321:144|355:200|238:192,1,153.6,0|0,3:0|3:0,2:0:0:0:
183,162,152792,2,0,P|173:199|155:233,1,76.8,0|0,1:0|2:0,2:0:0:0:
117,110,153122,1,0,3:0:0:0:
61,240,153287,2,0,P|83:283|90:321,1,76.8,0|0,3:0|2:0,2:0:0:0:
155,232,153616,2,0,P|172:198|182:161,1,76.8,0|0,3:0|3:0,2:0:0:0:
113,383,154028,2,0,L|131:376,1,19.2,0|0,1:0|2:0,2:0:0:0:
203,344,154111,5,4,1:2:0:0:
291,292,154276,1,0,3:0:0:0:
493,335,154440,1,0,3:0:0:0:
407,274,154605,1,0,2:0:0:0:
363,144,154770,5,4,3:1:0:0:
333,221,154935,2,0,P|310:165|303:53,1,153.6,0|0,3:0|3:0,2:0:0:0:
422,0,155429,2,0,P|406:43|382:69,1,76.8,0|0,1:0|2:0,2:0:0:0:
239,14,155759,1,0,3:0:0:0:
178,70,155924,2,0,P|140:71|102:76,1,76.8,0|0,3:0|2:0,2:0:0:0:
220,141,156254,1,0,3:0:0:0:
159,197,156418,2,0,P|121:198|83:203,1,76.8,0|0,3:0|2:0,2:0:0:0:
181,310,156748,6,0,L|197:346,1,38.4,4|0,1:2|2:0,2:0:0:0:
315,346,156913,2,0,L|330:310,1,38.4,2|0,3:2|2:0,2:0:0:0:
461,189,157078,5,0,1:0:0:0:
414,162,157160,1,0,1:0:0:0:
362,167,157243,1,0,1:0:0:0:
320,199,157325,1,0,1:0:0:0:
266,179,157407,5,4,3:1:0:0:
398,246,157572,1,0,3:0:0:0:
300,95,157737,5,4,1:2:0:0:
137,222,157902,1,0,3:0:0:0:
111,304,158067,5,4,1:2:0:0:
61,119,158232,1,0,3:0:0:0:
98,44,158396,5,0,3:0:0:0:
196,289,158561,2,0,P|188:345|185:396,1,96,0|4,3:0|1:2,2:0:0:0:
273,255,158891,1,0,3:0:0:0:
294,49,159056,5,4,1:2:0:0:
364,227,159221,1,0,3:0:0:0:
295,381,159386,5,0,1:0:0:0:
331,317,159468,1,0,1:0:0:0:
389,300,159550,1,0,1:0:0:0:
432,322,159633,1,0,1:0:0:0:
448,349,159715,2,0,L|499:333,1,48,0|0,3:0|3:0,2:0:0:0:
466,155,159880,2,0,L|420:169,1,48,0|0,3:0|2:0,2:0:0:0:
214,227,160045,5,0,1:0:0:0:
166,137,160210,1,8,1:2:0:0:
400,82,160375,5,0,3:0:0:0:
327,246,160539,1,4,1:2:0:0:
166,137,160704,6,0,P|111:128|51:103,1,96,12|0,1:2|3:0,2:0:0:0:
214,227,161034,1,0,1:0:0:0:
166,319,161199,1,8,1:2:0:0:
327,246,161364,1,0,3:0:0:0:
282,139,161528,1,4,1:2:0:0:
382,14,161693,2,0,L|364:78,1,48,12|0,1:2|2:0,2:0:0:0:
269,92,161858,2,0,L|287:156,1,48,0|0,3:0|2:0,2:0:0:0:
427,296,162023,5,4,1:2:0:0:
397,344,162105,1,0,1:0:0:0:
347,368,162188,1,0,1:0:0:0:
294,359,162270,1,0,1:0:0:0:
249,331,162353,1,0,1:0:0:0:
205,302,162435,1,0,1:0:0:0:
162,291,162517,1,0,1:0:0:0:
127,312,162600,1,0,1:0:0:0:
117,337,162682,5,4,3:1:0:0:
117,337,163012,6,0,P|77:314|45:306,1,67.19999999999993,0|0,3:0|2:0,2:0:0:0:
92,234,163342,2,0,P|132:211|164:203,1,67.19999999999993,0|0,3:0|2:0,2:0:0:0:
76,26,163671,2,0,P|125:31|162:65,1,100.79999999999988,0|0,3:0|2:0,2:0:0:0:
116,125,164001,2,0,P|76:148|44:156,1,67.19999999999993,0|0,3:0|2:0,2:0:0:0:
249,134,164331,6,0,P|257:99|274:58,1,67.19999999999993,0|0,3:0|2:0,2:0:0:0:
355,68,164660,2,0,P|343:36|335:3,1,67.19999999999993,0|0,3:0|2:0,2:0:0:0:
504,35,164990,2,0,P|490:100|486:152,1,100.79999999999988,0|0,3:0|2:0,2:0:0:0:
413,161,165320,2,0,P|424:192|432:225,1,67.19999999999993,0|0,3:0|2:0,2:0:0:0:
421,379,165649,6,0,P|450:363|470:335,1,67.19999999999993,0|0,3:0|2:0,2:0:0:0:
385,300,165979,2,0,P|343:274|274:283,1,100.79999999999988,0|0,3:0|2:0,2:0:0:0:
223,317,166309,2,0,P|193:337|150:332,1,67.19999999999993,0|0,3:0|2:0,2:0:0:0:
174,249,166638,2,0,P|141:233|124:193,1,67.19999999999993,0|0,3:0|2:0,2:0:0:0:
295,177,166968,6,0,L|276:100,1,67.19999999999993,0|0,3:0|1:0,2:0:0:0:
215,9,167298,1,0,3:0:0:0:
143,97,167462,1,0,1:0:0:0:
2,60,167627,2,0,L|18:122,1,33.59999999999996,0|0,3:0|2:0,2:0:0:0:
52,180,167792,1,8,1:3:0:0:
50,191,167875,1,4,1:3:0:0:
49,205,167957,5,4,3:1:0:0:
214,225,168122,1,0,3:0:0:0:
104,369,168287,2,0,L|15:352,1,81.60000000000028,0|0,3:0|2:0,2:0:0:0:
246,307,168616,6,0,L|271:117,1,163.20000000000056,4|0,1:2|3:0,2:0:0:0:
400,27,169111,1,0,3:0:0:0:
352,104,169276,2,0,L|368:183,1,81.60000000000028,0|0,3:0|2:0,2:0:0:0:
512,82,169605,2,0,L|495:2,1,81.60000000000028,0|0,1:0|2:0,2:0:0:0:
456,224,169935,5,4,1:2:0:0:
368,183,170100,1,0,3:0:0:0:
395,378,170265,5,0,1:0:0:0:
476,322,170429,1,0,3:0:0:0:
291,244,170594,5,4,3:1:0:0:
273,146,170759,1,0,3:0:0:0:
251,53,170924,2,0,L|235:160,1,81.60000000000028,0|0,3:0|2:0,2:0:0:0:
16,209,171254,6,0,B|70:178|70:178|183:205,1,163.20000000000056,4|0,1:2|3:0,2:0:0:0:
200,279,171748,1,0,3:0:0:0:
324,362,171913,2,0,L|243:348,1,81.60000000000028,0|0,3:0|2:0,2:0:0:0:
291,244,172243,1,0,1:0:0:0:
258,154,172407,1,0,3:0:0:0:
422,96,172572,5,4,1:2:0:0:
349,167,172737,1,0,3:0:0:0:
198,228,172902,5,4,1:2:0:0:
57,167,173067,1,8,1:3:0:0:
62,148,173149,1,4,1:3:0:0:
53,131,173232,6,0,P|49:86|44:56,1,67.19999999999993,4|0,3:1|2:0,2:0:0:0:
157,7,173561,2,0,P|152:40|149:73,1,67.19999999999993,0|0,3:0|2:0,2:0:0:0:
343,80,173891,2,0,P|339:125|334:155,1,67.19999999999993,0|0,3:0|2:0,2:0:0:0:
251,80,174221,2,0,P|253:46|258:13,1,67.19999999999993,0|2,3:0|2:0,2:0:0:0:
270,197,174468,1,2,2:0:0:0:
257,205,174550,6,0,P|220:195|176:191,1,67.19999999999993,2|0,3:2|2:0,2:0:0:0:
305,331,174880,2,0,P|277:303|241:278,1,67.19999999999993,0|0,3:0|2:0,2:0:0:0:
375,266,175210,1,0,3:0:0:0:
418,350,175375,1,0,1:0:0:0:
470,228,175539,1,0,3:0:0:0:
394,98,175704,1,0,1:0:0:0:
405,107,175787,1,0,1:0:0:0:
412,114,175869,6,0,P|402:145|393:190,1,67.19999999999993,0|0,3:0|2:0,2:0:0:0:
284,149,176199,1,0,3:0:0:0:
214,14,176364,1,2,1:2:0:0:
203,23,176446,1,2,2:0:0:0:
196,30,176528,6,0,P|206:61|215:106,1,67.19999999999993,0|0,3:0|1:0,2:0:0:0:
219,210,176858,2,0,P|186:217|154:227,1,67.19999999999993,0|0,3:0|1:0,2:0:0:0:
92,275,177105,1,0,1:0:0:0:
98,287,177188,5,0,3:0:0:0:
171,342,177353,1,0,1:0:0:0:
278,299,177517,1,0,1:0:0:0:
325,372,177682,1,8,3:0:0:0:
504,259,177847,5,4,3:0:0:0:
461,340,178012,1,4,1:2:0:0:
281,213,178177,1,0,1:0:0:0:
299,194,178259,1,0,1:0:0:0:
331,191,178342,1,0,1:0:0:0:
353,204,178424,1,0,1:0:0:0:
368,225,178506,5,4,3:1:0:0:
328,104,178671,1,0,3:0:0:0:
478,54,178836,2,0,L|387:35,1,81.60000000000028,0|0,3:0|2:0,2:0:0:0:
196,0,179166,6,0,B|213:60|213:60|238:72|238:72|228:155,1,163.20000000000056,4|0,1:2|3:0,2:0:0:0:
81,224,179660,1,0,3:0:0:0:
148,153,179825,2,0,L|255:141,1,81.60000000000028,0|0,3:0|2:0,2:0:0:0:
61,131,180155,2,0,L|18:58,1,81.60000000000028,0|0,1:0|2:0,2:0:0:0:
259,55,180484,5,4,1:2:0:0:
229,143,180649,1,0,3:0:0:0:
81,224,180814,1,0,1:0:0:0:
143,304,180979,1,0,3:0:0:0:
376,242,181144,5,4,3:1:0:0:
448,312,181309,1,0,3:0:0:0:
481,136,181473,2,0,L|468:237,1,81.60000000000028,0|0,3:0|2:0,2:0:0:0:
375,369,181803,6,0,B|300:336|300:336|221:356,1,163.20000000000056,4|0,1:2|3:0,2:0:0:0:
82,232,182298,1,0,3:0:0:0:
151,286,182462,2,0,L|134:394,1,81.60000000000028,0|0,3:0|2:0,2:0:0:0:
0,265,182792,1,0,1:0:0:0:
133,160,182957,1,0,3:0:0:0:
129,144,183039,1,0,3:0:0:0:
124,125,183122,5,4,1:2:0:0:
107,23,183287,1,0,3:0:0:0:
271,3,183451,1,0,1:0:0:0:
259,38,183534,1,0,1:0:0:0:
259,68,183616,1,0,1:0:0:0:
269,99,183699,1,0,1:0:0:0:
293,124,183781,6,0,B|378:110|356:188|462:166,1,172.80000000000015,4|0,3:1|1:0,2:0:0:0:
420,341,184276,1,2,3:2:0:0:
397,328,184358,1,2,2:0:0:0:
375,333,184440,2,0,P|304:290|306:207,1,172.80000000000015,2|0,2:0|1:0,2:0:0:0:
225,333,184935,1,2,3:2:0:0:
208,327,185017,1,2,2:0:0:0:
190,333,185100,6,0,P|138:329|94:306,1,86.40000000000008,2|0,2:0|3:0,2:0:0:0:
14,208,185429,2,0,B|68:245|107:216|107:216|92:202|81:178,1,129.6000000000001,4|0,1:2|2:0,2:0:0:0:
61,121,185759,1,0,3:0:0:0:
109,39,185924,1,0,3:0:0:0:
241,121,186089,1,4,1:2:0:0:
323,31,186254,1,2,2:0:0:0:
317,45,186336,1,2,2:0:0:0:
309,60,186418,6,0,P|271:37|215:31,1,86.40000000000008,4|0,3:1|2:0,2:0:0:0:
339,145,186748,1,0,1:0:0:0:
249,305,186913,2,0,B|359:300|289:236|411:207,1,172.80000000000015,0|0,3:0|3:0,2:0:0:0:
253,214,187407,1,0,1:0:0:0:
413,317,187572,2,0,P|409:243|497:178,1,172.80000000000015,0|0,3:0|3:0,2:0:0:0:
432,34,188067,2,0,L|419:93,1,43.20000000000003,4|0,1:2|2:0,2:0:0:0:
323,133,188232,1,8,1:3:0:0:
329,151,188314,1,4,1:3:0:0:
335,169,188396,5,0,3:0:0:0:
340,52,188561,1,0,3:0:0:0:
185,17,188726,1,0,1:0:0:0:
155,61,188809,1,0,3:0:0:0:
160,111,188891,2,0,P|171:142|181:177,1,43.20000000000003,8|0,3:0|2:0,2:0:0:0:
216,349,189056,5,4,3:1:0:0:
100,224,189221,1,0,1:0:0:0:
41,207,189303,1,0,1:0:0:0:
2,255,189386,1,0,1:0:0:0:
33,312,189468,1,0,1:0:0:0:
91,311,189550,2,0,L|148:294,1,43.20000000000003,2|0,3:0|2:0,2:0:0:0:
402,302,189715,5,0,1:0:0:0:
352,265,189798,1,0,1:0:0:0:
344,202,189880,1,0,1:0:0:0:
378,148,189962,1,0,1:0:0:0:
433,130,190045,2,0,P|460:140|497:145,1,43.20000000000003,2|0,3:0|2:0,2:0:0:0:
257,10,190210,5,0,1:0:0:0:
308,58,190292,1,0,1:0:0:0:
297,126,190375,1,0,1:0:0:0:
239,159,190457,1,0,1:0:0:0:
181,128,190539,2,0,P|145:135|118:145,1,43.20000000000003,2|0,3:0|2:0,2:0:0:0:
24,72,190704,2,0,P|45:75|66:80,1,43.20000000000003,0|0,1:0|1:0,2:0:0:0:
119,231,190869,2,0,P|98:225|76:222,1,43.20000000000003,0|0,1:0|2:0,2:0:0:0:
341,321,191034,5,0,1:0:0:0:
396,373,191116,1,0,1:0:0:0:
469,357,191199,1,0,1:0:0:0:
499,291,191281,1,0,1:0:0:0:
452,227,191364,2,0,P|438:193|436:155,1,43.20000000000003,0|0,1:0|1:0,2:0:0:0:
316,332,191528,2,0,P|310:352|300:372,1,43.20000000000003,0|0,1:0|1:0,2:0:0:0:
119,231,191693,5,2,3:0:0:0:
119,231,193012,6,0,P|96:294|185:245,1,230.40000000000092,2|0,2:1|2:0,2:0:0:0:
204,47,194331,6,0,B|248:88|259:147|259:147|267:86|325:43,1,235.20000000000144,6|0,3:1|2:0,2:0:0:0:
381,0,194990,5,0,1:0:0:0:
464,168,195155,1,2,3:0:0:0:
464,168,195484,6,0,P|475:205|481:244,1,43.20000000000003,2|2,2:0|2:0,2:0:0:0:
370,348,195649,6,0,P|402:312|503:301,1,110.39999999999993,6|0,1:0|3:0,2:0:0:0:
239,184,195979,2,0,P|252:225|231:301,1,110.39999999999993,2|0,1:0|3:0,2:0:0:0:
39,176,196309,2,0,P|68:144|146:128,1,110.39999999999993,2|0,1:0|3:0,2:0:0:0:
142,333,196638,1,2,1:0:0:0:
139,238,196803,1,0,3:0:0:0:
314,121,196968,5,6,1:0:0:0:
153,11,197133,1,0,3:0:0:0:
396,29,197298,5,2,1:0:0:0:
466,149,197462,1,0,3:0:0:0:
285,241,197627,5,2,1:0:0:0:
270,331,197792,1,0,3:0:0:0:
106,364,197957,5,0,1:0:0:0:
7,130,198122,1,2,1:0:0:0:
7,130,198204,1,0,1:0:0:0:
7,130,198287,5,4,3:1:0:0:
75,212,198451,1,2,3:1:0:0:
150,128,198616,1,0,1:0:0:0:
373,120,198781,5,0,3:0:0:0:
446,200,198946,1,2,1:0:0:0:
430,310,199111,1,0,3:0:0:0:
220,373,199276,5,0,1:0:0:0:
291,142,199440,1,2,1:0:0:0:
291,142,199523,1,0,1:0:0:0:
291,142,199605,5,4,1:2:0:0:
137,325,199770,1,0,3:0:0:0:
219,286,199935,5,4,1:2:0:0:
166,69,200100,1,0,3:0:0:0:
232,9,200265,5,4,1:2:0:0:
70,269,200429,2,0,P|59:216|35:156,1,110.39999999999993,0|0,3:0|1:0,2:0:0:0:
262,186,200677,1,0,1:0:0:0:
262,186,200759,2,0,P|224:203|185:213,1,55.19999999999997,8|4,1:3|1:3,2:0:0:0:
55,30,200924,6,0,B|176:20|138:117|277:101,1,220.79999999999987,4|0,3:1|1:0,2:0:0:0:
481,29,201418,1,0,3:0:0:0:
463,14,201501,1,0,3:0:0:0:
431,13,201583,2,0,P|395:45|381:119,1,110.39999999999993,0|0,1:0|3:0,2:0:0:0:
449,202,201913,1,0,1:0:0:0:
398,368,202078,1,0,1:0:0:0:
362,350,202160,1,0,1:0:0:0:
336,360,202243,6,0,B|229:360|259:260|140:257,1,220.79999999999987,0|0,1:0|1:0,2:0:0:0:
1,348,202737,1,0,3:0:0:0:
18,359,202820,1,0,3:0:0:0:
54,362,202902,2,0,P|94:342|116:322,1,55.19999999999997,0|0,1:0|2:0,2:0:0:0:
61,250,203067,2,0,P|36:238|15:222,1,55.19999999999997,2|0,3:2|2:0,2:0:0:0:
114,122,203232,2,0,P|111:166|117:195,1,55.19999999999997,2|0,1:2|2:0,2:0:0:0:
83,21,203396,1,0,1:0:0:0:
103,6,203479,1,0,1:0:0:0:
132,2,203561,6,0,P|191:1|306:41,1,165.59999999999988,4|2,1:0|2:0,2:0:0:0:
362,61,203891,1,0,1:0:0:0:
511,172,204056,1,2,3:0:0:0:
495,156,204138,1,2,2:0:0:0:
466,157,204221,2,0,P|447:210|440:268,1,110.39999999999993,4|0,3:2|2:0,2:0:0:0:
435,347,204550,1,0,1:0:0:0:
127,323,204715,5,0,3:0:0:0:
187,359,204798,1,0,3:0:0:0:
245,313,204880,2,0,P|268:303|324:297,1,55.19999999999997,4|0,1:0|2:0,2:0:0:0:
399,226,205045,2,0,P|419:240|452:286,1,55.19999999999997,0|0,1:0|2:0,2:0:0:0:
450,76,205210,5,0,3:0:0:0:
378,45,205292,1,0,3:0:0:0:
326,67,205375,1,0,3:0:0:0:
307,111,205457,1,0,3:0:0:0:
314,146,205539,2,0,P|291:136|229:121,1,55.19999999999997,0|0,1:0|1:0,2:0:0:0:
175,237,205704,2,0,P|172:212|149:153,1,55.19999999999997,0|0,1:0|1:0,2:0:0:0:
0,128,205869,5,0,1:0:0:0:
24,60,205951,1,0,1:0:0:0:
73,40,206034,1,0,1:0:0:0:
110,65,206116,1,0,1:0:0:0:
126,80,206199,6,0,P|170:73|235:14,1,110.39999999999993,6|2,3:1|2:3,2:0:0:0:
414,0,206528,2,0,P|368:8|313:54,1,110.39999999999993,2|2,1:0|2:3,2:0:0:0:
312,219,206858,2,0,P|305:175|247:112,1,110.39999999999993,2|2,3:1|2:3,2:0:0:0:
476,67,207188,1,2,1:0:0:0:
430,143,207353,1,2,2:3:0:0:
512,371,207517,5,6,3:1:0:0:
398,228,207682,1,2,2:3:0:0:
290,371,207847,5,2,1:0:0:0:
177,350,208012,1,2,2:3:0:0:
222,165,208177,5,2,3:1:0:0:
312,219,208342,1,2,2:3:0:0:
263,21,208506,5,0,1:0:0:0:
39,127,208671,1,2,1:3:0:0:
39,127,208754,1,0,1:0:0:0:
39,127,208836,5,4,3:1:0:0:
222,165,209001,1,2,2:3:0:0:
380,90,209166,1,0,1:0:0:0:
216,198,209331,5,2,2:3:0:0:
69,232,209495,2,0,P|88:290|92:351,1,110.39999999999993,0|2,3:0|2:3,2:0:0:0:
264,367,209825,1,0,1:0:0:0:
484,327,209990,1,2,1:3:0:0:
449,330,210072,1,0,1:0:0:0:
427,345,210155,2,0,P|325:303|211:274,1,220.79999999999987,4|0,3:1|1:0,2:0:0:0:
406,80,210649,1,2,2:3:0:0:
382,66,210732,1,2,2:0:0:0:
348,59,210814,6,0,P|288:84|371:160,1,220.79999999999987,4|0,3:2|1:0,2:0:0:0:
200,0,211309,6,0,P|218:25|229:68,1,55.19999999999997,10|4,1:3|1:3,2:0:0:0:
169,109,211473,5,0,3:0:0:0:
77,149,211638,1,0,2:0:0:0:
93,312,211803,1,0,3:0:0:0:
136,232,211968,1,0,2:0:0:0:
36,65,212133,1,0,3:0:0:0:
9,214,212298,1,0,2:0:0:0:
188,306,212462,1,0,3:0:0:0:
366,139,212627,1,0,1:0:0:0:
339,121,212710,1,0,1:0:0:0:
301,126,212792,5,0,1:0:0:0:
225,292,212957,1,0,2:0:0:0:
309,270,213122,5,0,1:0:0:0:
470,366,213287,1,0,2:0:0:0:
512,290,213451,5,0,1:0:0:0:
294,358,213616,1,0,2:0:0:0:
53,297,213781,5,0,1:0:0:0:
253,210,213946,2,0,P|225:196|190:187,1,55.19999999999997,0|0,3:0|3:0,2:0:0:0:
33,135,214111,6,0,L|89:119,1,55.19999999999997,4|0,1:2|2:0,2:0:0:0:
140,51,214276,2,0,L|199:66,1,55.19999999999997,8|0,1:2|2:0,2:0:0:0:
260,9,214440,1,0,3:0:0:0:
512,236,214605,6,0,L|456:221,1,55.19999999999997,4|0,1:2|2:0,2:0:0:0:
409,147,214770,2,0,L|352:161,1,55.19999999999997,8|0,1:2|2:0,2:0:0:0:
279,98,214935,1,0,3:0:0:0:
31,324,215100,6,0,L|87:309,1,55.19999999999997,4|0,1:2|2:0,2:0:0:0:
141,232,215265,2,0,L|204:248,1,55.19999999999997,0|0,1:0|1:0,2:0:0:0:
283,182,215429,5,2,3:0:0:0:
450,340,215759,5,0,2:0:0:0:
188,362,216089,5,0,2:0:0:0:
9,205,216418,6,0,P|49:165|105:154,1,115.2,4|0,1:3|2:0,2:0:0:0:
108,71,216748,6,0,P|151:90|215:88,1,110.39999999999993,4|0,3:1|2:0,2:0:0:0:
320,0,217078,2,0,P|325:47|372:103,1,110.39999999999993,0|0,1:0|2:0,2:0:0:0:
408,248,217407,1,0,3:0:0:0:
437,155,217572,1,0,3:0:0:0:
501,60,217737,1,0,1:0:0:0:
469,153,217902,1,0,2:0:0:0:
482,308,218067,5,0,3:0:0:0:
327,259,218232,1,0,3:0:0:0:
179,351,218396,5,0,1:0:0:0:
70,382,218561,1,0,2:0:0:0:
196,242,218726,5,0,3:0:0:0:
213,147,218891,1,0,3:0:0:0:
153,13,219056,6,0,L|165:80,1,55.19999999999997,4|0,1:2|2:0,2:0:0:0:
299,128,219221,2,0,L|311:195,1,55.19999999999997,0|0,2:0|2:0,2:0:0:0:
338,308,219386,5,4,3:1:0:0:
415,250,219550,1,0,3:0:0:0:
512,285,219715,1,2,1:3:0:0:
486,86,219880,5,0,3:0:0:0:
388,107,220045,1,0,3:0:0:0:
363,14,220210,1,0,3:0:0:0:
110,141,220375,5,2,1:3:0:0:
211,162,220539,1,0,3:0:0:0:
139,234,220704,1,0,3:0:0:0:
172,69,220869,1,0,3:0:0:0:
344,187,221034,5,4,1:2:0:0:
371,340,221199,1,0,3:0:0:0:
433,172,221364,5,0,3:0:0:0:
447,51,221528,1,0,3:0:0:0:
247,22,221693,5,4,1:2:0:0:
235,46,221776,1,0,1:0:0:0:
228,71,221858,1,0,1:0:0:0:
227,95,221940,1,0,1:0:0:0:
234,122,222023,6,0,P|205:169|155:186,1,110.39999999999993,4|0,3:1|2:0,2:0:0:0:
3,55,222353,2,0,P|32:102|82:119,1,110.39999999999993,0|0,1:0|2:0,2:0:0:0:
111,266,222682,1,0,3:0:0:0:
169,184,222847,1,0,3:0:0:0:
160,342,223012,1,0,1:0:0:0:
247,366,223177,1,0,2:0:0:0:
425,246,223342,5,0,3:0:0:0:
254,281,223506,1,0,3:0:0:0:
391,384,223671,5,0,1:0:0:0:
512,350,223836,1,0,2:0:0:0:
340,267,224001,5,0,3:0:0:0:
372,149,224166,1,0,3:0:0:0:
194,187,224331,5,4,1:2:0:0:
100,0,224495,1,2,2:0:0:0:
107,18,224578,1,2,2:0:0:0:
110,35,224660,5,6,3:1:0:0:
13,139,224825,1,0,3:0:0:0:
71,264,224990,5,2,1:0:0:0:
45,139,225155,1,0,3:0:0:0:
110,269,225320,5,2,3:1:0:0:
250,281,225484,1,0,3:0:0:0:
336,145,225649,5,2,1:0:0:0:
282,290,225814,1,0,3:0:0:0:
251,28,225979,5,4,1:2:0:0:
484,99,226144,1,0,2:0:0:0:
214,102,226309,5,8,1:2:0:0:
25,163,226473,1,0,3:0:0:0:
261,175,226638,6,0,L|315:192,1,55.19999999999997,4|0,1:2|1:0,2:0:0:0:
369,258,226803,2,0,L|315:275,1,55.19999999999997,0|0,1:0|2:0,2:0:0:0:
93,332,226968,5,0,1:0:0:0:
147,286,227050,1,0,1:0:0:0:
211,302,227133,1,0,1:0:0:0:
227,343,227215,1,0,1:0:0:0:
223,363,227298,5,4,3:1:0:0:
401,328,227462,1,0,3:0:0:0:
443,251,227627,5,0,3:0:0:0:
370,82,227792,1,0,3:0:0:0:
411,2,227957,5,0,1:0:0:0:
168,98,228122,1,0,3:0:0:0:
101,33,228287,5,0,3:0:0:0:
172,289,228451,1,0,3:0:0:0:
106,345,228616,5,4,3:1:0:0:
4,197,228781,1,0,3:0:0:0:
90,220,228946,5,0,3:0:0:0:
275,164,229111,1,0,3:0:0:0:
335,225,229276,5,0,1:0:0:0:
503,282,229440,1,0,3:0:0:0:
451,214,229605,5,0,3:0:0:0:
475,21,229770,1,0,3:0:0:0:
250,98,229935,5,4,1:0:0:0:
248,10,230100,1,0,3:0:0:0:
248,10,230265,1,0,3:0:0:0:
165,180,230429,5,0,1:0:0:0:
76,177,230594,1,0,1:0:0:0:
76,177,230759,1,0,3:0:0:0:
257,258,230924,5,0,1:0:0:0:
259,346,231089,1,0,3:0:0:0:
259,346,231254,1,0,3:0:0:0:
347,180,231418,5,0,1:0:0:0:
436,177,231583,1,0,1:0:0:0:
436,177,231748,1,0,3:0:0:0:
417,373,231913,6,0,L|356:364,1,55.19999999999997,4|0,3:2|2:0,2:0:0:0:
257,258,232078,2,0,L|199:266,1,55.19999999999997,0|0,3:0|2:0,2:0:0:0:
77,380,232243,5,0,1:0:0:0:
22,325,232325,1,0,1:0:0:0:
32,267,232407,1,0,1:0:0:0:
64,236,232490,1,0,1:0:0:0:
91,224,232572,6,0,B|209:214|138:136|286:118,1,220.79999999999987,4|0,3:1|1:0,2:0:0:0:
171,39,233067,1,0,3:0:0:0:
338,166,233232,5,0,1:0:0:0:
368,66,233396,1,0,3:0:0:0:
386,267,233561,5,0,1:0:0:0:
420,358,233726,1,0,3:0:0:0:
142,360,233891,5,4,1:0:0:0:
176,269,234056,1,0,3:0:0:0:
115,68,234221,5,0,1:0:0:0:
145,168,234386,1,0,3:0:0:0:
340,259,234550,5,0,1:0:0:0:
499,222,234715,1,0,3:0:0:0:
511,313,234880,6,0,L|447:293,1,55.19999999999997,0|0,1:0|2:0,2:0:0:0:
340,259,235045,2,0,L|276:239,1,55.19999999999997,0|0,3:0|2:0,2:0:0:0:
95,195,235210,5,4,3:1:0:0:
268,153,235375,1,0,3:0:0:0:
435,108,235539,1,0,3:0:0:0:
121,113,235704,5,4,1:2:0:0:
268,153,235869,1,0,3:0:0:0:
413,198,236034,1,0,3:0:0:0:
287,66,236199,5,4,1:2:0:0:
422,281,236364,1,0,3:0:0:0:
511,313,236528,5,4,1:2:0:0:
267,360,236693,1,0,3:0:0:0:
213,294,236858,5,8,1:2:0:0:
0,231,237023,1,0,3:0:0:0:
288,251,237188,6,0,L|296:179,1,55.19999999999997,4|0,1:2|2:0,2:0:0:0:
122,27,237353,2,0,L|115:81,1,55.19999999999997,8|0,3:2|2:0,2:0:0:0:
320,52,237517,2,0,L|248:44,1,55.19999999999997,8|0,3:2|2:0,2:0:0:0:
101,226,237682,2,0,L|169:233,1,55.19999999999997,8|0,3:2|2:0,2:0:0:0:
