osu file format v14

[General]
AudioFilename: audio.mp3
AudioLeadIn: 0
PreviewTime: 192927
Countdown: 0
SampleSet: Soft
StackLeniency: 0.7
Mode: 0
LetterboxInBreaks: 0
WidescreenStoryboard: 1

[Editor]
Bookmarks: 11694,22243,32793,43342,53892,64441,74991,85540,99386,109936,120485,131035,141584,152134,162683,173232,183782,195650,206199,216749,237848
DistanceSpacing: 1
BeatDivisor: 4
GridSize: 32
TimelineZoom: 2.2

[Metadata]
Title:Overdrive
TitleUnicode:Overdrive
Artist:Harada Hitomi
ArtistUnicode:原田ひとみ
Creator:BladeN
Version:Delette & wenect's Insane
Source:VALKYRIE DRIVE -MERMAID-
Tags:j-rock jrock ヒゲドライバー hige driver ゆよゆっぺ yuyoyuppe ヴァルキリードライヴ マーメイド japanese anime opening rock unranked mapper wenet wenect delette maruoko _milr op full version
BeatmapID:3999409
BeatmapSetID:1922959

[Difficulty]
HPDrainRate:5
CircleSize:4
OverallDifficulty:7.7
ApproachRate:8.8
SliderMultiplier:1.7
SliderTickRate:1

[Events]
//Background and Video events
0,0,"bg.jpg",0,0
//Break Periods
2,110136,114057
//Storyboard Layer 0 (Background)
//Storyboard Layer 1 (Fail)
//Storyboard Layer 2 (Pass)
//Storyboard Layer 3 (Foreground)
//Storyboard Layer 4 (Overlay)
//Storyboard Sound Samples

[TimingPoints]
1145,329.67032967033,4,2,1,80,1,0
11694,-125,4,2,1,60,0,0
16639,-125,4,2,1,40,0,0
16969,-125,4,2,1,60,0,0
22243,-111.111111111111,4,2,1,65,0,0
28837,-133.333333333333,4,2,1,65,0,0
31474,-400,4,2,1,65,0,0
32134,-200,4,2,1,65,0,0
32463,-133.333333333333,4,2,1,65,0,0
32793,-83.3333333333333,4,2,1,75,0,1
43342,-100,4,2,1,65,0,0
53892,-100,4,2,1,70,0,0
59496,-100,4,2,1,60,0,0
60485,-100,4,2,1,70,0,0
63123,-400,4,2,1,70,0,0
63782,-200,4,2,1,70,0,0
64441,-76.9230769230769,4,2,1,75,0,1
67079,-83.3333333333333,4,2,1,75,0,1
84551,-83.3333333333333,4,2,1,75,0,0
85210,-166.666666666667,4,2,1,75,0,0
85540,-83.3333333333333,4,2,1,75,0,1
96090,-133.333333333333,4,2,1,75,0,0
97079,-100,4,2,1,75,0,0
99386,329.67032967033,4,2,1,65,1,0
115210,-111.111111111111,4,2,1,70,0,0
119166,-200,4,2,1,70,0,0
120484,-76.9230769230769,4,2,1,75,0,1
123122,-83.3333333333333,4,2,1,75,0,1
136309,-133.333333333333,4,2,1,75,0,1
140265,-133.333333333333,4,2,1,75,0,0
141583,-83.3333333333333,4,2,1,75,0,1
152133,-83.3333333333333,4,2,1,75,0,0
152298,-90.9090909090909,4,2,1,75,0,0
157737,-83.3333333333333,4,2,1,75,0,0
160045,-111.111111111111,4,2,1,75,0,0
162682,-111.111111111111,4,2,1,65,0,0
163012,-125,4,2,1,65,0,0
167957,-125,4,2,1,70,0,0
173232,-125,4,2,1,65,0,0
178506,-125,4,2,1,70,0,0
189056,-111.111111111111,4,2,1,70,0,0
194331,-100,4,2,1,70,0,0
195649,-76.9230769230769,4,2,1,75,0,1
215429,-83.3333333333333,4,2,1,75,0,0
216418,-166.666666666667,4,2,1,75,0,0
216748,-83.3333333333333,4,2,1,75,0,1
227298,-83.3333333333333,4,2,1,75,0,0
227957,-90.9090909090909,4,2,1,75,0,0
232572,-83.3333333333333,4,2,1,75,0,1
235210,-83.3333333333333,4,2,1,75,0,0

[Colours]
Combo1 : 242,106,87
Combo2 : 212,212,212
Combo3 : 250,191,103
Combo4 : 41,135,171

[HitObjects]
368,167,11035,5,0,1:0:0:0:
419,108,11199,1,0,3:0:0:0:
362,174,11364,2,0,L|389:265,1,85,0|0,1:0|3:0,0:0:0:0:
396,262,11612,1,0,3:0:0:0:
404,268,11694,6,0,B|335:277|359:315|280:327,1,136,4|0,3:1|3:0,0:0:0:0:
216,289,12188,1,0,0:0:0:0:
363,335,12353,2,0,P|410:347|455:362,1,68,0|0,3:0|0:0,0:0:0:0:
267,217,12683,2,0,P|308:206|348:193,1,68,0|0,3:0|0:0,0:0:0:0:
209,294,13013,6,0,P|195:334|184:375,1,68,0|0,3:0|0:0,0:0:0:0:
260,213,13342,2,0,P|246:173|235:132,1,68,0|0,3:0|0:0,0:0:0:0:
298,294,13672,1,0,3:0:0:0:
161,214,13837,2,0,P|100:228|63:306,1,136
19,104,14331,6,0,P|85:116|168:130,1,136,0|0,3:0|3:0,0:0:0:0:
289,116,14826,2,0,P|281:151|274:195,1,68,0|0,0:0|3:0,0:0:0:0:
152,128,15155,2,0,P|159:86|167:36,1,68,0|0,0:0|3:0,0:0:0:0:
309,17,15485,6,0,P|359:33|392:124,1,136
366,192,15980,1,0,3:0:0:0:
370,204,16145,1,0,0:0:0:0:
445,177,16309,1,0,3:0:0:0:
473,191,16474,1,0,0:0:0:0:
287,255,16639,2,0,L|285:274,6,17,0|0|0|0|0|0|0,3:0|0:0|0:0|0:0|0:0|0:0|0:0,0:0:0:0:
279,281,16969,6,0,B|353:299|328:335|405:350,1,136,4|0,3:2|3:0,0:0:0:0:
303,384,17463,1,0,0:0:0:0:
417,271,17628,2,0,P|405:225|399:185,1,68,0|0,3:0|0:0,0:0:0:0:
225,331,17958,2,0,P|218:290|208:249,1,68,0|0,3:0|0:0,0:0:0:0:
422,276,18287,6,0,P|462:265|478:228,1,68,0|0,3:0|0:0,0:0:0:0:
312,179,18617,2,0,P|291:153|258:147,1,68,0|0,3:0|0:0,0:0:0:0:
79,259,18947,1,0,3:0:0:0:
115,186,19112,1,0,0:0:0:0:
74,270,19276,2,0,P|93:334|97:363,1,68,0|0,3:0|0:0,0:0:0:0:
0,211,19606,6,0,P|16:146|9:70,1,136,0|0,3:0|3:0,0:0:0:0:
11,77,20101,1,0,0:0:0:0:
120,181,20265,2,0,L|192:197,1,68,0|0,3:0|0:0,0:0:0:0:
248,75,20595,2,0,L|163:94,1,68,0|0,3:0|0:0,0:0:0:0:
354,190,20925,6,0,B|363:132|399:145|414:60,1,136,0|0,3:0|3:0,0:0:0:0:
413,70,21419,1,0,0:0:0:0:
280,153,21584,1,0,3:0:0:0:
430,222,21749,1,0,0:0:0:0:
272,156,21914,2,0,P|234:193|234:224,1,68,4|0,3:2|0:0,0:0:0:0:
187,368,22243,6,0,B|147:354|147:354|141:244,1,153,4|2,3:1|3:3,0:0:0:0:
226,281,22738,2,0,B|231:205,1,76.5000000000001,0|0,0:0|3:0,0:0:0:0:
64,248,23068,2,0,B|140:243,1,76.5000000000001,0|2,0:0|3:3,0:0:0:0:
290,364,23397,1,0,0:0:0:0:
290,364,23480,1,0,0:0:0:0:
290,364,23562,2,0,P|362:338|374:257,1,153,0|2,3:0|3:3,0:0:0:0:
331,181,24057,2,0,B|333:142,2,38.25,0|0|0,0:0|0:0|3:0,0:0:0:0:
378,269,24386,1,0,0:0:0:0:
452,116,24551,2,0,P|501:143|508:198,1,114.75,2|0,3:3|0:0,0:0:0:0:
507,198,24881,6,0,L|400:188,1,76.5000000000001,0|0,3:0|0:0,0:0:0:0:
331,181,25210,1,2,3:3:0:0:
280,266,25375,1,0,0:0:0:0:
188,230,25540,1,0,3:0:0:0:
331,181,25705,1,0,0:0:0:0:
238,149,25870,2,0,L|131:159,1,76.5000000000001,2|0,3:3|0:0,0:0:0:0:
109,217,26117,1,0,0:0:0:0:
109,217,26199,6,0,L|38:244,1,76.5000000000001,0|0,3:0|0:0,0:0:0:0:
96,104,26529,2,0,L|27:73,1,76.5000000000001,2|0,3:3|0:0,0:0:0:0:
184,0,26859,2,0,L|210:71,1,76.5000000000001,0|0,3:0|0:0,0:0:0:0:
223,204,27188,2,0,L|191:273,1,76.5000000000001,2|0,3:3|1:0,0:0:0:0:
264,376,27518,5,4,3:1:0:0:
264,376,27848,1,0,3:0:0:0:
264,376,28177,1,0,3:0:0:0:
264,376,28507,1,0,3:0:0:0:
376,363,28837,6,0,L|523:376,1,127.5,4|0,3:1|1:0,0:0:0:0:
495,294,29331,1,0,0:0:0:0:
488,215,29496,1,0,1:0:0:0:
481,136,29661,1,0,0:0:0:0:
474,57,29826,1,0,1:0:0:0:
474,49,29908,1,0,1:0:0:0:
475,41,29991,1,0,1:0:0:0:
476,33,30073,1,0,1:0:0:0:
476,25,30155,1,2,3:3:0:0:
344,229,31474,6,0,L|327:158,1,63.75
359,74,32134,2,0,L|401:64,1,42.5,0|0,0:0|3:0,0:0:0:0:
256,31,32463,2,0,P|262:0|265:32,1,95.6250000000002,4|0,1:2|0:0,0:0:0:0:
254,39,32793,6,0,B|167:22|145:103|145:103|174:114|187:143,1,204,4|0,3:1|1:0,0:0:0:0:
113,178,33287,1,0,0:0:0:0:
267,126,33452,2,0,B|316:141|316:141|318:146|318:146|382:167,1,102,0|0,3:0|3:0,0:0:0:0:
105,187,33782,2,0,P|94:120|81:74,1,102,0|0,1:0|0:0,0:0:0:0:
219,256,34112,5,0,3:0:0:0:
121,318,34276,1,0,3:0:0:0:
196,184,34441,2,0,P|172:282|156:383,1,204,0|0,1:0|3:0,0:0:0:0:
56,265,34936,1,0,3:0:0:0:
246,337,35101,2,0,P|304:320|365:311,1,102,4|0,1:2|0:0,0:0:0:0:
426,193,35430,5,4,3:1:0:0:
359,121,35595,1,0,3:0:0:0:
459,92,35760,2,0,P|443:141|431:214,1,102,2|0,1:3|3:0,0:0:0:0:
471,272,36090,1,0,3:0:0:0:
352,314,36254,1,0,3:0:0:0:
442,376,36419,1,2,1:3:0:0:
292,380,36584,6,0,P|276:331|264:258,1,102,0|0,3:0|3:0,0:0:0:0:
190,350,36914,1,0,3:0:0:0:
221,161,37079,2,0,B|229:171|229:171|316:193,1,102,4|0,1:2|3:0,0:0:0:0:
113,317,37408,2,0,P|127:269|137:219,1,102,0|0,3:0|3:0,0:0:0:0:
38,79,37738,1,4,1:2:0:0:
29,88,37820,1,0,1:0:0:0:
22,98,37903,1,0,1:0:0:0:
17,110,37985,1,0,1:0:0:0:
15,123,38068,6,0,B|98:145|62:193|158:221,1,153,4|0,3:1|0:0,0:0:0:0:
137,219,38397,2,0,B|152:227|152:227|245:212,1,102,0|0,1:0|0:0,0:0:0:0:
321,200,38727,1,0,3:0:0:0:
321,200,38892,1,0,3:0:0:0:
165,126,39057,2,0,P|159:76|186:34,1,102,0|0,1:0|0:0,0:0:0:0:
416,230,39386,6,0,P|402:145|285:113,1,204,0|0,3:0|1:0,0:0:0:0:
300,107,39881,1,0,0:0:0:0:
486,64,40046,1,0,3:0:0:0:
423,134,40210,1,0,3:0:0:0:
332,253,40375,2,0,L|373:353,1,102,4|0,1:2|0:0,0:0:0:0:
182,383,40705,5,6,3:1:0:0:
184,375,40870,1,0,3:0:0:0:
83,337,41035,1,2,1:1:0:0:
99,334,41199,1,0,3:0:0:0:
51,214,41364,1,2,3:1:0:0:
70,240,41529,1,0,3:0:0:0:
157,120,41694,1,2,1:1:0:0:
137,162,41859,1,0,3:0:0:0:
0,311,42024,6,0,L|108:337,1,102,4|0,1:2|3:0,0:0:0:0:
257,160,42353,2,0,L|149:186,1,102,8|0,1:2|3:0,0:0:0:0:
51,214,42683,1,4,1:2:0:0:
248,257,42848,1,0,1:0:0:0:
257,265,42930,1,0,1:0:0:0:
266,273,43013,2,0,L|253:327,3,51,0|0|0|0,1:0|1:0|1:0|1:0,0:0:0:0:
330,360,43342,6,0,B|412:339|412:339|431:391|482:384,1,170,4|0,3:1|1:0,0:0:0:0:
373,255,43837,2,0,B|383:199|383:199|425:166|425:166|437:89,1,170,0|0,0:0|3:0,0:0:0:0:
434,107,44331,1,0,1:0:0:0:
396,33,44496,2,0,L|308:49,1,85,0|0,3:0|0:0,0:0:0:0:
296,210,44826,1,0,3:0:0:0:
296,210,44991,2,0,L|472:242,1,170,0|0,1:0|0:0,0:0:0:0:
426,323,45485,2,0,L|509:307,1,85,0|0,3:0|1:0,0:0:0:0:
503,164,45815,1,0,0:0:0:0:
509,307,45980,6,0,P|467:282|346:278,1,170,2|0,3:3|1:0,0:0:0:0:
266,370,46474,2,0,P|301:293|295:209,1,170,0|0,0:0|3:0,0:0:0:0:
383,192,46969,2,0,P|366:153|369:112,1,85,0|0,1:0|3:0,0:0:0:0:
318,38,47298,1,0,0:0:0:0:
290,120,47463,1,0,3:0:0:0:
204,111,47628,1,0,1:0:0:0:
228,27,47793,1,0,3:0:0:0:
228,27,47875,1,0,3:0:0:0:
228,27,47958,1,0,3:0:0:0:
109,144,48123,5,0,3:0:0:0:
139,61,48287,1,0,1:0:0:0:
228,27,48452,1,8,1:3:0:0:
77,0,48617,1,4,3:1:0:0:
77,0,48947,6,0,P|48:36|16:63,1,85,0|0,1:0|0:0,0:0:0:0:
78,125,49276,2,0,P|119:117|158:101,1,85,0|0,0:0|3:0,0:0:0:0:
177,228,49606,2,0,P|135:223|96:209,1,85,0|0,1:0|3:0,0:0:0:0:
67,289,49936,2,0,P|94:321|128:347,1,85,0|0,0:0|3:0,0:0:0:0:
200,308,50265,2,0,P|184:270|177:228,1,85,0|0,1:0|0:0,0:0:0:0:
302,230,50595,2,0,P|288:269|283:312,1,85,0|0,0:0|3:0,0:0:0:0:
351,354,50925,5,0,1:0:0:0:
351,354,51254,2,0,P|409:293|490:268,2,170,2|0|0,3:3|1:0|0:0,0:0:0:0:
326,254,52079,1,0,3:0:0:0:
412,204,52243,1,0,1:0:0:0:
412,204,52408,1,0,3:0:0:0:
326,92,52573,2,0,L|336:6,1,85,0|0,3:0|0:0,0:0:0:0:
335,7,52903,2,0,P|383:26|403:115,1,127.5,0|0,1:0|0:0,0:0:0:0:
412,204,53232,2,0,L|496:213,1,85,0|0,3:0|0:0,0:0:0:0:
304,273,53562,2,0,L|294:357,1,85,0|8,1:0|1:3,0:0:0:0:
294,357,53809,1,4,1:3:0:0:
294,357,53892,6,0,P|200:314|198:234,1,170,4|2,3:1|1:3,0:0:0:0:
248,176,54386,2,0,L|332:167,1,85,0|0,3:0|0:0,0:0:0:0:
192,103,54716,2,0,L|108:94,1,85,0|2,3:0|1:3,0:0:0:0:
14,144,55046,2,0,P|12:99|5:60,1,85,0|0,3:0|0:0,0:0:0:0:
77,13,55375,1,0,3:0:0:0:
27,224,55540,2,0,P|73:215|191:269,1,170,2|0,1:3|3:0,0:0:0:0:
169,342,56035,1,0,3:0:0:0:
286,237,56199,1,2,1:3:0:0:
168,141,56364,6,0,L|148:53,1,85,0|0,0:0|3:0,0:0:0:0:
149,58,56694,1,0,3:0:0:0:
250,10,56859,1,2,1:3:0:0:
280,229,57024,2,0,L|309:105,1,127.5,0|0,3:0|0:0,0:0:0:0:
316,102,57353,1,0,3:0:0:0:
336,294,57518,2,0,P|419:282|460:193,1,170,2|0,1:3|0:0,0:0:0:0:
393,154,58013,1,0,3:0:0:0:
277,231,58177,6,0,L|180:210,1,85,2|0,1:3|0:0,0:0:0:0:
115,264,58507,2,0,L|98:348,1,85,0|0,3:0|3:0,0:0:0:0:
142,135,58837,2,0,L|175:-21,1,127.5,4|0,1:2|0:0,0:0:0:0:
168,10,59166,6,0,P|115:10|71:36,1,85,4|0,3:1|0:0,0:0:0:0:
250,147,59496,2,0,P|223:101|178:75,1,85,0|0,1:0|1:0,0:0:0:0:
26,76,59826,1,0,1:0:0:0:
5,151,59991,1,0,1:0:0:0:
155,210,60155,1,0,1:0:0:0:
134,135,60320,1,0,1:0:0:0:
245,15,60485,6,0,B|300:28|300:28|325:84|325:84|383:100,1,170,4|0,3:1|1:0,0:0:0:0:
443,51,60980,1,0,1:0:0:0:
512,158,61145,2,0,P|493:207|482:256,1,85,0|0,1:0|1:0,0:0:0:0:
339,256,61474,2,0,P|358:305|369:354,1,85,0|0,1:0|1:0,0:0:0:0:
476,360,61804,5,4,3:1:0:0:
411,202,61969,1,0,1:0:0:0:
411,202,62051,1,0,1:0:0:0:
411,202,62134,2,0,L|425:145,3,42.5,0|0|0|0,1:0|1:0|1:0|1:0,0:0:0:0:
339,256,62463,2,0,L|325:199,3,42.5,0|0|0|0,1:0|1:0|1:0|1:0,0:0:0:0:
266,319,62793,1,0,1:0:0:0:
238,303,62875,1,0,1:0:0:0:
208,292,62958,1,0,1:0:0:0:
177,286,63040,1,0,1:0:0:0:
145,286,63123,6,0,P|140:252|132:222,1,63.75,4|0,3:2|0:0,0:0:0:0:
204,181,63782,2,0,P|207:154|214:130,1,42.5
63,47,64112,1,4,1:3:0:0:
210,139,64441,6,0,B|141:111|141:111|48:137,1,165.75,6|0,3:1|0:0,0:0:0:0:
0,198,64771,2,0,B|87:173|87:173|156:201,1,165.75,2|0,1:1|0:0,0:0:0:0:
210,260,65101,2,0,B|140:231|140:231|47:257,1,165.75,2|0,3:1|0:0,0:0:0:0:
0,318,65430,2,0,B|87:293|87:293|156:321,1,165.75,2|0,1:1|0:0,0:0:0:0:
293,339,65760,2,0,B|180:361|180:361|209:259,3,221,6|2|2|0,3:1|1:1|3:1|1:0,0:0:0:0:
321,225,66914,5,2,1:1:0:0:
321,225,66996,1,0,1:0:0:0:
321,225,67079,2,0,P|304:173|258:151,1,102,4|2,3:1|0:1,0:0:0:0:
345,110,67408,2,0,P|394:110|430:145,1,102,0|0,1:0|0:0,0:0:0:0:
491,22,67738,2,0,P|443:10|400:35,1,102,2|0,3:1|0:0,0:0:0:0:
234,81,68068,6,0,B|242:46|242:46|307:24,1,102,0|2,1:0|1:1,0:0:0:0:
512,114,68397,1,4,3:2:0:0:
509,124,68562,1,0,3:0:0:0:
506,134,68727,1,4,1:2:0:0:
430,145,68892,1,0,0:0:0:0:
455,219,69057,1,0,3:0:0:0:
265,195,69221,1,0,0:0:0:0:
307,24,69386,1,0,1:0:0:0:
200,85,69551,5,8,1:3:0:0:
200,85,69634,1,4,1:3:0:0:
200,85,69716,2,0,B|63:108|148:41|-13:68,1,204,4|0,3:1|1:0,0:0:0:0:
7,174,70210,2,0,B|66:166|114:200|114:200|162:153|114:112,1,204,0|0,3:0|0:0,0:0:0:0:
39,266,70705,2,0,P|37:316|51:369,1,102,0|0,1:0|1:0,0:0:0:0:
143,384,70952,1,0,1:0:0:0:
143,384,71035,2,0,P|166:323|291:308,1,204,0|0,3:0|1:0,0:0:0:0:
93,193,71529,2,0,P|152:166|251:243,1,204,0|0,3:0|0:0,0:0:0:0:
326,238,72024,2,0,P|360:203|353:155,1,102,0|0,1:0|1:0,0:0:0:0:
300,72,72271,1,0,1:0:0:0:
300,72,72353,5,4,3:1:0:0:
213,316,72601,5,2,0:0:0:0:
485,255,72848,5,2,0:0:0:0:
485,255,73177,1,0,0:0:0:0:
315,339,73342,2,0,L|475:354,1,153,0|0,1:0|0:0,0:0:0:0:
467,353,73672,1,4,1:2:0:0:
386,260,73837,1,0,3:0:0:0:
464,162,74002,1,0,1:0:0:0:
373,123,74166,1,0,3:0:0:0:
360,5,74331,1,4,1:2:0:0:
338,31,74496,1,0,3:0:0:0:
456,59,74661,2,0,L|518:46,2,51,0|0|0,1:0|1:0|1:0,0:0:0:0:
290,135,74991,6,0,P|271:92|206:74,1,102,6|2,3:1|0:3,0:0:0:0:
102,36,75320,2,0,P|111:78|115:146,1,102,2|2,1:1|0:3,0:0:0:0:
38,271,75650,2,0,P|56:313|121:331,1,102,2|2,3:1|0:3,0:0:0:0:
226,370,75980,2,0,P|216:327|212:259,1,102,2|2,1:1|0:3,0:0:0:0:
352,191,76309,6,0,P|403:198|465:214,1,102,6|2,3:1|0:3,0:0:0:0:
413,26,76639,2,0,B|449:66|449:66|408:121,1,102,2|2,1:1|0:3,0:0:0:0:
273,222,76969,2,0,B|244:183|244:183|280:143,1,102,2|2,3:1|0:3,0:0:0:0:
479,321,77298,2,0,P|428:328|366:344,1,102,0|2,1:0|1:3,0:0:0:0:
373,346,77546,1,0,1:0:0:0:
366,352,77628,6,0,P|312:345|253:329,1,102,4|2,3:1|0:3,0:0:0:0:
207,277,77958,1,0,1:0:0:0:
13,322,78123,1,2,0:3:0:0:
78,383,78287,2,0,P|103:338|88:266,1,102,0|2,3:0|0:3,0:0:0:0:
9,116,78617,1,0,1:0:0:0:
0,209,78782,6,0,B|129:180|45:155|205:115,1,204,2|2,1:3|0:3,0:0:0:0:
250,166,79276,1,0,1:0:0:0:
178,1,79441,2,0,B|307:30|223:55|383:95,1,204,2|2,0:3|0:3,0:0:0:0:
467,22,79936,1,0,1:0:0:0:
342,182,80101,5,10,1:3:0:0:
342,182,80183,1,4,1:3:0:0:
342,182,80265,2,0,L|376:304,1,102,0|0,3:0|0:0,0:0:0:0:
471,338,80595,1,0,3:0:0:0:
471,338,80760,1,0,0:0:0:0:
512,173,80925,1,0,3:0:0:0:
444,242,81090,1,0,0:0:0:0:
314,366,81254,1,0,3:0:0:0:
272,248,81419,5,0,1:0:0:0:
272,248,81502,1,0,1:0:0:0:
272,248,81584,2,0,B|203:207|139:255|139:255|111:222|128:189,1,204,0|0,1:0|1:0,0:0:0:0:
184,153,82079,1,0,0:0:0:0:
184,153,82243,1,0,1:0:0:0:
47,60,82408,1,0,0:0:0:0:
205,17,82573,1,0,1:0:0:0:
254,96,82738,5,0,3:0:0:0:
254,96,82820,1,0,3:0:0:0:
254,96,82903,2,0,P|313:105|360:132,1,102,4|8,1:2|1:2,0:0:0:0:
350,124,83150,1,0,3:0:0:0:
350,124,83232,1,0,3:0:0:0:
452,201,83397,2,0,P|461:142|488:95,1,102,4|8,1:2|1:2,0:0:0:0:
480,104,83645,1,0,3:0:0:0:
480,105,83727,1,0,3:0:0:0:
398,49,83892,2,0,P|393:24|386:0,2,51,4|0|0,1:2|1:0|1:0,0:0:0:0:
367,214,84221,6,0,P|310:240|246:377,1,204,2|0,3:3|0:0,0:0:0:0:
245,360,85210,2,0,L|159:338,1,76.4999999999999,4|0,1:3|0:0,0:0:0:0:
72,382,85540,6,0,B|51:332|85:281|85:281|53:243|69:189,1,204,4|0,3:1|1:0,0:0:0:0:
165,220,86035,1,0,0:0:0:0:
90,97,86199,2,0,B|24:107|24:107|0:132,1,102,0|0,3:0|3:0,0:0:0:0:
34,279,86529,2,0,B|59:255|59:255|74:153,1,102,0|0,1:0|0:0,0:0:0:0:
234,98,86859,2,0,L|264:-4,1,102,0|0,3:0|3:0,0:0:0:0:
426,122,87188,2,0,L|353:193,1,102,0|0,1:0|0:0,0:0:0:0:
408,334,87518,2,0,L|511:308,1,102,0|0,3:0|3:0,0:0:0:0:
288,249,87848,2,0,P|249:294|280:391,1,153,4|0,1:2|0:0,0:0:0:0:
266,379,88177,5,4,3:1:0:0:
329,324,88342,1,0,3:0:0:0:
408,334,88507,1,2,1:3:0:0:
471,279,88672,1,0,3:0:0:0:
353,193,88837,6,0,B|312:166|312:166|243:164,1,102,0|0,3:0|3:0,0:0:0:0:
259,164,89166,1,2,1:3:0:0:
256,51,89331,2,0,B|207:60|207:60|169:97,1,102,0|0,3:0|3:0,0:0:0:0:
169,96,89661,1,0,3:0:0:0:
57,113,89826,2,0,B|59:61|59:61|86:20,1,102,4|0,1:2|3:0,0:0:0:0:
256,51,90155,2,0,B|253:100|253:100|277:146,1,102,0|0,3:0|3:0,0:0:0:0:
505,164,90485,2,0,B|460:136|460:136|427:33,1,153,4|0,1:2|0:0,0:0:0:0:
429,40,90815,6,0,B|374:69|374:69|353:220,1,204,4|0,3:1|1:0,0:0:0:0:
364,292,91309,1,0,0:0:0:0:
199,229,91474,2,0,P|254:229|288:266,1,102,0|0,3:0|3:0,0:0:0:0:
311,383,91804,1,0,1:0:0:0:
311,383,91969,1,0,0:0:0:0:
311,383,92134,2,0,P|395:330|490:358,1,204,0|0,3:0|1:0,0:0:0:0:
490,358,92628,1,0,0:0:0:0:
432,243,92793,2,0,P|466:199|528:190,1,102,0|0,3:0|3:0,0:0:0:0:
285,258,93123,1,4,1:2:0:0:
101,70,93452,5,4,1:2:0:0:
3,6,93617,1,4,1:2:0:0:
165,10,93947,1,8,3:3:0:0:
165,10,94112,1,8,3:3:0:0:
263,74,94441,1,0,1:0:0:0:
101,70,94606,1,0,1:0:0:0:
196,141,94771,6,0,L|185:243,1,102,4|0,3:2|3:0,0:0:0:0:
271,331,95101,2,0,L|157:343,1,102,4|0,1:2|3:0,0:0:0:0:
402,363,95430,2,0,L|412:261,1,102,4|0,1:2|1:0,0:0:0:0:
411,252,95677,1,0,1:0:0:0:
410,244,95760,1,0,1:0:0:0:
409,235,95842,1,0,1:0:0:0:
408,227,95925,1,0,1:0:0:0:
407,218,96007,1,0,1:0:0:0:
406,210,96090,6,0,B|301:199,1,95.6250000000002,2|0,3:3|1:0,0:0:0:0:
310,200,96584,2,0,B|205:189,1,95.6250000000002,2|0,3:3|1:0,0:0:0:0:
0,266,97079,2,0,P|34:249|93:256,1,85,4|0,3:2|1:0,0:0:0:0:
80,250,97326,1,0,1:0:0:0:
80,250,97408,1,4,3:1:0:0:
180,322,97573,1,2,1:3:0:0:
188,315,97655,1,2,1:3:0:0:
194,322,97738,1,2,1:3:0:0:
202,315,97820,1,2,1:3:0:0:
208,322,97903,1,0,3:0:0:0:
102,133,98068,6,0,L|92:80,1,42.5,2|2,1:2|1:2,0:0:0:0:
151,33,98232,2,0,L|201:50,1,42.5,2|2,1:2|1:2,0:0:0:0:
213,125,98397,1,8,3:3:0:0:
204,131,98480,1,8,3:3:0:0:
196,138,98562,1,4,3:3:0:0:
188,145,98645,1,4,3:3:0:0:
180,152,98727,1,0,1:0:0:0:
181,153,99386,6,0,P|271:122|367:121,1,170,4|0,3:1|0:0,0:0:0:0:
396,183,99880,1,0,3:0:0:0:
481,99,100045,2,0,P|472:57|466:8,1,85,0|0,1:0|3:0,0:0:0:0:
396,183,100375,2,0,P|405:229|411:274,1,85,0|0,0:0|3:0,0:0:0:0:
279,146,100704,6,0,B|303:111|303:111|355:120,1,85,0|0,3:0|3:0,0:0:0:0:
343,315,101034,2,0,B|367:350|367:350|409:343,1,85,0|0,0:0|3:0,0:0:0:0:
482,303,101364,1,0,1:0:0:0:
276,249,101528,2,0,B|188:270|233:329|133:350,1,170,0|0,3:0|3:0,0:0:0:0:
26,212,102023,5,4,3:1:0:0:
133,265,102188,1,0,3:0:0:0:
26,212,102353,1,0,0:0:0:0:
50,300,102517,2,0,P|45:342|37:384,1,85,0|0,3:0|1:0,0:0:0:0:
104,186,102847,2,0,P|108:143|117:102,1,85,0|0,3:0|0:0,0:0:0:0:
133,265,103177,6,0,L|236:240,1,85,0|0,3:0|3:0,0:0:0:0:
249,123,103506,2,0,L|352:148,1,85,0|0,3:0|0:0,0:0:0:0:
424,98,103836,1,0,3:0:0:0:
336,12,104001,1,4,1:2:0:0:
407,185,104166,1,0,3:0:0:0:
505,70,104331,1,4,1:2:0:0:
407,185,104495,1,0,0:0:0:0:
510,307,104660,6,0,B|442:319|442:319|425:363|425:363|353:375,1,170,4|0,3:1|0:0,0:0:0:0:
286,383,105155,1,0,3:0:0:0:
162,250,105320,2,0,P|215:268|247:288,1,85,0|0,1:0|3:0,0:0:0:0:
407,185,105649,2,0,P|369:205|329:217,1,85,0|0,0:0|3:0,0:0:0:0:
116,319,105979,6,0,P|80:269|89:227,1,85,0|0,3:0|3:0,0:0:0:0:
234,178,106309,2,0,P|270:128|261:86,1,85,0|0,0:0|3:0,0:0:0:0:
84,26,106638,1,0,1:0:0:0:
177,59,106803,1,0,3:0:0:0:
71,32,106968,2,0,P|84:79|90:124,1,85,0|0,0:0|3:0,0:0:0:0:
8,204,107298,1,4,3:1:0:0:
116,319,107462,6,0,P|152:273|261:279,1,170,0|0,3:0|3:0,0:0:0:0:
302,346,107957,1,0,1:0:0:0:
414,256,108122,2,0,L|430:156,1,85,0|0,3:0|0:0,0:0:0:0:
427,172,108451,1,0,3:0:0:0:
504,90,108616,5,4,1:2:0:0:
397,22,108781,1,0,3:0:0:0:
504,90,108946,1,0,1:0:0:0:
327,144,109111,1,8,1:3:0:0:
327,144,109193,1,4,1:3:0:0:
327,144,109276,1,0,3:0:0:0:
252,61,109440,1,0,3:0:0:0:
167,166,109605,2,0,L|179:220,3,42.5,0|0|0|0,1:0|1:0|1:0|1:0,0:0:0:0:
129,270,109935,5,4,3:1:0:0:
335,176,114715,5,2,0:3:0:0:
340,197,114798,1,2,0:3:0:0:
345,218,114880,1,4,0:2:0:0:
263,367,115210,6,0,P|337:379|428:385,1,153,4|0,3:1|3:0,0:0:0:0:
357,304,115704,2,0,P|433:298|508:286,1,153
508,286,116199,1,0,3:0:0:0:
345,218,116364,1,4,0:2:0:0:
191,236,116528,6,0,P|114:230|75:306,1,153,4|0,1:1|1:0,0:0:0:0:
74,286,117023,1,0,0:0:0:0:
123,361,117188,2,0,L|222:348,1,76.5000000000001,0|0,1:0|0:0,0:0:0:0:
261,291,117517,1,8,1:3:0:0:
270,292,117600,1,8,1:3:0:0:
279,293,117682,1,8,1:3:0:0:
289,294,117765,1,8,1:3:0:0:
298,295,117847,1,4,3:2:0:0:
191,236,118012,6,0,L|184:186,3,38.25,4|4|4|4,1:3|1:3|1:3|1:3,0:0:0:0:
191,236,118342,1,4,3:2:0:0:
290,172,118506,1,0,3:0:0:0:
325,72,118671,1,0,3:0:0:0:
424,8,118836,1,0,1:0:0:0:
442,10,118918,1,0,1:0:0:0:
462,12,119001,1,0,1:0:0:0:
481,14,119083,1,0,1:0:0:0:
500,15,119166,6,0,L|513:165,1,148.75,4|0,3:2|0:0,0:0:0:0:
512,163,119825,2,0,L|436:151,1,63.75,0|0,3:0|0:0,0:0:0:0:
368,146,120155,1,4,1:3:0:0:
368,146,120484,6,0,B|418:185|418:185|381:290,1,165.75,6|0,3:1|0:0,0:0:0:0:
414,355,120814,2,0,P|356:364|300:379,1,110.5,2|0,1:1|0:0,0:0:0:0:
295,262,121144,2,0,P|200:248|107:223,1,165.75,2|0,3:1|0:0,0:0:0:0:
86,169,121473,2,0,B|44:206|44:206|61:266,1,110.5,2|0,1:1|0:0,0:0:0:0:
161,358,121803,2,0,B|247:326|214:238|214:238|209:280|172:300,3,221,6|2|2|0,3:1|1:1|3:1|1:0,0:0:0:0:
203,127,122957,5,2,1:1:0:0:
203,127,123039,1,0,1:0:0:0:
203,127,123122,2,0,P|228:72|211:20,1,102,4|2,3:1|0:1,0:0:0:0:
68,114,123451,2,0,P|60:163|84:207,1,102,0|0,1:0|0:0,0:0:0:0:
77,327,123781,2,0,P|141:301|197:298,1,102,2|0,3:1|0:0,0:0:0:0:
239,223,124111,6,0,P|303:249|359:252,1,102,0|2,1:0|1:1,0:0:0:0:
394,189,124440,1,4,3:2:0:0:
391,173,124605,1,0,3:0:0:0:
388,158,124770,1,4,1:2:0:0:
449,109,124935,1,0,0:0:0:0:
494,172,125100,1,0,3:0:0:0:
412,25,125265,1,0,0:0:0:0:
268,94,125429,1,0,1:0:0:0:
345,277,125594,5,8,1:3:0:0:
345,277,125677,1,4,1:3:0:0:
345,277,125759,2,0,B|457:295|416:364|512:380,1,204,4|0,3:1|1:0,0:0:0:0:
317,194,126254,2,0,P|223:200|225:290,1,204,0|0,3:0|0:0,0:0:0:0:
401,209,126748,2,0,P|408:158|422:109,1,102,0|0,1:0|1:0,0:0:0:0:
465,43,126995,5,0,1:0:0:0:
465,43,127078,2,0,L|248:98,1,204,0|0,3:0|1:0,0:0:0:0:
119,143,127572,2,0,L|336:198,1,204,0|0,3:0|0:0,0:0:0:0:
210,380,128067,2,0,P|200:321|175:243,1,102,0|0,1:0|1:0,0:0:0:0:
118,233,128314,1,0,1:0:0:0:
118,233,128396,5,4,3:1:0:0:
332,80,128644,5,2,0:0:0:0:
83,62,128891,5,2,0:0:0:0:
83,62,129221,5,0,0:0:0:0:
170,103,129386,1,0,1:0:0:0:
257,144,129550,1,0,0:0:0:0:
344,185,129715,1,4,1:2:0:0:
344,185,129880,1,0,3:0:0:0:
443,50,130045,5,0,1:0:0:0:
443,50,130210,1,0,3:0:0:0:
271,234,130375,5,4,1:2:0:0:
271,234,130539,1,0,3:0:0:0:
331,294,130704,6,0,P|339:337|343:364,2,51,0|0|0,1:0|1:0|1:0,0:0:0:0:
493,198,131034,6,0,L|515:85,1,102,6|2,3:1|0:3,0:0:0:0:
363,144,131364,2,0,L|364:42,1,102,2|2,1:1|0:3,0:0:0:0:
215,126,131693,2,0,L|197:12,1,102,2|2,3:1|0:3,0:0:0:0:
78,141,132023,2,0,L|44:44,1,102,2|2,1:1|0:3,0:0:0:0:
0,194,132353,2,0,L|50:284,1,102,6|2,3:1|0:3,0:0:0:0:
181,269,132682,2,0,L|245:348,1,102,2|2,1:1|0:3,0:0:0:0:
337,201,133012,2,0,L|414:267,1,102,2|2,3:1|0:3,0:0:0:0:
393,32,133342,2,0,L|480:84,1,102,0|2,1:0|1:3,0:0:0:0:
480,84,133589,1,0,1:0:0:0:
480,84,133671,5,4,3:1:0:0:
500,177,133836,1,2,0:3:0:0:
506,262,134001,1,0,1:0:0:0:
498,348,134166,1,2,0:3:0:0:
500,177,134331,2,0,P|455:184|389:189,1,102,0|2,3:0|0:3,0:0:0:0:
428,297,134660,1,0,1:0:0:0:
349,122,134825,1,2,1:3:0:0:
349,122,134990,2,0,P|298:118|247:110,1,102,4|2,3:1|0:3,0:0:0:0:
176,242,135320,1,0,1:0:0:0:
247,110,135484,1,2,0:3:0:0:
176,242,135649,2,0,P|125:249|74:253,1,102,4|2,3:2|0:3,0:0:0:0:
105,24,135979,2,0,P|54:20|4:13,1,102,0|10,1:0|1:3,0:0:0:0:
3,13,136226,1,4,1:3:0:0:
3,13,136309,6,0,L|14:148,3,127.5,0|0|0|0,3:0|3:0|3:0|3:0,0:0:0:0:
150,138,137462,1,0,1:0:0:0:
150,138,137545,1,0,1:0:0:0:
150,138,137627,2,0,L|181:57,1,63.7500000000002,0|0,1:0|0:0,0:0:0:0:
282,144,137957,2,0,L|361:108,1,63.7500000000002,0|0,1:0|0:0,0:0:0:0:
359,228,138287,2,0,L|440:259,1,63.7500000000002,0|0,1:0|0:0,0:0:0:0:
483,365,138616,1,0,1:0:0:0:
483,365,138781,1,0,0:0:0:0:
440,145,138946,5,4,1:2:0:0:
418,250,139111,2,0,L|422:281,2,31.8750000000001,8|0|0,1:2|3:0|3:0,0:0:0:0:
365,103,139440,1,4,1:2:0:0:
296,256,139605,2,0,L|300:224,2,31.8750000000001,8|0|0,1:2|3:0|3:0,0:0:0:0:
179,184,139935,1,4,1:2:0:0:
180,191,140017,1,0,1:0:0:0:
181,199,140100,1,0,1:0:0:0:
182,207,140182,1,0,1:0:0:0:
183,215,140265,1,2,3:3:0:0:
61,254,141254,1,4,1:3:0:0:
61,254,141583,6,0,P|56:172|37:40,1,204,4|0,3:1|1:0,0:0:0:0:
113,6,142078,1,0,0:0:0:0:
215,68,142243,2,0,P|217:110|227:179,1,102,0|0,3:0|3:0,0:0:0:0:
234,259,142572,1,0,1:0:0:0:
376,268,142737,6,0,P|426:260|477:257,1,102,0|0,0:0|3:0,0:0:0:0:
512,146,143067,2,0,P|461:153|410:156,2,102,0|0|0,3:0|1:0|0:0,0:0:0:0:
301,219,143561,1,0,3:0:0:0:
225,169,143726,1,0,3:0:0:0:
173,285,143891,2,0,P|106:313|52:389,1,153,4|0,1:2|0:0,0:0:0:0:
57,374,144221,5,4,3:1:0:0:
42,301,144386,1,0,3:0:0:0:
18,179,144550,2,0,P|71:192|127:213,1,102,0|0,1:0|3:0,0:0:0:0:
201,69,144880,2,0,P|216:121|226:180,1,102,0|0,3:0|3:0,0:0:0:0:
301,219,145210,1,0,1:0:0:0:
399,133,145375,2,0,P|383:80|373:21,1,102,0|0,3:0|3:0,0:0:0:0:
301,219,145704,6,0,P|316:271|326:330,1,102,0|4,3:0|1:2,0:0:0:0:
428,365,146034,1,0,3:0:0:0:
503,324,146199,1,0,3:0:0:0:
416,235,146364,1,0,3:0:0:0:
501,150,146528,2,0,L|512:101,3,51,0|0|0|0,1:0|1:0|1:0|1:0,0:0:0:0:
506,91,146858,6,0,P|427:112|349:127,1,153,4|0,3:1|0:0,0:0:0:0:
357,125,147188,2,0,B|327:85|327:85|352:38,1,102,0|0,1:0|0:0,0:0:0:0:
223,180,147517,2,0,B|251:224|251:224|301:219,1,102,0|0,3:0|3:0,0:0:0:0:
378,203,147847,1,0,1:0:0:0:
213,68,148012,6,0,L|99:96,1,102,0|0,0:0|3:0,0:0:0:0:
7,69,148342,2,0,L|35:183,2,102,0|0|0,3:0|1:0|0:0,0:0:0:0:
132,205,148836,1,0,3:0:0:0:
63,262,149001,1,0,3:0:0:0:
157,354,149166,2,0,P|227:329|338:317,1,153,4|0,1:2|0:0,0:0:0:0:
304,317,149495,5,4,3:1:0:0:
382,348,149660,1,0,3:0:0:0:
461,213,149825,1,2,1:3:0:0:
383,243,149990,1,0,3:0:0:0:
290,155,150155,1,0,3:0:0:0:
290,155,150320,1,0,3:0:0:0:
385,62,150484,1,2,1:3:0:0:
385,62,150649,1,0,3:0:0:0:
298,238,150814,6,0,P|226:257|184:273,1,102,4|0,1:2|3:0,0:0:0:0:
150,128,151144,2,0,P|100:116|52:99,1,102,8|0,3:2|3:0,0:0:0:0:
0,185,151473,2,0,L|11:242,1,51,4|0,1:2|0:0,0:0:0:0:
19,244,151638,2,0,L|30:301,1,51,0|0,1:0|1:0,0:0:0:0:
110,367,151803,1,0,1:0:0:0:
112,354,151886,1,0,1:0:0:0:
114,341,151968,1,0,1:0:0:0:
117,329,152050,1,0,1:0:0:0:
119,316,152133,1,4,3:1:0:0:
116,218,152298,6,0,B|220:155|130:141|229:78,1,187,0|0,3:0|3:0,0:0:0:0:
266,171,152792,2,0,B|339:124|271:113|350:65,1,140.25,0|0,1:0|0:0,0:0:0:0:
349,65,153122,1,0,3:0:0:0:
144,139,153287,2,0,B|45:76|135:62|31:-1,2,187,0|0|0,3:0|3:0|0:0,0:0:0:0:
140,161,154028,2,0,B|168:159|168:159|186:168,1,46.75,0|4,1:0|1:2,0:0:0:0:
314,273,154276,1,0,3:0:0:0:
381,230,154440,1,0,3:0:0:0:
457,251,154605,1,0,0:0:0:0:
304,350,154770,1,4,3:1:0:0:
497,315,154935,6,0,P|503:223|505:112,1,187,0|0,3:0|3:0,0:0:0:0:
406,153,155429,2,0,P|410:83|412:12,1,140.25,0|0,1:0|0:0,0:0:0:0:
412,12,155759,1,0,3:0:0:0:
505,128,155924,2,0,B|445:141|445:141|394:113|394:113|313:125,1,187,0|0,3:0|3:0,0:0:0:0:
234,137,156418,1,0,3:0:0:0:
234,137,156748,2,0,P|241:80|282:59,1,93.5,4|0,1:2|3:0,0:0:0:0:
158,178,157078,1,0,1:0:0:0:
177,207,157160,1,0,1:0:0:0:
207,224,157243,1,0,1:0:0:0:
241,227,157325,1,0,1:0:0:0:
274,214,157407,1,4,3:1:0:0:
354,234,157572,5,0,3:0:0:0:
174,310,157737,2,0,L|310:329,1,102,4|0,1:2|3:0,0:0:0:0:
272,108,158067,2,0,L|373:122,1,102,4|0,1:2|3:0,0:0:0:0:
463,243,158396,1,0,3:0:0:0:
463,243,158561,1,0,3:0:0:0:
371,246,158726,1,4,1:2:0:0:
472,130,158891,1,0,3:0:0:0:
276,190,159056,1,4,1:2:0:0:
385,31,159221,1,0,3:0:0:0:
268,68,159386,2,0,L|197:71,2,51,0|0|0,1:0|1:0|1:0,0:0:0:0:
95,4,159715,1,0,3:0:0:0:
107,4,159798,1,0,3:0:0:0:
120,5,159880,1,0,3:0:0:0:
133,5,159962,1,0,3:0:0:0:
145,6,160045,6,0,L|132:110,1,76.5000000000001,0|8,1:0|1:2,0:0:0:0:
135,81,160539,1,4,1:2:0:0:
126,246,160704,1,12,1:2:0:0:
126,246,161034,2,0,L|230:259,1,76.5000000000001,0|8,1:0|1:2,0:0:0:0:
201,255,161528,1,4,1:2:0:0:
378,284,161693,1,12,1:2:0:0:
378,284,162023,2,0,L|385:220,3,38.25,4|0|0|0,1:2|1:0|1:0|1:0,0:0:0:0:
418,348,162353,2,0,L|425:284,1,38.25,0|0,1:0|1:0,0:0:0:0:
478,263,162517,2,0,L|473:301,1,38.25,0|0,1:0|1:0,0:0:0:0:
506,378,162682,5,4,3:1:0:0:
407,126,163012,2,0,B|317:143|357:184|269:204,2,136,0|0|0,3:0|3:0|3:0,0:0:0:0:
454,61,164001,1,0,3:0:0:0:
265,119,164331,2,0,P|234:68|262:-7,2,136,0|0|0,3:0|3:0|3:0,0:0:0:0:
294,196,165320,5,0,3:0:0:0:
181,269,165649,2,0,L|44:246,1,136,0|0,3:0|3:0,0:0:0:0:
46,246,166309,1,0,3:0:0:0:
84,177,166638,2,0,P|74:135|64:36,1,136,0|0,3:0|3:0,0:0:0:0:
64,42,167133,1,0,1:0:0:0:
151,89,167298,2,0,P|193:106|223:114,1,68,0|0,3:0|1:0,0:0:0:0:
263,188,167627,1,0,3:0:0:0:
325,69,167792,5,8,1:3:0:0:
325,69,167875,1,4,1:3:0:0:
325,69,167957,2,0,P|315:8|308:-24,1,68,4|0,3:1|3:0,0:0:0:0:
429,68,168287,2,0,P|439:129|446:161,1,68,0|0,3:0|0:0,0:0:0:0:
468,282,168616,2,0,P|428:238|339:221,1,136,4|0,1:2|3:0,0:0:0:0:
290,270,169111,1,0,3:0:0:0:
183,196,169276,2,0,P|176:162|171:128,1,68,0|0,3:0|0:0,0:0:0:0:
117,317,169605,1,0,1:0:0:0:
117,317,169935,5,4,1:2:0:0:
45,294,170100,1,0,3:0:0:0:
0,200,170265,1,0,1:0:0:0:
72,177,170429,1,0,3:0:0:0:
223,285,170594,6,0,P|274:272|319:265,1,68,4|0,3:1|3:0,0:0:0:0:
401,153,170924,2,0,P|367:146|334:137,1,68,0|0,3:0|0:0,0:0:0:0:
166,222,171254,2,0,P|151:150|119:65,1,136,4|0,1:2|3:0,0:0:0:0:
64,44,171748,1,0,3:0:0:0:
0,166,171913,2,0,P|6:199|15:232,1,68,0|0,3:0|0:0,0:0:0:0:
93,290,172243,1,0,1:0:0:0:
93,290,172407,1,0,3:0:0:0:
212,219,172572,5,4,1:2:0:0:
122,157,172737,1,0,3:0:0:0:
219,320,172902,1,4,1:2:0:0:
327,223,173067,1,8,1:3:0:0:
327,223,173149,1,4,1:3:0:0:
327,223,173232,1,4,3:1:0:0:
284,25,173561,6,0,L|436:0,1,136,0|0,3:0|3:0,0:0:0:0:
512,75,174221,1,0,3:0:0:0:
512,75,174550,2,0,L|489:209,1,136,0|0,3:0|3:0,0:0:0:0:
489,209,175210,2,0,L|406:188,1,68,0|0,3:0|1:0,0:0:0:0:
427,85,175539,2,0,L|344:106,1,68,0|0,3:0|1:0,0:0:0:0:
317,197,175787,1,0,1:0:0:0:
317,197,175869,2,0,P|264:150|190:167,1,136,0|0,3:0|3:0,0:0:0:0:
237,239,176364,1,0,1:0:0:0:
203,157,176528,6,0,L|182:74,1,68,0|0,3:0|1:0,0:0:0:0:
152,230,176858,2,0,L|168:295,1,68,0|0,3:0|1:0,0:0:0:0:
253,304,177105,1,0,1:0:0:0:
253,304,177188,2,0,L|236:238,1,68,0|0,3:0|1:0,0:0:0:0:
115,150,177517,1,0,1:0:0:0:
152,230,177682,1,8,3:3:0:0:
18,264,177847,2,0,L|34:329,1,68,4|4,3:3|1:2,0:0:0:0:
203,157,178177,1,0,1:0:0:0:
207,140,178259,1,0,1:0:0:0:
211,124,178342,1,0,1:0:0:0:
215,107,178424,1,0,1:0:0:0:
219,91,178506,1,4,3:1:0:0:
219,1,178671,5,0,3:0:0:0:
219,91,178836,2,0,L|330:76,1,102,0|0,3:0|0:0,0:0:0:0:
394,168,179166,2,0,P|458:164|498:237,1,136,4|0,1:2|3:0,0:0:0:0:
437,294,179660,1,0,3:0:0:0:
497,217,179825,2,0,L|386:202,1,102,0|0,3:0|0:0,0:0:0:0:
322,294,180155,2,0,P|258:290|218:363,1,136,0|4,1:0|1:2,0:0:0:0:
299,380,180649,1,0,3:0:0:0:
308,379,180814,1,0,1:0:0:0:
317,378,180979,1,0,3:0:0:0:
218,343,181144,5,4,3:1:0:0:
225,247,181309,1,0,3:0:0:0:
233,150,181473,1,0,3:0:0:0:
15,374,181803,2,0,P|58:323|76:258,1,136,4|0,1:2|3:0,0:0:0:0:
149,220,182298,1,0,3:0:0:0:
225,247,182462,1,0,3:0:0:0:
386,168,182792,2,0,P|417:175|485:181,1,68,0|0,1:0|3:0,0:0:0:0:
497,258,183039,1,0,3:0:0:0:
497,258,183122,2,0,L|483:175,1,68,4|0,1:2|3:0,0:0:0:0:
366,289,183451,1,0,1:0:0:0:
363,305,183534,1,0,1:0:0:0:
360,322,183616,1,0,1:0:0:0:
357,339,183699,1,0,1:0:0:0:
354,356,183781,6,0,P|293:366|218:380,1,136,4|0,3:1|1:0,0:0:0:0:
69,344,184276,2,0,P|41:287|92:221,1,136,0|0,3:0|3:0,0:0:0:0:
159,194,184770,1,0,1:0:0:0:
274,280,184935,2,0,P|232:273|181:263,1,68,0|0,3:0|0:0,0:0:0:0:
144,315,185265,1,0,3:0:0:0:
0,140,185429,6,0,L|142:108,1,136,4|0,1:2|3:0,0:0:0:0:
186,45,185924,1,0,3:0:0:0:
268,117,186089,2,0,P|254:169|250:205,1,68,4|0,1:2|0:0,0:0:0:0:
437,136,186418,6,0,P|442:81|369:12,1,136,4|0,3:1|1:0,0:0:0:0:
251,182,186913,2,0,B|320:203|299:245|370:267,1,136,0|0,3:0|3:0,0:0:0:0:
433,223,187407,1,0,1:0:0:0:
329,343,187572,2,0,P|278:354|253:361,1,68,0|0,3:0|0:0,0:0:0:0:
262,358,187902,1,0,3:0:0:0:
431,318,188067,5,4,1:2:0:0:
447,321,188149,1,0,0:0:0:0:
464,324,188232,1,8,1:3:0:0:
480,328,188314,1,4,1:3:0:0:
497,333,188396,2,0,P|503:299|512:266,1,68,0|0,3:0|3:0,0:0:0:0:
419,142,188726,6,0,P|392:147|365:154,1,34,0|0,1:0|3:0,0:0:0:0:
341,216,188891,1,8,3:3:0:0:
324,212,188973,1,4,3:3:0:0:
307,209,189056,2,0,P|296:163|281:110,1,76.5000000000001,4|0,3:1|1:0,0:0:0:0:
281,131,189303,1,0,1:0:0:0:
272,133,189386,2,0,L|223:144,3,38.25,0|0|2|0,1:0|1:0|3:3|0:0,0:0:0:0:
179,208,189715,2,0,L|130:197,3,38.25,0|0|0|0,1:0|1:0|1:0|1:0,0:0:0:0:
92,136,190045,5,2,3:3:0:0:
177,49,190210,1,0,1:0:0:0:
177,49,190292,1,0,1:0:0:0:
177,49,190375,1,0,1:0:0:0:
177,49,190457,1,0,1:0:0:0:
177,49,190539,2,0,L|230:63,1,38.25,2|0,3:3|0:0,0:0:0:0:
306,9,190704,2,0,L|320:62,1,38.25,0|0,1:0|1:0,0:0:0:0:
262,169,190869,2,0,L|271:132,1,38.25,0|0,1:0|1:0,0:0:0:0:
396,11,191034,5,0,1:0:0:0:
414,15,191116,1,0,1:0:0:0:
431,23,191199,1,0,1:0:0:0:
447,34,191281,1,0,1:0:0:0:
459,49,191364,1,0,1:0:0:0:
468,66,191446,1,0,1:0:0:0:
474,84,191528,1,0,1:0:0:0:
475,103,191611,1,0,1:0:0:0:
473,122,191693,1,2,3:3:0:0:
473,122,193671,5,4,0:2:0:0:
473,122,194331,2,0,L|218:176,1,255,6|0,3:1|0:0,0:0:0:0:
151,141,194990,1,0,1:0:0:0:
340,237,195155,1,2,3:3:0:0:
340,237,195649,6,0,L|327:358,1,110.5,6|0,1:1|3:0,0:0:0:0:
223,174,195979,2,0,L|241:294,1,110.5,2|0,1:1|3:0,0:0:0:0:
471,202,196309,2,0,L|427:315,1,110.5,2|0,1:1|3:0,0:0:0:0:
354,142,196638,2,0,L|365:32,1,110.5,2|0,1:1|3:0,0:0:0:0:
471,202,196968,1,6,1:1:0:0:
354,142,197133,1,0,3:0:0:0:
340,237,197298,1,2,1:1:0:0:
254,173,197462,1,0,3:0:0:0:
209,272,197627,1,2,1:1:0:0:
218,193,197792,1,0,3:0:0:0:
37,144,197957,6,0,P|-2:101|16:38,1,110.5,0|2,1:0|1:1,0:0:0:0:
4,52,198204,1,0,1:0:0:0:
4,52,198287,1,4,3:1:0:0:
95,80,198451,1,2,3:1:0:0:
124,161,198616,1,0,1:0:0:0:
75,235,198781,1,0,3:0:0:0:
43,314,198946,1,2,1:1:0:0:
94,383,199111,1,0,3:0:0:0:
232,293,199276,6,0,P|180:300|118:305,1,110.5,0|2,1:0|1:1,0:0:0:0:
261,162,199605,2,0,P|312:169|375:174,1,110.5,4|0,1:2|3:0,0:0:0:0:
511,43,199935,2,0,P|459:50|397:55,1,110.5,4|0,1:2|3:0,0:0:0:0:
247,0,200265,1,4,1:2:0:0:
401,54,200429,1,0,3:0:0:0:
261,162,200594,1,0,1:0:0:0:
315,75,200759,1,8,1:3:0:0:
315,75,200842,1,4,1:3:0:0:
315,75,200924,6,0,P|250:49|172:166,1,221,4|0,3:1|1:0,0:0:0:0:
168,151,201418,1,0,3:0:0:0:
92,293,201583,2,0,P|24:284|7:215,1,110.5,0|0,1:0|3:0,0:0:0:0:
87,202,201913,1,0,1:0:0:0:
87,202,202078,1,0,1:0:0:0:
155,366,202243,2,0,P|208:372|246:334,1,110.5,0|0,1:0|3:0,0:0:0:0:
176,278,202572,1,0,1:0:0:0:
176,278,202737,1,0,3:0:0:0:
372,259,202902,2,0,P|372:312|331:346,1,110.5,0|0,1:0|3:0,0:0:0:0:
285,205,203232,2,0,L|297:88,1,110.5,0|0,1:0|1:0,0:0:0:0:
296,95,203479,1,0,1:0:0:0:
296,95,203561,5,4,1:1:0:0:
512,0,203809,5,2,0:0:0:0:
512,233,204056,5,2,3:2:0:0:
512,233,204386,1,0,0:0:0:0:
353,165,204550,2,0,L|509:146,1,110.5,0|0,1:0|3:0,0:0:0:0:
462,151,204798,1,0,3:0:0:0:
462,151,204880,1,4,1:1:0:0:
437,275,205045,1,0,1:0:0:0:
435,288,205127,1,0,1:0:0:0:
433,302,205210,1,0,3:0:0:0:
431,316,205292,1,0,3:0:0:0:
430,329,205375,1,0,3:0:0:0:
344,320,205539,6,0,L|337:258,1,55.25,0|0,1:0|1:0,0:0:0:0:
260,233,205704,2,0,L|209:270,1,55.25,0|0,1:0|1:0,0:0:0:0:
227,350,205869,2,0,L|284:374,3,55.25,0|0|0|0,1:0|1:0|1:0|1:0,0:0:0:0:
143,384,206199,6,0,P|134:312|109:205,1,165.75,6|0,3:1|0:0,0:0:0:0:
125,212,206528,2,0,P|109:143|100:74,1,110.5,2|2,1:1|0:3,0:0:0:0:
177,1,206858,2,0,P|192:69|201:138,1,110.5,2|2,3:1|0:3,0:0:0:0:
21,141,207188,2,0,P|8:87|0:32,1,110.5,2|2,1:1|0:3,0:0:0:0:
198,109,207517,6,0,B|292:138|257:168|345:197,1,165.75,6|0,3:1|0:0,0:0:0:0:
359,192,207847,1,2,1:1:0:0:
414,69,208012,1,2,0:3:0:0:
489,204,208177,1,2,3:1:0:0:
380,222,208342,1,2,0:3:0:0:
467,304,208506,1,0,1:0:0:0:
502,221,208671,1,2,1:3:0:0:
327,102,208836,6,0,B|213:122|264:210|157:231,1,221,4|0,3:1|1:0,0:0:0:0:
0,110,209331,1,2,0:3:0:0:
99,63,209495,2,0,P|90:118|83:173,1,110.5,0|2,3:0|0:3,0:0:0:0:
11,321,209825,1,0,1:0:0:0:
159,230,209990,2,0,P|268:243|306:351,1,221,2|2,1:3|0:3,0:0:0:0:
220,363,210484,1,0,1:0:0:0:
307,229,210649,2,0,B|320:128|389:160|410:32,1,221,2|2,0:3|0:3,0:0:0:0:
291,52,211144,1,0,1:0:0:0:
408,229,211309,5,10,1:3:0:0:
408,229,211391,1,4,1:3:0:0:
408,229,211473,2,0,P|421:278|396:340,1,110.5,0|0,3:0|0:0,0:0:0:0:
293,352,211803,1,0,3:0:0:0:
293,352,211968,1,0,0:0:0:0:
171,327,212133,1,0,3:0:0:0:
40,302,212298,1,0,0:0:0:0:
108,384,212462,1,0,3:0:0:0:
152,202,212627,5,0,1:0:0:0:
152,202,212710,1,0,1:0:0:0:
152,202,212792,2,0,B|221:161|285:209|285:209|288:254|327:277,1,221,0|0,1:0|1:0,0:0:0:0:
378,204,213287,1,0,0:0:0:0:
378,204,213451,1,0,1:0:0:0:
504,271,213616,1,0,0:0:0:0:
429,352,213781,1,0,1:0:0:0:
470,191,213946,5,0,3:0:0:0:
470,191,214028,1,0,3:0:0:0:
470,191,214111,2,0,P|479:132|506:85,1,110.5,4|8,1:2|1:2,0:0:0:0:
503,88,214358,1,0,3:0:0:0:
503,88,214440,1,0,3:0:0:0:
331,11,214605,2,0,P|340:70|367:117,1,110.5,4|8,1:2|1:2,0:0:0:0:
364,113,214853,1,0,3:0:0:0:
364,112,214935,1,0,3:0:0:0:
174,139,215100,2,0,P|180:108|188:78,2,55.25,4|0|0,1:2|1:0|1:0,0:0:0:0:
47,216,215429,6,0,P|104:242|168:379,1,204,2|0,3:3|0:0,0:0:0:0:
168,362,216418,2,0,L|254:340,1,76.4999999999999,4|0,1:3|0:0,0:0:0:0:
350,348,216748,6,0,B|285:340|285:340|255:280|255:280|174:271,1,204,4|0,3:1|1:0,0:0:0:0:
168,362,217243,1,0,0:0:0:0:
149,195,217407,2,0,B|113:214|113:214|92:302,1,102,0|0,3:0|3:0,0:0:0:0:
281,242,217737,2,0,L|179:273,1,102,0|0,1:0|0:0,0:0:0:0:
9,318,218067,2,0,P|32:362|80:369,1,102,0|0,3:0|3:0,0:0:0:0:
149,195,218396,2,0,P|109:223|62:208,1,102,0|0,1:0|0:0,0:0:0:0:
21,92,218726,2,0,P|65:70|73:22,1,102,0|0,3:0|3:0,0:0:0:0:
257,46,219056,2,0,B|299:82|299:82|315:209,1,153,4|0,1:2|0:0,0:0:0:0:
311,178,219386,5,4,3:1:0:0:
395,213,219550,1,0,3:0:0:0:
425,135,219715,1,2,1:3:0:0:
509,170,219880,1,0,3:0:0:0:
410,291,220045,6,0,L|452:387,1,102,0|0,3:0|3:0,0:0:0:0:
450,384,220375,1,2,1:3:0:0:
276,266,220539,2,0,L|341:347,1,102,0|0,3:0|3:0,0:0:0:0:
339,345,220869,1,0,3:0:0:0:
311,178,221034,2,0,L|295:77,1,102,4|0,1:2|3:0,0:0:0:0:
193,197,221364,2,0,L|181:298,1,102,0|0,3:0|3:0,0:0:0:0:
69,223,221693,1,4,1:2:0:0:
73,211,221776,1,0,1:0:0:0:
78,199,221858,1,0,1:0:0:0:
82,187,221940,1,0,1:0:0:0:
87,175,222023,6,0,B|54:35|54:35|-1:3,1,204,4|0,3:1|1:0,0:0:0:0:
0,130,222517,1,0,0:0:0:0:
133,27,222682,2,0,L|156:126,1,102,0|0,3:0|3:0,0:0:0:0:
286,206,223012,2,0,L|385:182,1,102,0|0,1:0|0:0,0:0:0:0:
196,324,223342,2,0,B|229:362|229:362|403:378,2,204,0|0|0,3:0|1:0|3:0,0:0:0:0:
196,324,224166,1,0,3:0:0:0:
3,379,224331,2,0,P|29:315|123:304,1,153,4|0,1:2|0:0,0:0:0:0:
105,296,224660,5,6,3:1:0:0:
131,377,224825,1,0,3:0:0:0:
173,196,224990,1,2,1:1:0:0:
183,231,225155,1,0,3:0:0:0:
302,344,225320,1,2,3:1:0:0:
276,263,225484,1,0,3:0:0:0:
380,315,225649,1,2,1:1:0:0:
370,280,225814,1,0,3:0:0:0:
495,195,225979,6,0,L|503:91,1,102,4|0,1:2|3:0,0:0:0:0:
308,14,226309,2,0,L|327:115,1,102,8|0,1:2|3:0,0:0:0:0:
183,231,226638,2,0,L|138:139,1,102,4|0,1:2|1:0,0:0:0:0:
83,204,226886,1,0,1:0:0:0:
83,204,226968,2,0,L|92:254,1,51,0|0,1:0|1:0,0:0:0:0:
63,275,227133,2,0,L|59:325,1,51,0|0,1:0|1:0,0:0:0:0:
0,384,227298,5,4,3:1:0:0:
0,384,227462,1,0,3:0:0:0:
0,384,227627,1,0,3:0:0:0:
0,384,227792,1,0,3:0:0:0:
59,325,227957,2,0,L|48:218,1,93.5,0|0,1:0|3:0,0:0:0:0:
49,231,228287,2,0,L|156:242,1,93.5,0|0,3:0|3:0,0:0:0:0:
168,357,228616,5,4,3:1:0:0:
200,346,228781,1,0,3:0:0:0:
232,335,228946,1,0,3:0:0:0:
264,324,229111,1,0,3:0:0:0:
409,334,229276,2,0,L|505:357,1,93.5,0|0,1:0|3:0,0:0:0:0:
465,226,229605,2,0,L|375:205,1,93.5,0|0,3:0|3:0,0:0:0:0:
242,186,229935,5,4,1:1:0:0:
375,205,230100,1,0,3:0:0:0:
319,140,230265,1,0,3:0:0:0:
301,248,230429,5,0,1:0:0:0:
154,168,230594,1,0,1:0:0:0:
225,107,230759,1,0,3:0:0:0:
231,304,230924,5,0,1:0:0:0:
152,259,231089,1,0,3:0:0:0:
235,202,231254,1,0,3:0:0:0:
231,304,231418,1,0,1:0:0:0:
66,255,231583,2,0,L|53:156,1,93.5,0|0,1:0|3:0,0:0:0:0:
175,98,231913,2,0,L|188:-1,1,93.5,4|0,3:2|3:0,0:0:0:0:
289,51,232243,2,0,L|355:59,2,46.75,0|0|0,1:0|1:0|1:0,0:0:0:0:
86,57,232572,6,0,P|62:122|172:185,1,204,4|0,3:1|1:0,0:0:0:0:
157,189,233067,1,0,3:0:0:0:
189,357,233232,2,0,P|204:300|243:249,1,102,0|0,1:0|3:0,0:0:0:0:
356,159,233561,2,0,P|299:174|235:166,1,102,0|0,1:0|3:0,0:0:0:0:
256,171,233809,1,0,3:0:0:0:
256,171,233891,1,4,1:1:0:0:
316,285,234056,1,0,3:0:0:0:
204,327,234221,1,0,1:0:0:0:
316,285,234386,1,0,3:0:0:0:
363,383,234550,1,0,1:0:0:0:
316,285,234715,1,0,3:0:0:0:
424,237,234880,2,0,P|449:224|472:206,2,51,0|0|0,1:0|3:0|3:0,0:0:0:0:
287,361,235210,6,0,B|248:334|248:334|194:340,2,102,4|0|0,3:1|3:0|3:0,0:0:0:0:
154,160,235704,2,0,B|196:139|196:139|218:89,2,102,4|0|0,1:2|3:0|3:0,0:0:0:0:
395,145,236199,2,0,B|391:192|391:192|423:236,1,102,4|0,1:2|3:0,0:0:0:0:
507,384,236528,5,4,1:2:0:0:
279,224,236858,1,8,1:2:0:0:
14,376,237188,1,4,1:2:0:0:
88,297,237353,1,8,3:2:0:0:
217,349,237517,1,8,3:2:0:0:
279,224,237682,1,8,3:2:0:0:
