osu file format v14

[General]
AudioFilename: audio.mp3
AudioLeadIn: 0
PreviewTime: 188865
Countdown: 0
SampleSet: Normal
StackLeniency: 0.2
Mode: 0
LetterboxInBreaks: 0
WidescreenStoryboard: 0

[Editor]
DistanceSpacing: 6
BeatDivisor: 4
GridSize: 4
TimelineZoom: 2.1

[Metadata]
Title:Kyoumei no True Force
TitleUnicode:共鳴のTrue Force
Artist:Harada Hitomi
ArtistUnicode:原田ひとみ
Creator:Kibbleru
Version:Redemption
Source:精霊使いの剣舞
Tags:Seirei Tsukai Blade Dance opening op anime japanese pop rock no_dap momoka scanter
BeatmapID:2733012
BeatmapSetID:1319323

[Difficulty]
HPDrainRate:6.5
CircleSize:4
OverallDifficulty:8.5
ApproachRate:9.3
SliderMultiplier:1.8
SliderTickRate:1

[Events]
//Background and Video events
0,0,"80678823_p0.png",0,0
//Break Periods
2,90064,93791
//Storyboard Layer 0 (Background)
//Storyboard Layer 1 (Fail)
//Storyboard Layer 2 (Pass)
//Storyboard Layer 3 (Foreground)
//Storyboard Layer 4 (Overlay)
//Storyboard Sound Samples

[TimingPoints]
1545,320,4,2,2,60,1,0
1545,-111.111111111111,4,2,2,60,0,0
2345,-111.111111111111,4,2,2,60,0,0
4105,-100,4,1,1,60,0,0
6665,-71.4285714285714,4,1,1,70,0,0
6985,-90.9090909090909,4,1,1,70,0,0
7945,-83.3333333333333,4,1,1,70,0,0
8425,-133.333333333333,4,1,1,70,0,0
8905,-66.6666666666667,4,1,1,70,0,0
9225,-80,4,1,1,70,0,0
9705,-90.9090909090909,4,1,1,70,0,0
10185,-125,4,1,1,70,0,0
10825,-100,4,1,1,70,0,0
11465,-66.6666666666667,4,1,1,70,0,0
11785,-80,4,1,1,70,0,0
12265,-90.9090909090909,4,1,1,70,0,0
12745,-125,4,1,1,70,0,0
13065,-83.3333333333333,4,1,1,70,0,0
13545,-100,4,1,1,70,0,0
14345,-111.111111111111,4,1,1,65,0,0
14505,-71.4285714285714,4,1,1,60,0,0
14665,-100,4,1,1,60,0,0
15145,-125,4,1,1,60,0,0
15625,-90.9090909090909,4,1,1,50,0,0
16265,-80,4,1,1,50,0,0
16905,-133.333333333333,4,1,1,50,0,0
25865,-90.9090909090909,4,1,1,55,0,0
26505,-80,4,1,1,55,0,0
27145,-100,4,1,1,60,0,0
29385,-90.9090909090909,4,1,1,60,0,0
29545,-100,4,1,1,60,0,0
31945,-90.9090909090909,4,1,1,60,0,0
32105,-100,4,1,1,60,0,0
36105,-100,4,2,2,65,0,0
36905,-100,4,1,1,60,0,0
37385,-153.846153846154,4,2,2,60,0,0
38025,-181.818181818182,4,2,2,60,0,0
38665,-153.846153846154,4,2,2,60,0,0
39465,-181.818181818182,4,2,2,60,0,0
39945,-166.666666666667,4,2,2,60,0,0
40585,-153.846153846154,4,2,2,60,0,0
42185,-100,4,1,1,50,0,0
42505,-100,4,1,1,60,0,0
44745,-80,4,1,1,70,0,0
45385,-90.9090909090909,4,1,1,70,0,0
46025,-80,4,1,1,70,0,0
47145,-66.6666666666667,4,1,1,70,0,0
47785,-66.6666666666667,4,1,1,60,0,0
48905,-80,4,1,1,70,0,1
49385,-100,4,1,1,70,0,1
50665,-80,4,1,1,70,0,1
51465,-90.9090909090909,4,1,1,70,0,1
52745,-100,4,1,1,70,0,1
53225,-80,4,1,1,70,0,1
53865,-100,4,1,1,70,0,1
54345,-80,4,1,1,70,0,1
55145,-90.9090909090909,4,1,1,70,0,1
57065,-80,4,1,1,70,0,1
57545,-100,4,1,1,70,0,1
58025,-90.9090909090909,4,1,1,70,0,1
58505,-80,4,1,1,70,0,1
58825,-66.6666666666667,4,1,1,70,0,1
59785,-66.6666666666667,4,1,1,60,0,1
59865,-66.6666666666667,4,1,1,70,0,1
60265,-100,4,1,1,60,0,1
60425,-100,4,1,1,70,0,1
61065,-66.6666666666667,4,1,1,60,0,1
61145,-66.6666666666667,4,1,1,70,0,1
61545,-90.9090909090909,4,1,1,60,0,1
61705,-90.9090909090909,4,1,1,70,0,1
62345,-66.6666666666667,4,1,1,60,0,1
62425,-66.6666666666667,4,1,1,70,0,1
62825,-100,4,1,1,60,0,1
62985,-100,4,1,1,70,0,1
63625,-80,4,1,1,70,0,1
64745,-90.9090909090909,4,1,1,70,0,1
65225,-80,4,1,1,70,0,1
66505,-90.9090909090909,4,1,1,70,0,1
66825,-80,4,1,1,75,0,1
67305,-71.4285714285714,4,1,1,75,0,1
67785,-64.5161290322581,4,1,1,75,0,1
68265,-58.8235294117647,4,1,1,80,0,1
69225,-58.8235294117647,4,1,1,80,0,0
69385,-80,4,1,1,70,0,1
70025,-100,4,1,1,70,0,1
71145,-80,4,1,1,70,0,1
72425,-90.9090909090909,4,1,1,70,0,1
73225,-100,4,1,1,70,0,1
77065,-90.9090909090909,4,1,1,70,0,1
77545,-80,4,1,1,70,0,1
78025,-90.9090909090909,4,1,1,70,0,1
78505,-83.3333333333333,4,1,1,70,0,1
78985,-66.6666666666667,4,1,1,70,0,1
79625,-133.333333333333,4,1,1,70,0,1
79945,-100,4,1,1,70,0,1
80905,-80,4,1,1,70,0,1
81385,-90.9090909090909,4,1,1,70,0,1
81865,-80,4,1,1,70,0,1
82185,-133.333333333333,4,1,1,70,0,1
82505,-100,4,1,1,70,0,1
83465,-80,4,1,1,70,0,1
83945,-90.9090909090909,4,1,1,70,0,1
84265,-80,4,1,1,70,0,1
84425,-80,4,1,1,70,0,1
84745,-90.9090909090909,4,1,1,70,0,1
85225,-100,4,1,1,70,0,1
87785,-200,4,1,1,70,0,1
89225,-71.4285714285714,4,1,1,70,0,1
89545,-71.4285714285714,4,1,1,70,0,0
89865,-71.4285714285714,4,2,2,70,0,0
94345,-71.4285714285714,4,1,1,70,0,0
94985,-133.333333333333,4,1,1,50,0,0
102825,-125,4,1,1,55,0,0
103945,-90.9090909090909,4,1,1,55,0,0
104585,-80,4,1,1,55,0,0
105225,-100,4,1,1,60,0,0
107465,-90.9090909090909,4,1,1,60,0,0
107625,-100,4,1,1,60,0,0
110025,-90.9090909090909,4,1,1,60,0,0
110185,-100,4,1,1,60,0,0
114185,-100,4,2,2,65,0,0
114985,-100,4,1,1,60,0,0
115465,-153.846153846154,4,2,2,60,0,0
116105,-181.818181818182,4,2,2,60,0,0
116745,-153.846153846154,4,2,2,60,0,0
117545,-181.818181818182,4,2,2,60,0,0
118185,-166.666666666667,4,2,2,60,0,0
118825,-153.846153846154,4,2,2,60,0,0
120265,-100,4,1,1,60,0,0
122825,-80,4,1,1,70,0,0
123465,-90.9090909090909,4,1,1,70,0,0
124105,-80,4,1,1,70,0,0
125225,-66.6666666666667,4,1,1,70,0,0
125865,-66.6666666666667,4,1,1,60,0,0
126985,-80,4,1,1,70,0,1
127465,-100,4,1,1,70,0,1
128585,-80,4,1,1,70,0,1
129225,-100,4,1,1,70,0,1
129545,-80,4,1,1,70,0,1
130025,-90.9090909090909,4,1,1,70,0,1
130825,-100,4,1,1,70,0,1
131305,-80,4,1,1,70,0,1
131945,-100,4,1,1,70,0,1
133225,-90.9090909090909,4,1,1,70,0,1
135145,-80,4,1,1,70,0,1
135625,-100,4,1,1,70,0,1
136105,-90.9090909090909,4,1,1,70,0,1
136585,-80,4,1,1,70,0,1
136905,-66.6666666666667,4,1,1,70,0,1
137865,-66.6666666666667,4,1,1,60,0,1
137945,-66.6666666666667,4,1,1,70,0,1
138345,-100,4,1,1,60,0,1
138505,-100,4,1,1,70,0,1
139145,-66.6666666666667,4,1,1,60,0,1
139225,-66.6666666666667,4,1,1,70,0,1
139625,-90.9090909090909,4,1,1,60,0,1
139785,-100,4,1,1,70,0,1
140425,-66.6666666666667,4,1,1,60,0,1
140505,-66.6666666666667,4,1,1,70,0,1
140905,-100,4,1,1,60,0,1
141065,-100,4,1,1,70,0,1
141545,-80,4,1,1,70,0,1
142825,-90.9090909090909,4,1,1,70,0,1
143305,-80,4,1,1,70,0,1
144585,-90.9090909090909,4,1,1,70,0,1
144905,-80,4,1,1,75,0,1
145385,-71.4285714285714,4,1,1,75,0,1
145865,-64.5161290322581,4,1,1,75,0,1
146345,-58.8235294117647,4,1,1,80,0,1
147305,-58.8235294117647,4,1,1,80,0,0
147465,-90.9090909090909,4,1,1,70,0,1
148105,-100,4,1,1,70,0,1
150025,-80,4,1,1,70,0,1
150505,-90.9090909090909,4,1,1,70,0,1
150985,-100,4,1,1,70,0,1
151305,-100,4,1,1,70,0,1
155145,-80,4,1,1,70,0,1
155625,-90.9090909090909,4,1,1,70,0,1
156585,-83.3333333333333,4,1,1,70,0,1
157065,-66.6666666666667,4,1,1,70,0,1
157705,-133.333333333333,4,1,1,70,0,1
158025,-100,4,1,1,70,0,1
158985,-80,4,1,1,70,0,1
159465,-90.9090909090909,4,1,1,70,0,1
159945,-80,4,1,1,70,0,1
160265,-133.333333333333,4,1,1,70,0,1
160585,-100,4,1,1,70,0,1
161545,-80,4,1,1,70,0,1
162025,-90.9090909090909,4,1,1,70,0,1
162345,-80,4,1,1,70,0,1
162505,-80,4,1,1,70,0,1
162825,-90.9090909090909,4,1,1,70,0,1
163305,-100,4,1,1,70,0,1
165865,-200,4,1,1,70,0,1
166825,-90.9090909090909,4,1,1,70,0,1
167305,-100,4,1,1,70,0,1
167945,-71.4285714285714,4,1,1,70,0,0
168265,-90.9090909090909,4,1,1,70,0,0
169225,-83.3333333333333,4,1,1,70,0,0
169705,-133.333333333333,4,1,1,70,0,0
170185,-66.6666666666667,4,1,1,70,0,0
170665,-100,4,1,1,70,0,0
171625,-90.9090909090909,4,1,1,70,0,0
172425,-100,4,1,1,70,0,0
172745,-66.6666666666667,4,1,1,70,0,0
173065,-71.4285714285714,4,1,1,70,0,0
173385,-90.9090909090909,4,1,1,70,0,0
174345,-83.3333333333333,4,1,1,70,0,0
174825,-133.333333333333,4,1,1,70,0,0
175305,-66.6666666666667,4,1,1,70,0,0
175785,-100,4,1,1,70,0,0
176745,-90.9090909090909,4,1,1,70,0,0
177545,-83.3333333333333,4,1,1,70,0,0
177865,-71.4285714285714,4,1,1,70,0,0
178185,-71.4285714285714,4,1,1,70,0,0
178505,-90.9090909090909,4,1,1,70,0,0
179465,-83.3333333333333,4,1,1,70,0,0
179945,-133.333333333333,4,1,1,70,0,0
180425,-66.6666666666667,4,1,1,70,0,0
180905,-100,4,1,1,70,0,0
181865,-90.9090909090909,4,1,1,70,0,0
182665,-100,4,1,1,70,0,0
182985,-66.6666666666667,4,1,1,70,0,0
183305,-71.4285714285714,4,1,1,70,0,0
183625,-90.9090909090909,4,1,1,70,0,0
184585,-71.4285714285714,4,1,1,70,0,0
185065,-133.333333333333,4,1,1,70,0,0
185545,-66.6666666666667,4,1,1,70,0,0
186025,-100,4,1,1,70,0,0
186825,-80,4,1,1,70,0,0
187145,-100,4,1,1,70,0,0
187625,-250,4,1,1,60,0,0
188425,-250,4,1,1,50,0,0
189705,-125,4,2,2,55,0,0
192745,-111.111111111111,4,2,2,55,0,0
193225,-200,4,2,2,55,0,0
194345,-111.111111111111,4,2,2,55,0,0
195945,-125,4,2,2,55,0,0
197385,-111.111111111111,4,2,2,55,0,0
197865,-90.9090909090909,4,2,2,55,0,0
198345,-142.857142857143,4,2,2,55,0,0
198825,-100,4,2,2,55,0,0
199305,-250,4,2,2,55,0,0
205065,-111.111111111111,4,2,2,55,0,0
205545,-100,4,2,2,55,0,0
206025,-333.333333333333,4,2,2,55,0,0
206985,-333.333333333333,4,1,1,60,0,0
207305,-200,4,1,1,60,0,0
207625,-83.3333333333333,4,1,1,70,0,1
207785,-83.3333333333333,4,1,1,40,0,1
207945,-83.3333333333333,4,1,1,40,0,0
208105,-83.3333333333333,4,1,1,70,0,1
208265,-83.3333333333333,4,1,1,40,0,1
208425,-83.3333333333333,4,1,1,40,0,0
208585,-83.3333333333333,4,1,1,70,0,1
208745,-83.3333333333333,4,1,1,40,0,1
208905,-83.3333333333333,4,1,1,40,0,0
209065,-83.3333333333333,4,1,1,70,0,1
209225,-83.3333333333333,4,1,1,40,0,1
209385,-83.3333333333333,4,1,1,40,0,0
209545,-83.3333333333333,4,1,1,70,0,1
209705,-83.3333333333333,4,1,1,40,0,1
209865,-83.3333333333333,4,1,1,70,0,0
210185,-90.9090909090909,4,1,1,70,0,1
210825,-100,4,1,1,70,0,1
211945,-80,4,1,1,70,0,1
212745,-80,4,1,1,70,0,1
213225,-90.9090909090909,4,1,1,70,0,1
213705,-100,4,1,1,70,0,1
214025,-100,4,1,1,70,0,1
214505,-80,4,1,1,70,0,1
215145,-100,4,1,1,70,0,1
215625,-80,4,1,1,70,0,1
216425,-90.9090909090909,4,1,1,70,0,1
218345,-90.9090909090909,4,1,1,70,0,1
219305,-80,4,1,1,70,0,1
219785,-66.6666666666667,4,1,1,70,0,1
220425,-133.333333333333,4,1,1,70,0,1
220745,-100,4,1,1,70,0,1
221705,-80,4,1,1,70,0,1
222185,-90.9090909090909,4,1,1,70,0,1
222665,-80,4,1,1,70,0,1
222985,-133.333333333333,4,1,1,70,0,1
223305,-100,4,1,1,70,0,1
224265,-80,4,1,1,70,0,1
224745,-90.9090909090909,4,1,1,70,0,1
225065,-80,4,1,1,70,0,1
225225,-80,4,1,1,70,0,1
225545,-90.9090909090909,4,1,1,70,0,1
226025,-100,4,1,1,70,0,1
228585,-200,4,1,1,70,0,1
229545,-90.9090909090909,4,1,1,70,0,1
230025,-100,4,1,1,70,0,0
230665,-100,4,1,1,70,0,1
233225,-80,4,1,1,70,0,1
233705,-90.9090909090909,4,1,1,70,0,1
239625,-80,4,1,1,60,0,1
239945,-90.9090909090909,4,1,1,70,0,1
240265,-86.9565217391304,4,1,1,70,0,1
240905,-100,4,1,1,70,0,1
241225,-90.9090909090909,4,1,1,70,0,1
244745,-86.9565217391304,4,1,1,70,0,1
245225,-90.9090909090909,4,1,1,70,0,1
249065,-200,4,1,1,70,0,1
250505,-71.4285714285714,4,1,1,70,0,1
250825,-71.4285714285714,4,1,1,70,0,0
251465,-90.9090909090909,4,1,1,70,0,0
252425,-83.3333333333333,4,1,1,70,0,0
252905,-133.333333333333,4,1,1,70,0,0
253385,-66.6666666666667,4,1,1,70,0,0
253705,-80,4,1,1,70,0,0
255625,-100,4,1,1,70,0,0
255945,-71.4285714285714,4,1,1,70,0,0
256265,-71.4285714285714,4,1,1,70,0,0
256585,-90.9090909090909,4,1,1,70,0,0
257545,-71.4285714285714,4,1,1,70,0,0
258025,-133.333333333333,4,1,1,70,0,0
258505,-66.6666666666667,4,1,1,70,0,0
258985,-100,4,1,1,70,0,0
259945,-90.9090909090909,4,1,1,70,0,0
260265,-111.111111111111,4,1,1,70,0,0
260745,-133.333333333333,4,1,1,60,0,0
261705,-111.111111111111,4,1,1,50,0,0
263145,-125,4,1,1,50,0,0
263625,-99.9999999999999,4,1,1,50,0,0
263945,-99.9999999999999,4,1,1,60,0,0
266505,-80,4,1,1,60,0,0
267785,-111.111111111111,4,1,1,60,0,0
269065,-71.4285714285714,4,1,1,60,0,1
269225,-71.4285714285714,4,1,1,60,0,0
269545,-71.4285714285714,4,1,1,60,0,1
269705,-71.4285714285714,4,1,1,60,0,0
270025,-71.4285714285714,4,1,1,60,0,1
270185,-416.666666666667,4,1,1,60,0,0
270825,-416.666666666667,4,1,1,50,0,0
271145,-416.666666666667,4,1,1,40,0,0
271465,-416.666666666667,4,1,1,35,0,0

[Colours]
Combo1 : 170,130,236
Combo2 : 241,101,101
Combo3 : 238,153,236

[HitObjects]
72,224,1545,6,0,P|111:217|156:206,1,80.9999975280763,4|0,3:2|2:0,0:0:0:0:
228,240,1865,2,0,B|287:248|287:248|319:275|319:275|385:289,1,161.999995056153,2|0,0:2|0:0,0:0:0:0:
198,143,2345,2,0,L|175:320,1,161.999995056153,2|0,0:0|0:0,0:0:0:0:
359,195,2825,6,0,P|358:155|340:120,1,80.9999975280763,2|0,0:0|0:0,0:0:0:0:
302,278,3145,1,2,0:0:0:0:
404,66,3305,2,0,B|314:53|341:100|246:88,1,161.999995056153,2|2,0:0|0:0,0:0:0:0:
41,143,3785,2,0,P|76:162|115:170,1,80.9999975280763,2|0,0:0|0:0,0:0:0:0:
305,378,4105,6,2,L|291:288,1,90,6|0,3:1|2:0,0:0:0:0:
291,289,4425,2,0,L|245:282,1,45,0|0,0:0|2:0,0:0:0:0:
128,258,4585,6,2,L|142:168,1,90,2|0,0:2|2:0,0:0:0:0:
141,170,4905,2,0,L|187:163,1,45,0|0,0:0|2:0,0:0:0:0:
321,139,5065,6,2,L|307:49,1,90,2|0,0:0|2:0,0:0:0:0:
307,50,5385,2,0,L|261:43,1,45,0|0,0:0|2:0,0:0:0:0:
72,44,5545,6,2,P|63:123|148:169,1,180,2|0,0:0|0:0,0:0:0:0:
219,143,6025,1,2,0:2:0:0:
329,183,6185,5,10,0:2:0:0:
153,91,6345,1,10,0:2:0:0:
410,20,6505,1,10,0:2:0:0:
299,85,6665,6,2,B|285:151|285:151|247:182|247:182|232:257,1,188.999994232178,6|0,3:1|2:0,0:0:0:0:
229,273,6985,1,10,0:1:0:0:
429,319,7145,2,2,P|412:229|321:230,1,198.000006042481,0|2,0:0|3:1,0:0:0:0:
214,353,7625,1,8,0:0:0:0:
81,206,7785,1,0,0:0:0:0:
6,351,7945,6,2,B|71:375|117:328|117:328|101:287,1,161.999995056153,2|0,3:1|2:0,0:0:0:0:
133,190,8265,2,0,L|76:208,1,53.9999983520508,2|0,0:0|2:0,0:0:0:0:
82,207,8425,2,2,B|129:213|129:213|163:234|163:234|227:245,1,135.000005149842,0|0,0:0|3:1,0:0:0:0:
311,219,8905,6,0,B|318:251|318:251|308:284,1,67.5000025749208,10|0,0:0|2:0,0:0:0:0:
294,100,9065,2,0,B|287:68|287:68|296:34,1,67.5000025749208,2|0,0:0|2:0,0:0:0:0:
372,67,9225,6,2,L|203:81,1,168.75,2|0,3:1|2:0,0:0:0:0:
183,84,9545,1,10,0:2:0:0:
9,172,9705,2,2,P|102:173|135:260,1,198.000006042481,2|0,0:0|3:1,0:0:0:0:
372,249,10185,2,2,P|306:259|293:325,1,144,8|2,0:0|3:1,0:0:0:0:
377,333,10665,1,0,0:0:0:0:
281,228,10825,6,2,L|261:135,1,90,10|0,0:0|0:0,0:0:0:0:
271,95,11145,2,0,L|262:139,1,45,2|0,0:2|2:0,0:0:0:0:
189,182,11305,2,0,L|180:226,1,45,0|0,3:1|2:0,0:0:0:0:
166,80,11465,6,0,L|146:12,1,67.5000025749208,10|0,0:0|2:0,0:0:0:0:
356,161,11625,2,0,L|375:225,1,67.5000025749208,2|0,0:0|2:0,0:0:0:0:
441,275,11785,6,2,B|395:266|395:266|336:307|336:307|286:298,1,168.75,2|0,3:1|2:0,0:0:0:0:
265,294,12105,1,10,0:2:0:0:
74,152,12265,2,2,P|162:137|180:225,1,198.000006042481,2|0,0:0|3:1,0:0:0:0:
396,60,12745,2,2,B|311:37|311:37|327:91,1,144,8|2,0:0|3:1,0:0:0:0:
355,267,13225,1,0,0:0:0:0:
462,199,13385,5,10,0:0:0:0:
399,140,13545,2,2,B|296:115|324:175|219:153,1,180,0|0,0:0|3:1,0:0:0:0:
23,268,14025,5,10,0:0:0:0:
178,81,14185,1,2,0:2:0:0:
61,153,14345,6,0,P|69:170|77:196,1,40.4999987640381,6|0,3:1|2:0,0:0:0:0:
75,190,14505,6,0,P|90:162|96:132,1,62.9999980773926,2|0,0:0|2:0,0:0:0:0:
19,76,14665,6,2,P|17:135|128:156,1,180,2|0,0:0|0:0,0:0:0:0:
169,235,15145,2,2,P|237:228|279:282,1,144,0|0,0:0|0:0,0:0:0:0:
261,368,15625,1,0,3:0:0:0:
464,347,15785,6,0,P|457:323|452:298,1,49.5000015106202,2|0,3:2|2:0,0:0:0:0:
373,283,15945,2,0,P|379:259|384:234,1,49.5000015106202,2|0,3:2|2:0,0:0:0:0:
421,160,16105,2,0,P|414:136|409:111,1,49.5000015106202,2|0,3:2|2:0,0:0:0:0:
499,38,16265,6,0,P|490:71|485:110,1,56.25,2|0,3:2|2:0,0:0:0:0:
334,167,16425,2,0,P|325:133|320:95,1,56.25,2|0,3:2|2:0,0:0:0:0:
165,170,16585,2,0,P|156:203|151:242,1,56.25,2|0,3:2|2:0,0:0:0:0:
261,368,16745,1,0,3:1:0:0:
56,318,16905,6,0,P|89:312|121:302,1,67.5000025749208,0|2,3:0|0:2,0:0:0:0:
302,241,17225,2,0,P|268:235|236:225,1,67.5000025749208,0|2,3:0|0:2,0:0:0:0:
153,225,17545,2,0,B|158:294|176:280|178:357,1,135.000005149842,2|0,3:2|3:0,0:0:0:0:
392,219,18025,6,0,P|327:200|284:147,1,135.000005149842,2|0,0:2|0:0,0:0:0:0:
321,79,18505,1,2,3:2:0:0:
122,45,18665,2,0,L|135:118,1,67.5000025749208,2|0,0:2|3:0,0:0:0:0:
84,187,18985,1,2,0:2:0:0:
203,168,19145,1,0,3:0:0:0:
65,191,19305,1,2,0:2:0:0:
160,307,19465,6,0,P|156:273|150:238,1,67.5000025749208,0|2,3:0|0:2,0:0:0:0:
283,100,19785,2,0,P|286:133|293:169,1,67.5000025749208,2|0,3:2|0:0,0:0:0:0:
381,312,20105,1,2,3:2:0:0:
327,251,20265,1,0,0:0:0:0:
252,284,20425,1,2,3:2:0:0:
394,332,20585,6,0,P|434:295|440:197,1,135.000005149842,2|0,0:2|0:0,0:0:0:0:
406,81,21065,1,2,3:2:0:0:
344,134,21225,2,0,L|255:118,1,67.5000025749208,2|0,0:2|3:0,0:0:0:0:
216,55,21545,1,2,0:2:0:0:
198,163,21705,1,0,3:0:0:0:
219,39,21865,1,2,0:2:0:0:
5,103,22025,6,0,B|80:113|65:84|138:97,1,135.000005149842,2|0,3:2|3:0,0:0:0:0:
274,204,22505,1,2,0:2:0:0:
112,335,22665,2,0,P|136:290|240:265,1,135.000005149842,2|0,3:2|3:0,0:0:0:0:
312,126,23145,5,0,0:0:0:0:
392,110,23305,1,2,3:2:0:0:
433,182,23465,2,0,P|445:228|442:265,1,67.5000025749208,2|0,0:2|3:0,0:0:0:0:
340,353,23785,2,0,L|355:216,1,135.000005149842,2|0,0:2|0:0,0:0:0:0:
159,153,24265,5,2,3:2:0:0:
198,27,24425,2,0,L|218:119,1,67.5000025749208,2|0,0:2|3:0,0:0:0:0:
118,273,24745,5,2,0:2:0:0:
114,289,24905,1,2,3:2:0:0:
110,305,25065,1,2,0:2:0:0:
204,279,25225,5,2,3:1:0:0:
24,290,25385,1,0,0:0:0:0:
219,307,25545,5,2,3:1:0:0:
7,263,25705,1,0,0:0:0:0:
223,201,25865,1,0,3:0:0:0:
0,100,26025,6,0,P|23:95|47:86,1,49.5000015106202,2|0,3:1|2:0,0:0:0:0:
106,144,26185,2,0,P|129:148|153:157,1,49.5000015106202,2|0,3:1|2:0,0:0:0:0:
223,201,26345,2,0,P|246:196|270:187,1,49.5000015106202,2|0,3:1|2:0,0:0:0:0:
334,49,26505,6,0,P|320:74|313:100,1,56.25,2|0,3:1|2:0,0:0:0:0:
309,270,26665,2,0,P|337:268|363:261,1,56.25,2|0,3:1|2:0,0:0:0:0:
496,177,26825,2,0,P|482:153|462:134,1,56.25,2|0,3:1|2:0,0:0:0:0:
375,168,26985,1,4,3:2:0:0:
271,359,27145,6,0,B|193:352|224:324|141:325,1,135,4|0,3:1|2:0,0:0:0:0:
122,336,27465,2,2,P|115:283|105:247,1,90,10|0,0:0|0:0,0:0:0:0:
152,19,27785,1,0,0:0:0:0:
224,95,27945,1,0,3:0:0:0:
181,193,28105,1,8,0:0:0:0:
123,115,28265,6,2,P|175:106|293:191,1,180,2|0,0:0|0:0,0:0:0:0:
311,299,28745,1,8,0:0:0:0:
482,192,28905,2,2,P|437:196|398:217,1,90,2|0,0:0|0:0,0:0:0:0:
306,319,29225,1,0,3:0:0:0:
477,324,29385,6,0,L|460:271,1,49.5000015106202,10|0,0:0|2:0,0:0:0:0:
407,115,29545,1,2,0:0:0:0:
204,221,29705,6,0,L|292:207,1,90,2|0,3:2|0:0,0:0:0:0:
376,194,30025,1,10,0:0:0:0:
252,129,30185,1,2,0:2:0:0:
270,293,30345,5,0,0:0:0:0:
413,97,30505,1,2,3:2:0:0:
235,117,30665,1,10,0:2:0:0:
445,265,30825,6,2,P|402:216|278:214,1,180,2|0,0:0|0:0,0:0:0:0:
177,245,31305,1,8,0:0:0:0:
11,166,31465,2,2,P|55:160|98:148,1,90,2|0,0:0|0:0,0:0:0:0:
98,148,31785,1,0,3:0:0:0:
222,84,31945,6,0,L|209:140,1,49.5000015106202,10|0,0:0|2:0,0:0:0:0:
172,263,32105,1,2,0:0:0:0:
156,18,32265,6,2,B|216:34|216:34|245:76|245:76|308:97,1,180,2|8,3:1|0:0,0:0:0:0:
374,250,32745,1,0,0:0:0:0:
501,161,32905,2,2,L|412:178,1,90,2|0,0:0|3:0,0:0:0:0:
179,312,33225,1,8,0:0:0:0:
305,194,33385,1,2,0:2:0:0:
410,325,33545,5,2,3:2:0:0:
222,232,33705,2,2,P|197:180|190:128,1,90,2|8,0:0|0:0,0:0:0:0:
477,267,34025,2,2,B|372:258|406:309|305:311,1,180,0|0,0:0|3:0,0:0:0:0:
307,311,34505,2,2,P|348:320|392:337,1,90,10|0,0:0|0:0,0:0:0:0:
100,353,34825,5,4,3:2:0:0:
100,353,36105,5,0,3:2:0:0:
167,225,36265,1,0,3:2:0:0:
84,167,36425,1,0,3:2:0:0:
62,75,36585,1,0,3:2:0:0:
62,75,36905,5,0,3:0:0:0:
236,163,37065,1,8,3:2:0:0:
81,264,37225,1,8,3:2:0:0:
213,76,37385,6,0,P|286:67|364:147,1,175.499991966248,2|0,0:0|3:0,0:0:0:0:
333,215,38025,2,0,B|316:259|316:259|329:311,1,99.0000030212403,8|0,0:0|0:0,0:0:0:0:
328,309,38505,1,2,3:2:0:0:
407,264,38665,2,0,L|215:250,1,175.499991966248,2|0,0:0|0:0,0:0:0:0:
151,182,39305,1,8,0:0:0:0:
39,217,39465,2,0,P|88:212|135:195,1,99.0000030212403,0|2,3:0|0:0,0:0:0:0:
254,33,39945,6,0,P|255:84|240:146,1,107.999996704102,2|0,3:2|0:0,0:0:0:0:
242,139,40425,1,0,3:0:0:0:
289,335,40585,2,0,P|288:276|305:216,1,116.999994644165,8|2,0:0|0:0,0:0:0:0:
512,184,41065,2,0,P|467:255|378:254,1,175.499991966248,2|2,3:2|0:0,0:0:0:0:
375,173,41705,1,2,0:0:0:0:
210,233,41865,1,8,0:0:0:0:
392,165,42025,1,0,3:0:0:0:
249,69,42185,2,2,B|262:111|262:111|253:156,1,90,2|0,0:0|0:0,0:0:0:0:
172,338,42505,5,0,3:0:0:0:
299,228,42665,1,2,0:2:0:0:
384,366,42825,5,8,0:0:0:0:
221,251,42985,1,2,0:2:0:0:
157,355,43145,5,0,3:0:0:0:
321,218,43305,2,2,P|366:207|428:188,1,90,2|8,0:0|0:0,0:0:0:0:
271,333,43625,1,2,0:2:0:0:
102,218,43785,6,2,P|40:155|50:69,1,180,2|8,3:1|0:0,0:0:0:0:
204,107,44265,2,2,P|244:125|288:137,1,90,2|0,0:0|3:0,0:0:0:0:
357,87,44585,1,0,0:0:0:0:
165,284,44745,2,0,P|140:298|114:307,1,56.25,10|0,0:2|2:0,0:0:0:0:
34,332,44905,6,2,B|131:322|99:367|197:362,1,168.75,6|0,3:2|2:0,0:0:0:0:
219,357,45225,1,2,3:2:0:0:
505,303,45385,6,0,L|491:255,1,49.5000015106202,2|0,3:1|2:0,0:0:0:0:
410,283,45545,2,0,L|396:235,1,49.5000015106202,2|0,3:1|2:0,0:0:0:0:
315,263,45705,2,0,L|301:215,1,49.5000015106202,2|0,3:1|2:0,0:0:0:0:
496,44,45865,1,2,3:2:0:0:
362,81,46025,6,0,L|349:143,1,56.25,2|0,3:1|2:0,0:0:0:0:
228,111,46185,2,0,L|215:173,1,56.25,2|0,3:1|2:0,0:0:0:0:
120,220,46345,5,6,3:1:0:0:
278,30,46505,1,2,0:2:0:0:
303,346,46665,1,10,0:0:0:0:
0,171,46825,6,2,P|56:111|140:120,1,168.75,4|0,3:2|2:0,0:0:0:0:
265,235,47145,2,0,P|229:247|200:252,1,67.5000025749208,10|0,3:2|2:0,0:0:0:0:
391,313,47305,2,0,P|426:325|455:330,1,67.5000025749208,10|0,3:2|2:0,0:0:0:0:
512,236,47465,1,4,3:2:0:0:
512,236,47785,5,0,0:0:0:0:
492,231,47945,1,0,0:0:0:0:
372,141,48105,5,2,0:2:0:0:
352,146,48265,1,2,0:2:0:0:
260,273,48425,5,2,0:2:0:0:
240,268,48585,1,2,0:2:0:0:
220,263,48745,1,2,0:2:0:0:
76,109,48905,6,2,B|133:121|133:121|165:154|165:154|253:176,1,168.75,6|0,3:1|2:0,0:0:0:0:
249,174,49225,1,8,0:0:0:0:
111,321,49385,2,0,L|132:234,1,90,2|0,0:0|3:1,0:0:0:0:
212,77,49705,1,2,0:2:0:0:
46,207,49865,1,10,0:0:0:0:
224,64,50025,1,2,0:2:0:0:
0,67,50185,6,2,P|32:96|76:109,1,90,2|0,3:1|0:0,0:0:0:0:
306,105,50505,1,8,0:0:0:0:
231,349,50665,5,2,0:0:0:0:
228,333,50745,1,2,0:2:0:0:
225,317,50825,2,0,L|214:258,1,56.25,0|2,3:0|2:2,0:0:0:0:
150,191,50985,1,2,0:2:0:0:
305,283,51145,1,10,0:0:0:0:
107,375,51305,1,2,0:2:0:0:
325,280,51465,6,2,L|494:261,1,148.50000453186,2|0,3:1|2:0,0:0:0:0:
495,260,51785,1,8,0:0:0:0:
150,191,51945,2,2,P|107:185|57:154,1,99.0000030212403,2|0,0:0|3:1,0:0:0:0:
174,276,52265,1,2,0:2:0:0:
273,163,52425,1,10,0:0:0:0:
157,294,52585,1,2,0:2:0:0:
206,102,52745,5,0,3:1:0:0:
366,191,52905,2,0,L|471:180,1,90,2|8,0:2|0:0,0:0:0:0:
249,342,53225,5,2,0:2:0:0:
251,325,53305,1,2,0:2:0:0:
253,309,53385,2,0,L|262:242,1,56.25,0|2,3:0|2:2,0:0:0:0:
287,79,53545,1,0,0:0:0:0:
153,248,53705,1,8,0:0:0:0:
347,300,53865,6,2,P|385:322|429:333,1,90,2|0,0:0|3:0,0:0:0:0:
216,153,54185,1,2,0:2:0:0:
368,198,54345,2,2,P|455:188|509:115,1,168.75,10|0,0:0|2:0,0:0:0:0:
505,130,54665,2,0,P|491:107|478:81,1,56.25,0|0,3:0|2:0,0:0:0:0:
319,121,54825,1,2,0:2:0:0:
494,266,54985,1,8,0:2:0:0:
280,240,55145,5,2,0:0:0:0:
261,238,55225,1,0,0:0:0:0:
241,236,55305,2,0,L|143:226,1,99.0000030212403,0|0,3:0|0:0,0:0:0:0:
49,217,55625,1,10,0:2:0:0:
188,318,55785,1,2,0:0:0:0:
28,214,55945,5,0,3:0:0:0:
203,134,56105,1,2,0:2:0:0:
77,66,56265,5,10,0:2:0:0:
193,340,56425,1,2,0:0:0:0:
422,64,56585,6,2,P|375:60|328:83,1,99.0000030212403,2|0,3:1|0:0,0:0:0:0:
288,288,56905,1,8,0:0:0:0:
55,221,57065,1,2,0:0:0:0:
71,218,57145,1,2,0:2:0:0:
87,215,57225,2,0,L|150:202,1,56.25,0|2,3:0|2:2,0:0:0:0:
293,309,57385,1,0,0:0:0:0:
411,164,57545,6,2,B|346:146|346:146|318:115|318:115|222:91,1,180,10|0,0:0|3:0,0:0:0:0:
198,282,58025,2,2,P|183:331|160:377,1,99.0000030212403,2|8,0:0|0:0,0:0:0:0:
377,262,58345,1,0,0:0:0:0:
12,233,58505,2,2,P|64:177|175:188,1,168.75,2|0,3:1|2:0,0:0:0:0:
293,280,58825,6,0,L|382:263,1,67.5000025749208,12|0,0:2|2:0,0:0:0:0:
508,139,58985,2,0,L|419:123,1,67.5000025749208,12|0,0:2|2:0,0:0:0:0:
390,45,59145,5,4,3:1:0:0:
311,156,59305,1,2,0:2:0:0:
400,29,59465,1,8,0:0:0:0:
293,48,59625,5,2,0:2:0:0:
293,48,59705,1,2,0:2:0:0:
293,48,59785,1,2,3:1:0:0:
420,137,59945,1,2,0:2:0:0:
240,214,60105,1,8,0:0:0:0:
371,321,60265,2,2,P|367:273|359:230,1,90,2|0,0:0|3:0,0:0:0:0:
94,73,60585,5,2,0:2:0:0:
119,256,60745,1,8,0:0:0:0:
40,169,60905,1,0,0:0:0:0:
71,171,60985,1,2,0:2:0:0:
102,164,61065,1,2,3:1:0:0:
132,158,61145,1,2,0:2:0:0:
164,159,61225,1,0,0:0:0:0:
121,276,61385,5,8,0:0:0:0:
346,148,61545,2,2,P|299:138|247:120,1,99.0000030212403,2|0,0:0|3:0,0:0:0:0:
43,334,61865,5,2,0:2:0:0:
261,252,62025,1,8,0:0:0:0:
25,341,62185,1,2,0:2:0:0:
204,315,62345,5,2,3:1:0:0:
51,154,62505,1,2,0:2:0:0:
152,377,62665,1,10,0:2:0:0:
342,221,62825,2,2,P|384:227|429:259,1,90,2|0,0:0|3:0,0:0:0:0:
258,113,63145,5,2,0:2:0:0:
283,354,63305,1,8,0:0:0:0:
88,233,63465,1,2,0:2:0:0:
421,224,63625,5,2,3:1:0:0:
399,228,63705,1,2,0:2:0:0:
378,232,63785,2,0,L|323:243,1,56.25,0|2,0:0|2:2,0:0:0:0:
193,371,63945,1,8,0:0:0:0:
351,150,64105,1,2,0:2:0:0:
21,170,64265,6,2,B|122:175|87:215|184:229,1,168.75,2|0,3:1|2:0,0:0:0:0:
197,222,64585,1,8,0:0:0:0:
249,25,64745,1,2,0:0:0:0:
249,25,64825,1,2,0:2:0:0:
249,25,64905,2,0,L|269:161,1,99.0000030212403,0|0,3:0|0:0,0:0:0:0:
512,327,65225,6,2,P|458:251|310:253,1,225,10|0,0:0|3:0,0:0:0:0:
250,297,65705,1,2,0:2:0:0:
365,141,65865,1,8,0:0:0:0:
168,192,66025,5,2,0:2:0:0:
168,192,66105,1,2,0:2:0:0:
168,192,66185,1,0,3:0:0:0:
355,317,66345,1,0,0:0:0:0:
139,187,66505,2,2,L|37:167,1,99.0000030212403,10|0,0:0|0:0,0:0:0:0:
374,66,66825,5,2,3:1:0:0:
374,66,66985,2,0,L|364:137,1,56.25,2|0,0:2|2:0,0:0:0:0:
341,309,67145,2,0,L|331:238,1,56.25,10|0,0:2|2:0,0:0:0:0:
276,49,67305,5,2,0:0:0:0:
276,49,67465,2,0,L|265:122,1,62.9999980773926,2|0,3:2|2:0,0:0:0:0:
250,319,67625,2,0,L|239:242,1,62.9999980773926,2|0,0:2|2:0,0:0:0:0:
175,30,67785,5,10,0:0:0:0:
175,30,67945,2,0,L|163:113,1,69.7500005321503,2|0,0:2|2:0,0:0:0:0:
153,329,68105,2,0,L|140:242,1,69.7500005321503,2|0,3:2|2:0,0:0:0:0:
82,5,68265,6,0,L|69:95,1,76.5000014591217,2|0,0:0|2:0,0:0:0:0:
252,332,68425,2,0,L|241:256,1,76.5000014591217,12|0,0:2|2:0,0:0:0:0:
377,45,68585,2,0,L|366:120,1,76.5000014591217,4|0,0:2|2:0,0:0:0:0:
423,264,68745,5,2,3:2:0:0:
94,165,68905,1,10,0:2:0:0:
449,252,69065,5,12,0:2:0:0:
68,177,69225,1,12,0:2:0:0:
449,105,69385,6,2,P|361:99|289:157,1,168.75,6|0,3:1|2:0,0:0:0:0:
292,163,69705,1,8,0:0:0:0:
35,266,69865,1,2,0:0:0:0:
35,266,69945,1,2,0:2:0:0:
35,266,70025,2,0,B|82:272|82:272|144:248,1,90,0|0,3:0|0:0,0:0:0:0:
237,346,70345,1,8,0:0:0:0:
194,144,70505,6,2,L|233:339,1,180,2|0,0:0|0:0,0:0:0:0:
134,357,70985,1,8,0:0:0:0:
299,197,71145,5,2,0:0:0:0:
315,195,71225,1,2,0:2:0:0:
331,193,71305,2,0,L|394:186,1,56.25,0|2,3:0|2:2,0:0:0:0:
477,178,71465,1,0,0:2:0:0:
340,284,71625,1,10,0:0:0:0:
384,70,71785,1,2,0:2:0:0:
406,360,71945,6,2,B|347:345|347:345|313:311|313:311|247:297,1,168.75,2|0,3:1|2:0,0:0:0:0:
231,294,72265,1,8,0:0:0:0:
33,144,72425,2,2,L|139:120,1,99.0000030212403,2|0,0:0|3:0,0:0:0:0:
185,48,72745,1,2,0:2:0:0:
76,8,72905,1,10,0:0:0:0:
223,133,73065,1,2,0:2:0:0:
59,248,73225,5,0,3:0:0:0:
241,122,73385,2,0,P|292:127|343:167,1,90,2|8,0:2|0:0,0:0:0:0:
134,332,73705,5,2,0:2:0:0:
136,314,73785,1,2,0:2:0:0:
138,296,73865,1,0,3:0:0:0:
95,104,74025,1,2,0:2:0:0:
260,210,74185,1,8,0:0:0:0:
99,215,74345,6,2,L|10:229,1,90,2|0,0:0|3:0,0:0:0:0:
232,301,74665,1,2,0:2:0:0:
101,125,74825,1,8,0:0:0:0:
322,279,74985,2,0,L|378:294,2,45,2|2|0,0:0|0:2|3:0,0:0:0:0:
181,87,75305,5,2,0:2:0:0:
152,333,75465,1,8,0:0:0:0:
366,202,75625,1,2,0:0:0:0:
366,202,75705,1,2,0:2:0:0:
366,202,75785,1,0,3:0:0:0:
274,168,75945,5,2,0:2:0:0:
382,286,76105,1,10,0:2:0:0:
426,132,76265,1,2,0:0:0:0:
292,259,76425,5,0,3:0:0:0:
439,120,76585,1,2,0:2:0:0:
284,78,76745,5,10,0:2:0:0:
458,319,76905,1,2,0:0:0:0:
161,342,77065,6,2,L|183:242,1,99.0000030212403,2|0,3:1|0:0,0:0:0:0:
372,58,77385,1,8,0:0:0:0:
292,259,77545,5,2,0:0:0:0:
288,242,77625,1,2,0:2:0:0:
285,225,77705,2,0,L|273:167,1,56.25,0|0,3:0|2:0,0:0:0:0:
176,19,77865,1,0,0:0:0:0:
36,177,78025,6,2,P|129:175|198:92,1,198.000006042481,10|0,0:0|3:0,0:0:0:0:
406,310,78505,2,2,P|347:302|292:268,1,107.999996704102,2|8,0:0|0:0,0:0:0:0:
278,67,78825,1,0,0:0:0:0:
428,45,78985,6,0,B|446:72|446:72|452:107,2,67.5000025749208,14|0|0,0:1|2:0|2:0,0:0:0:0:
266,152,79225,2,0,B|260:186|260:186|239:213,2,67.5000025749208,12|0|0,0:2|2:0|2:0,0:0:0:0:
122,36,79465,2,0,B|94:53|94:53|57:58,1,67.5000025749208,12|0,0:2|2:0,0:0:0:0:
2,162,79625,6,0,L|123:145,1,101.250003862381,4|0,3:1|2:0,0:0:0:0:
121,139,79945,2,0,P|105:181|105:225,1,90,12|0,0:2|0:0,0:0:0:0:
266,152,80265,1,0,3:0:0:0:
324,348,80425,2,0,P|323:303|308:261,1,90,2|8,0:2|0:0,0:0:0:0:
171,278,80745,1,2,0:2:0:0:
512,223,80905,6,2,P|444:227|357:159,1,168.75,2|0,3:1|2:0,0:0:0:0:
360,152,81225,1,8,0:0:0:0:
229,46,81385,2,2,B|245:94|245:94|237:155,1,99.0000030212403,2|0,0:0|3:0,0:0:0:0:
237,325,81705,1,0,0:0:0:0:
37,244,81865,6,0,L|114:226,1,56.25,8|0,0:0|2:0,0:0:0:0:
313,320,82025,2,0,L|258:332,1,56.25,12|0,0:2|2:0,0:0:0:0:
27,335,82185,6,0,L|125:312,1,101.250003862381,4|0,3:1|2:0,0:0:0:0:
144,308,82505,1,12,0:2:0:0:
414,143,82825,5,0,3:0:0:0:
404,296,82985,2,0,P|378:259|365:216,1,90,2|8,0:2|0:0,0:0:0:0:
289,33,83305,1,2,0:2:0:0:
426,57,83465,6,2,B|366:72|366:72|334:108|334:108|262:128,1,168.75,2|0,3:1|2:0,0:0:0:0:
278,124,83785,2,0,L|267:183,1,56.25,8|0,0:0|2:0,0:0:0:0:
53,196,83945,6,2,L|160:226,1,99.0000030212403,2|0,0:0|3:0,0:0:0:0:
148,222,84265,2,0,L|158:277,1,56.25,0|0,0:0|2:0,0:0:0:0:
173,364,84425,5,8,0:2:0:0:
341,223,84585,1,2,0:2:0:0:
295,383,84745,6,2,L|277:286,1,99.0000030212403,2|0,3:1|0:0,0:0:0:0:
403,160,85065,1,8,0:0:0:0:
130,40,85225,2,2,P|130:128|186:195,1,180,2|0,0:0|0:0,0:0:0:0:
375,318,85705,6,2,B|276:299|304:355|200:340,1,180,10|0,0:0|3:0,0:0:0:0:
271,154,86185,1,2,0:2:0:0:
5,273,86345,2,0,P|44:251|90:244,1,90,8|0,0:0|0:0,0:0:0:0:
286,350,86665,5,2,3:1:0:0:
122,169,86825,1,0,0:0:0:0:
299,364,86985,1,12,0:2:0:0:
360,99,87305,5,14,0:0:0:0:
170,236,87465,1,2,3:2:0:0:
418,349,87625,1,8,0:0:0:0:
280,175,87785,6,2,L|216:164,1,45,4|0,3:2|0:0,0:0:0:0:
170,236,88105,1,0,3:0:0:0:
74,71,88265,5,14,0:1:0:0:
258,258,88425,1,2,3:2:0:0:
5,354,88585,1,8,0:0:0:0:
235,167,88745,6,2,L|299:156,1,45,4|0,3:2|0:0,0:0:0:0:
367,219,89065,1,0,3:0:0:0:
263,80,89225,6,2,B|251:128|251:128|265:167|265:167|246:204|246:204|258:231|258:231|258:271,1,188.999994232178,2|0,0:0|2:0,0:0:0:0:
302,322,89545,2,2,P|235:262|277:341,1,251.999992309571,0|0,3:0|0:0,0:0:0:0:
476,120,94345,5,0,0:0:0:0:
476,120,94985,6,2,P|439:114|402:104,1,67.5000025749208,0|0,3:0|0:0,0:0:0:0:
339,148,95305,2,0,P|302:153|264:164,1,67.5000025749208,0|0,3:0|0:0,0:0:0:0:
208,112,95625,1,0,3:0:0:0:
254,241,95785,1,0,0:0:0:0:
59,158,95945,6,2,B|111:165|111:165|143:185|143:185|190:191,1,135.000005149842,2|0,3:1|3:0,0:0:0:0:
351,161,96425,1,0,0:0:0:0:
240,258,96585,1,0,3:0:0:0:
349,242,96745,2,2,L|412:267,2,67.5000025749208,0|0|0,0:0|3:0|0:0,0:0:0:0:
268,177,97225,5,2,3:1:0:0:
329,353,97385,1,2,0:2:0:0:
138,367,97545,6,2,P|143:334|148:297,1,67.5000025749208,0|0,3:0|0:0,0:0:0:0:
190,230,97865,2,0,P|184:197|180:160,1,67.5000025749208,0|0,3:0|0:0,0:0:0:0:
99,214,98185,1,0,3:0:0:0:
239,98,98345,1,0,0:0:0:0:
131,4,98505,6,2,P|96:60|102:126,1,135.000005149842,2|0,3:1|3:0,0:0:0:0:
191,271,98985,1,0,0:0:0:0:
268,177,99145,1,0,3:0:0:0:
277,299,99305,2,2,L|294:377,2,67.5000025749208,0|0|0,0:0|3:0|0:0,0:0:0:0:
345,226,99785,5,2,3:1:0:0:
174,259,99945,1,2,0:2:0:0:
471,344,100105,6,2,P|476:277|442:221,1,135.000005149842,2|0,3:1|3:0,0:0:0:0:
442,221,100585,1,0,0:0:0:0:
490,53,100745,2,0,P|460:94|403:118,1,101.250003862381,0|0,3:0|2:0,0:0:0:0:
394,113,101065,1,2,3:2:0:0:
331,234,101225,1,2,0:0:0:0:
425,211,101385,5,0,3:0:0:0:
297,143,101545,2,0,L|213:127,1,67.5000025749208,2|0,0:2|3:0,0:0:0:0:
233,216,101865,2,2,L|83:240,1,135.000005149842,0|0,0:0|0:0,0:0:0:0:
193,304,102345,1,0,3:0:0:0:
13,361,102505,1,2,0:2:0:0:
104,154,102665,5,0,3:0:0:0:
13,361,102825,2,2,B|34:309|34:309|13:223,1,144,0|2,0:0|0:2,0:0:0:0:
116,83,103305,2,2,P|110:120|101:169,1,72,0|2,3:0|0:2,0:0:0:0:
188,322,103625,2,2,P|177:282|166:247,1,72,0|2,3:0|0:2,0:0:0:0:
345,38,103945,1,0,3:0:0:0:
474,144,104105,6,0,L|426:133,1,49.5000015106202,2|0,3:1|2:0,0:0:0:0:
317,202,104265,2,0,L|350:165,1,49.5000015106202,2|0,3:1|2:0,0:0:0:0:
345,38,104425,2,0,L|359:85,1,49.5000015106202,2|0,3:1|2:0,0:0:0:0:
471,241,104585,6,0,P|445:228|419:218,1,56.25,2|0,3:1|2:0,0:0:0:0:
276,115,104745,2,0,P|250:127|224:137,1,56.25,2|0,3:1|2:0,0:0:0:0:
135,234,104905,2,0,P|109:221|83:211,1,56.25,2|0,3:1|2:0,0:0:0:0:
43,133,105065,1,4,3:2:0:0:
105,313,105225,6,0,P|157:264|243:261,1,135,4|0,3:1|2:0,0:0:0:0:
237,260,105545,2,2,P|242:305|255:348,1,90,10|0,0:0|0:0,0:0:0:0:
406,212,105865,1,0,0:0:0:0:
375,380,106025,1,0,3:0:0:0:
408,194,106185,1,8,0:0:0:0:
498,336,106345,6,2,B|439:324|439:324|404:295|404:295|319:280,1,180,2|0,0:0|0:0,0:0:0:0:
224,231,106825,1,8,0:0:0:0:
301,59,106985,2,2,B|317:99|317:99|311:146,1,90,2|0,0:0|0:0,0:0:0:0:
209,245,107305,1,0,3:0:0:0:
455,207,107465,6,0,L|406:193,1,49.5000015106202,10|0,0:0|2:0,0:0:0:0:
230,115,107625,1,2,0:0:0:0:
105,274,107785,6,0,L|210:256,1,90,2|0,3:2|0:0,0:0:0:0:
283,289,108105,1,10,0:0:0:0:
159,167,108265,1,2,0:2:0:0:
297,301,108425,5,0,0:0:0:0:
126,352,108585,1,2,3:2:0:0:
270,203,108745,1,10,0:2:0:0:
403,382,108905,6,2,P|443:342|438:209,1,180,2|0,0:0|0:0,0:0:0:0:
285,115,109385,1,8,0:0:0:0:
116,56,109545,2,2,P|130:98|136:143,1,90,2|0,0:0|0:0,0:0:0:0:
136,143,109865,1,0,3:0:0:0:
258,278,110025,6,0,L|268:220,1,49.5000015106202,10|0,0:0|2:0,0:0:0:0:
288,98,110185,1,2,0:0:0:0:
351,251,110345,6,2,B|247:232|277:280|174:265,1,180,2|8,3:1|0:0,0:0:0:0:
225,353,110825,1,0,0:0:0:0:
353,159,110985,2,2,P|384:118|401:64,1,90,2|0,0:0|3:0,0:0:0:0:
155,43,111305,1,8,0:0:0:0:
223,157,111465,1,2,0:2:0:0:
245,3,111625,5,2,3:2:0:0:
49,143,111785,2,2,L|143:127,1,90,2|8,0:0|0:0,0:0:0:0:
383,318,112105,2,2,P|295:308|235:244,1,180,0|0,0:0|3:0,0:0:0:0:
235,244,112585,2,2,P|253:203|263:159,1,90,10|0,0:0|0:0,0:0:0:0:
55,28,112905,5,4,3:2:0:0:
55,28,114185,5,0,3:2:0:0:
149,46,114345,1,0,3:2:0:0:
220,141,114505,1,0,3:2:0:0:
315,124,114665,1,0,3:2:0:0:
315,124,114985,5,0,3:0:0:0:
181,258,115145,1,8,3:2:0:0:
287,42,115305,1,8,3:2:0:0:
438,286,115465,6,0,P|372:285|291:204,1,175.499991966248,2|0,0:0|3:0,0:0:0:0:
168,142,116105,2,0,P|187:183|188:243,1,99.0000030212403,8|0,0:0|0:0,0:0:0:0:
190,237,116585,1,2,3:2:0:0:
84,371,116745,2,0,B|149:361|149:361|188:333|188:333|249:325,1,175.499991966248,2|0,0:0|0:0,0:0:0:0:
317,209,117385,1,8,0:0:0:0:
436,185,117545,2,0,L|338:202,1,99.0000030212403,0|0,3:0|0:0,0:0:0:0:
203,112,118025,1,2,3:2:0:0:
91,73,118185,6,0,P|144:71|190:97,1,107.999996704102,2|0,0:0|3:0,0:0:0:0:
317,209,118665,1,8,0:0:0:0:
211,380,118825,2,0,P|184:329|182:269,1,116.999994644165,2|2,0:0|3:2,0:0:0:0:
71,270,119305,2,0,P|156:261|211:196,1,175.499991966248,2|2,0:0|0:0,0:0:0:0:
189,117,119945,1,8,0:0:0:0:
379,219,120105,1,2,3:2:0:0:
358,54,120265,2,2,B|346:95|346:95|356:141,1,90,2|0,0:0|0:0,0:0:0:0:
485,320,120585,5,0,3:0:0:0:
296,240,120745,1,2,0:2:0:0:
439,159,120905,1,8,0:0:0:0:
276,247,121065,1,2,0:2:0:0:
460,311,121225,5,0,3:0:0:0:
344,160,121385,2,2,P|297:150|249:138,1,90,2|8,0:0|0:0,0:0:0:0:
201,70,121705,1,2,0:2:0:0:
92,289,121865,6,2,P|136:279|193:261,1,90,2|0,3:1|0:0,0:0:0:0:
121,194,122185,1,8,0:0:0:0:
383,344,122345,2,2,P|300:312|259:234,1,180,2|0,0:0|0:0,0:0:0:0:
354,24,122825,2,0,P|365:51|382:77,1,56.25,10|0,0:2|2:0,0:0:0:0:
465,84,122985,6,2,B|403:92|403:92|370:112|370:112|303:125,1,168.75,6|0,3:2|2:0,0:0:0:0:
284,129,123305,1,2,3:2:0:0:
12,97,123465,6,0,L|24:163,1,49.5000015106202,2|0,3:1|2:0,0:0:0:0:
100,117,123625,2,0,L|112:183,1,49.5000015106202,2|0,3:1|2:0,0:0:0:0:
188,137,123785,2,0,L|200:203,1,49.5000015106202,2|0,3:1|2:0,0:0:0:0:
1,338,123945,1,2,3:2:0:0:
128,302,124105,6,0,L|140:242,1,56.25,2|0,3:1|2:0,0:0:0:0:
266,267,124265,2,0,L|278:207,1,56.25,2|0,3:1|2:0,0:0:0:0:
404,180,124425,5,6,3:1:0:0:
212,346,124585,1,2,0:2:0:0:
298,42,124745,1,10,0:0:0:0:
510,321,124905,6,2,B|456:306|456:306|422:271|422:271|336:253,1,168.75,4|0,3:2|2:0,0:0:0:0:
299,62,125225,2,0,P|294:96|283:128,1,67.5000025749208,10|0,3:2|2:0,0:0:0:0:
139,246,125385,2,0,P|134:212|123:180,1,67.5000025749208,10|0,3:2|2:0,0:0:0:0:
19,37,125545,1,4,3:2:0:0:
19,37,125865,5,0,0:0:0:0:
26,56,126025,1,0,0:0:0:0:
146,154,126185,5,2,0:2:0:0:
153,135,126345,1,2,0:2:0:0:
279,205,126505,5,2,0:2:0:0:
286,224,126665,1,2,0:2:0:0:
293,243,126825,1,2,0:2:0:0:
428,301,126985,6,2,B|336:287|361:335|264:324,1,168.75,6|0,3:1|2:0,0:0:0:0:
242,315,127305,1,8,0:0:0:0:
414,117,127465,2,0,P|408:161|390:202,1,90,2|0,0:0|3:1,0:0:0:0:
233,188,127785,1,2,0:2:0:0:
355,358,127945,1,10,0:0:0:0:
223,170,128105,1,2,0:2:0:0:
131,321,128265,6,2,L|219:304,1,90,2|0,3:1|0:0,0:0:0:0:
512,271,128585,2,0,L|436:253,1,56.25,8|0,0:0|2:0,0:0:0:0:
322,137,128745,1,2,0:0:0:0:
322,137,128825,1,2,0:2:0:0:
322,137,128905,1,0,3:0:0:0:
450,90,129065,5,2,0:2:0:0:
312,281,129225,2,0,P|307:329|293:368,1,90,10|2,0:0|0:2,0:0:0:0:
35,146,129545,6,2,B|98:137|98:137|134:111|134:111|193:101,1,168.75,2|0,3:1|2:0,0:0:0:0:
214,97,129865,1,8,0:0:0:0:
406,312,130025,2,2,L|312:281,1,99.0000030212403,2|0,0:0|3:1,0:0:0:0:
225,259,130345,1,2,0:2:0:0:
381,207,130505,1,10,0:0:0:0:
325,374,130665,1,2,0:2:0:0:
388,187,130825,5,0,3:1:0:0:
144,217,130985,2,0,B|135:261|135:261|147:304,1,90,2|8,0:2|0:0,0:0:0:0:
321,351,131305,1,2,0:2:0:0:
318,334,131385,1,2,0:2:0:0:
315,317,131465,2,0,L|306:257,1,56.25,0|2,3:0|2:2,0:0:0:0:
277,131,131625,1,0,0:0:0:0:
221,360,131785,1,8,0:0:0:0:
485,299,131945,6,2,P|440:294|395:278,1,90,2|0,0:0|3:0,0:0:0:0:
236,212,132265,1,2,0:2:0:0:
316,51,132425,1,8,0:0:0:0:
82,148,132585,5,2,0:0:0:0:
82,148,132665,1,0,0:0:0:0:
82,148,132745,2,0,P|126:143|171:127,1,90,0|2,3:0|0:2,0:0:0:0:
373,131,133065,1,8,0:2:0:0:
400,375,133225,6,2,B|335:353|335:353|303:310|303:310|230:289,1,198.000006042481,2|0,0:0|0:0,0:0:0:0:
135,316,133705,1,10,0:2:0:0:
286,218,133865,1,2,0:0:0:0:
122,146,134025,5,0,3:0:0:0:
310,227,134185,1,2,0:2:0:0:
126,334,134345,5,10,0:2:0:0:
275,91,134505,1,2,0:0:0:0:
3,28,134665,6,2,P|9:76|35:118,1,99.0000030212403,2|0,3:1|0:0,0:0:0:0:
211,181,134985,1,8,0:0:0:0:
21,343,135145,5,2,0:0:0:0:
37,338,135225,1,2,0:2:0:0:
53,333,135305,2,0,L|111:314,1,56.25,0|0,3:0|2:2,0:0:0:0:
204,160,135465,1,0,0:0:0:0:
419,304,135625,6,2,B|319:310|353:255|247:265,1,180,10|0,0:0|3:0,0:0:0:0:
350,45,136105,2,2,B|363:92|363:92|348:141,1,99.0000030212403,2|8,0:0|0:0,0:0:0:0:
282,347,136425,1,0,0:0:0:0:
61,211,136585,2,2,P|144:211|203:152,1,168.75,2|0,3:1|2:0,0:0:0:0:
232,68,136905,6,0,P|198:61|166:50,1,67.5000025749208,12|0,0:2|2:0,0:0:0:0:
338,230,137065,2,0,P|371:223|403:212,1,67.5000025749208,12|0,0:2|2:0,0:0:0:0:
473,162,137225,5,4,3:1:0:0:
349,91,137385,1,2,0:2:0:0:
492,174,137545,1,8,0:0:0:0:
338,230,137705,5,2,0:2:0:0:
338,230,137785,1,2,0:2:0:0:
338,230,137865,1,2,3:1:0:0:
452,69,138025,1,2,0:2:0:0:
417,295,138185,1,8,0:0:0:0:
492,174,138345,2,2,P|448:166|405:153,1,90,2|0,0:0|3:0,0:0:0:0:
167,45,138665,5,2,0:2:0:0:
219,211,138825,1,8,0:0:0:0:
75,145,138985,1,0,0:0:0:0:
106,144,139065,1,2,0:2:0:0:
136,136,139145,1,2,3:1:0:0:
166,127,139225,1,2,0:2:0:0:
198,128,139305,1,0,0:0:0:0:
307,225,139465,5,8,0:0:0:0:
153,358,139625,2,2,B|136:310|136:310|146:263,1,99.0000030212403,2|0,0:0|3:0,0:0:0:0:
393,131,139945,5,2,0:2:0:0:
249,291,140105,1,8,0:0:0:0:
405,118,140265,1,2,0:2:0:0:
393,281,140425,5,2,3:1:0:0:
233,137,140585,1,2,0:2:0:0:
406,293,140745,1,10,0:2:0:0:
508,63,140905,6,2,P|469:40|424:36,1,90,2|0,0:0|3:0,0:0:0:0:
204,225,141225,1,2,0:2:0:0:
381,110,141385,1,8,0:0:0:0:
194,28,141545,5,2,0:2:0:0:
199,43,141625,1,2,0:2:0:0:
204,58,141705,2,0,L|219:111,1,56.25,2|0,3:1|2:0,0:0:0:0:
342,207,141865,1,0,0:0:0:0:
134,269,142025,5,8,0:0:0:0:
340,36,142185,1,2,0:2:0:0:
476,346,142345,6,2,B|417:331|417:331|385:304|385:304|320:290,1,168.75,2|0,3:1|2:0,0:0:0:0:
300,285,142665,1,8,0:0:0:0:
29,140,142825,2,0,P|73:119|124:117,1,99.0000030212403,2|0,0:0|3:0,0:0:0:0:
209,205,143145,1,0,0:0:0:0:
432,17,143305,6,2,P|417:124|325:182,1,225,10|0,0:0|3:0,0:0:0:0:
173,287,143785,1,2,0:2:0:0:
246,119,143945,1,8,0:0:0:0:
370,290,144105,5,2,0:2:0:0:
353,285,144185,1,2,0:2:0:0:
336,280,144265,2,0,L|278:263,1,56.25,0|2,3:0|2:2,0:0:0:0:
138,132,144425,1,0,0:0:0:0:
350,20,144585,2,2,P|356:69|366:117,1,99.0000030212403,10|0,0:0|0:0,0:0:0:0:
120,296,144905,5,2,3:1:0:0:
120,296,145065,2,0,L|112:232,1,56.25,2|0,0:2|2:0,0:0:0:0:
131,76,145225,2,0,L|137:131,1,56.25,10|0,0:2|2:0,0:0:0:0:
219,307,145385,5,2,0:0:0:0:
219,307,145545,2,0,L|209:237,1,62.9999980773926,2|0,3:2|2:0,0:0:0:0:
238,50,145705,2,0,L|245:112,1,62.9999980773926,2|0,0:2|2:0,0:0:0:0:
329,315,145865,5,10,0:0:0:0:
329,315,146025,2,0,L|317:237,1,69.7500005321503,2|0,0:2|2:0,0:0:0:0:
342,17,146185,2,0,L|350:87,1,69.7500005321503,2|0,3:2|2:0,0:0:0:0:
403,188,146345,5,2,0:0:0:0:
216,319,146505,2,0,B|206:280|206:280|210:238,1,76.5000014591217,12|0,0:2|2:0,0:0:0:0:
46,46,146665,2,0,B|36:85|36:85|40:127,1,76.5000014591217,4|0,0:2|2:0,0:0:0:0:
120,296,146825,5,2,3:2:0:0:
378,184,146985,1,10,0:2:0:0:
123,97,147145,5,12,0:2:0:0:
423,307,147305,1,12,0:2:0:0:
250,29,147465,5,6,3:1:0:0:
295,220,147625,1,2,0:2:0:0:
447,111,147785,1,8,0:0:0:0:
447,111,147865,1,2,0:2:0:0:
447,111,147945,2,2,P|398:101|348:86,1,99.0000030212403,2|0,0:0|3:0,0:0:0:0:
159,240,148265,1,2,0:2:0:0:
271,125,148425,1,8,0:0:0:0:
90,187,148585,6,2,L|281:217,1,180,2|0,0:0|0:0,0:0:0:0:
445,110,149065,1,8,0:0:0:0:
489,272,149225,1,2,0:0:0:0:
466,274,149305,1,2,0:2:0:0:
444,278,149385,1,0,3:0:0:0:
421,281,149465,1,2,1:2:0:0:
398,284,149545,2,0,P|387:240|369:195,1,90,2|10,0:2|0:0,0:0:0:0:
186,107,149865,1,2,0:2:0:0:
169,382,150025,6,2,P|250:369|299:300,1,168.75,2|0,3:1|2:0,0:0:0:0:
299,283,150345,1,8,0:0:0:0:
102,61,150505,2,2,B|92:108|92:108|107:156,1,99.0000030212403,2|0,0:0|3:0,0:0:0:0:
167,257,150825,1,2,0:2:0:0:
438,248,150985,6,2,B|376:236|376:236|337:205|337:205|267:193,1,180,10|0,0:0|3:0,0:0:0:0:
222,109,151465,1,2,0:2:0:0:
167,257,151625,1,8,0:0:0:0:
76,174,151785,5,2,0:2:0:0:
93,172,151865,1,2,0:2:0:0:
110,170,151945,1,0,3:0:0:0:
262,281,152105,1,2,0:2:0:0:
136,79,152265,1,8,0:0:0:0:
372,33,152425,6,2,P|366:77|347:125,1,90,2|0,0:0|3:0,0:0:0:0:
297,197,152745,1,2,0:2:0:0:
256,114,152905,1,8,0:0:0:0:
388,233,153065,1,2,0:0:0:0:
222,248,153225,5,2,3:2:0:0:
432,159,153385,1,2,0:2:0:0:
201,257,153545,1,8,0:0:0:0:
426,347,153705,2,0,L|472:364,2,45,2|2|0,0:0|0:2|3:0,0:0:0:0:
179,169,154025,5,2,0:2:0:0:
244,332,154185,1,10,0:2:0:0:
172,153,154345,1,2,0:0:0:0:
114,349,154505,5,0,3:0:0:0:
276,170,154665,1,2,0:2:0:0:
73,88,154825,5,10,0:2:0:0:
311,280,154985,1,2,0:0:0:0:
415,25,155145,6,2,B|319:13|348:61|251:48,1,168.75,2|0,3:1|2:0,0:0:0:0:
230,40,155465,1,8,0:0:0:0:
381,194,155625,2,2,P|392:242|413:286,1,99.0000030212403,2|0,0:0|3:0,0:0:0:0:
457,119,155945,1,0,0:0:0:0:
257,355,156105,6,2,P|251:279|136:200,1,198.000006042481,10|0,0:0|3:0,0:0:0:0:
5,107,156585,2,2,P|68:101|122:83,1,107.999996704102,2|8,0:0|0:0,0:0:0:0:
298,95,156905,1,0,0:0:0:0:
298,95,156985,1,0,0:0:0:0:
298,95,157065,6,0,B|308:58|308:58|304:29,2,67.5000025749208,14|0|0,0:1|2:0|2:0,0:0:0:0:
326,266,157305,2,0,B|353:293|353:293|379:304,2,67.5000025749208,12|0|0,0:2|2:0|2:0,0:0:0:0:
163,204,157545,2,0,B|126:213|126:213|103:230,1,67.5000025749208,12|0,0:2|2:0,0:0:0:0:
58,333,157705,6,0,L|168:315,1,101.250003862381,4|0,3:1|2:0,0:0:0:0:
173,302,158025,2,0,P|207:340|247:361,1,90,12|0,0:2|0:0,0:0:0:0:
326,266,158345,1,0,3:0:0:0:
298,95,158505,2,0,P|272:144|269:204,1,90,2|8,0:2|0:0,0:0:0:0:
350,353,158825,1,2,0:2:0:0:
486,304,158985,6,2,B|393:307|423:259|325:266,1,168.75,2|0,3:1|2:0,0:0:0:0:
303,273,159305,1,8,0:0:0:0:
83,214,159465,2,2,L|186:193,1,99.0000030212403,2|0,0:0|3:0,0:0:0:0:
355,167,159785,1,0,0:0:0:0:
413,40,159945,6,0,L|395:106,1,56.25,8|0,0:0|2:0,0:0:0:0:
256,140,160105,2,0,L|274:206,1,56.25,12|0,0:2|2:0,0:0:0:0:
446,287,160265,6,0,B|466:237|466:237|451:191,1,101.250003862381,4|0,3:1|2:0,0:0:0:0:
444,171,160585,1,12,0:2:0:0:
186,82,160905,5,0,3:0:0:0:
26,112,161065,2,0,P|67:128|111:140,1,90,2|8,0:2|0:0,0:0:0:0:
146,312,161385,1,2,0:2:0:0:
58,252,161545,6,2,B|153:221|153:221|224:255,1,168.75,2|0,3:1|2:0,0:0:0:0:
215,250,161865,2,0,L|207:183,1,56.25,8|0,0:0|2:0,0:0:0:0:
435,192,162025,6,2,L|328:157,1,99.0000030212403,2|0,0:0|3:0,0:0:0:0:
341,162,162345,2,0,L|349:95,1,56.25,0|0,0:0|2:0,0:0:0:0:
362,11,162505,5,8,0:2:0:0:
133,142,162665,1,2,0:2:0:0:
150,9,162825,6,2,P|203:49|221:185,1,198.000006042481,2|8,3:1|0:0,0:0:0:0:
325,367,163305,2,2,P|380:348|413:323,1,90,2|0,0:0|0:0,0:0:0:0:
445,182,163625,1,0,0:0:0:0:
313,204,163785,6,2,B|212:184|237:242|135:224,1,180,10|0,0:0|3:0,0:0:0:0:
74,287,164265,1,2,0:2:0:0:
52,104,164425,2,0,P|107:123|140:148,1,90,10|0,0:2|0:0,0:0:0:0:
253,376,164745,2,0,L|267:270,1,90,2|0,3:1|0:0,0:0:0:0:
498,161,165065,5,12,0:2:0:0:
358,201,165225,1,0,0:0:0:0:
462,309,165385,5,14,0:0:0:0:
405,82,165545,1,2,3:2:0:0:
467,327,165705,1,8,0:0:0:0:
358,201,165865,6,2,L|313:192,1,45,4|0,3:2|0:0,0:0:0:0:
218,182,166185,1,0,3:0:0:0:
95,322,166345,5,14,0:1:0:0:
122,52,166505,1,2,3:2:0:0:
92,342,166665,1,8,0:0:0:0:
218,182,166825,6,2,B|280:172|280:172|322:111|322:111|392:99,1,198.000006042481,4|0,3:2|3:0,0:0:0:0:
409,199,167305,6,2,L|349:189,1,45,2|0,3:1|2:0,0:0:0:0:
234,99,167465,2,0,L|174:109,1,45,2|0,3:2|2:0,0:0:0:0:
157,235,167625,2,0,L|97:225,1,45,2|0,3:1|2:0,0:0:0:0:
45,164,167785,2,0,L|-15:174,1,45,2|0,3:2|2:0,0:0:0:0:
0,171,167945,6,2,B|27:160|53:128|53:128|41:201|88:241,1,188.999994232178,0|0,3:1|2:0,0:0:0:0:
161,335,168265,2,2,P|193:300|177:248,1,99.0000030212403,10|0,0:0|0:0,0:0:0:0:
332,123,168585,1,0,0:0:0:0:
334,26,168745,2,2,P|302:61|318:113,1,99.0000030212403,2|8,3:1|0:0,0:0:0:0:
411,275,169065,1,0,0:0:0:0:
471,203,169225,6,2,B|396:184|396:184|363:212|317:211,1,161.999995056153,2|0,3:1|2:0,0:0:0:0:
223,127,169545,2,0,L|156:106,1,53.9999983520508,10|0,0:0|2:0,0:0:0:0:
172,111,169705,2,2,P|120:148|132:211,1,135.000005149842,0|0,0:0|3:0,0:0:0:0:
306,300,170185,6,0,P|294:258|270:257,1,67.5000025749208,10|0,0:0|2:0,0:0:0:0:
119,371,170345,2,0,P|162:366|167:343,1,67.5000025749208,2|0,0:0|2:0,0:0:0:0:
193,270,170505,1,0,3:0:0:0:
172,111,170665,6,2,L|74:81,1,90,2|8,0:0|0:0,0:0:0:0:
107,182,170985,1,0,0:0:0:0:
276,256,171145,2,2,B|336:243|336:243|371:211|371:211|453:194,1,180,2|8,0:0|0:0,0:0:0:0:
423,379,171625,6,2,B|398:334|398:334|418:282,1,99.0000030212403,2|0,0:0|3:0,0:0:0:0:
291,162,171945,1,0,0:0:0:0:
291,54,172105,2,2,B|316:99|316:99|296:151,1,99.0000030212403,10|0,0:0|0:0,0:0:0:0:
188,231,172425,6,0,L|144:220,1,45,2|0,0:2|2:0,0:0:0:0:
104,197,172585,2,0,L|60:207,1,45,0|0,3:0|2:0,0:0:0:0:
61,207,172745,6,0,B|47:176|47:176|66:130,1,67.5000025749208,10|0,0:0|2:0,0:0:0:0:
241,312,172905,2,0,B|255:343|255:343|236:389,1,67.5000025749208,2|0,0:0|2:0,0:0:0:0:
159,340,173065,6,2,B|233:329|233:329|281:349|281:349|342:342,1,188.999994232178,0|0,3:1|2:0,0:0:0:0:
343,342,173385,2,2,P|369:301|367:252,1,99.0000030212403,10|0,0:0|0:0,0:0:0:0:
208,129,173705,1,0,0:0:0:0:
131,162,173865,2,2,P|109:123|119:63,1,99.0000030212403,2|8,3:1|0:0,0:0:0:0:
264,20,174185,1,0,0:0:0:0:
405,180,174345,6,2,B|344:168|344:168|312:197|312:197|243:208,1,161.999995056153,2|0,3:1|2:0,0:0:0:0:
67,271,174665,2,0,L|131:284,1,53.9999983520508,10|0,0:0|2:0,0:0:0:0:
120,282,174825,2,2,B|152:243|152:243|130:160,1,135.000005149842,0|0,0:0|3:0,0:0:0:0:
251,43,175305,6,0,P|248:78|238:113,1,67.5000025749208,10|0,0:0|2:0,0:0:0:0:
360,237,175465,2,0,P|349:203|347:170,1,67.5000025749208,2|0,0:0|2:0,0:0:0:0:
410,81,175625,1,0,3:0:0:0:
503,223,175785,6,2,P|468:187|413:191,1,90,2|8,0:0|0:0,0:0:0:0:
272,250,176105,1,0,0:0:0:0:
344,339,176265,2,2,B|238:316|275:381|170:362,1,180,2|8,0:0|0:0,0:0:0:0:
93,88,176745,6,2,P|149:104|163:164,1,99.0000030212403,2|0,0:0|3:0,0:0:0:0:
91,288,177065,1,0,0:0:0:0:
174,339,177225,2,2,P|230:323|244:263,1,99.0000030212403,10|0,0:0|0:0,0:0:0:0:
230,80,177545,6,2,P|150:89|153:164,1,161.999995056153,2|0,0:0|2:0,0:0:0:0:
101,305,177865,6,2,P|209:286|152:177,1,251.999992309571,10|2,0:0|3:1,0:0:0:0:
64,202,178345,5,0,0:0:0:0:
246,289,178505,2,2,B|317:279|317:279|367:299|367:299|444:287,1,198.000006042481,10|0,0:0|0:0,0:0:0:0:
391,169,178985,2,2,B|335:159|335:159|350:214,1,99.0000030212403,2|8,3:1|0:0,0:0:0:0:
310,364,179305,1,0,0:0:0:0:
195,360,179465,6,2,B|146:324|146:324|167:225,1,161.999995056153,2|0,3:1|2:0,0:0:0:0:
201,40,179785,2,0,L|280:71,1,53.9999983520508,10|0,0:0|2:0,0:0:0:0:
251,59,179945,2,2,B|200:66|200:66|177:79|177:79|120:89,1,135.000005149842,0|0,0:0|3:0,0:0:0:0:
1,76,180425,6,0,P|27:95|40:126,1,67.5000025749208,10|0,0:0|2:0,0:0:0:0:
197,207,180585,2,0,P|217:180|222:147,1,67.5000025749208,2|0,0:0|2:0,0:0:0:0:
75,18,180745,1,0,3:0:0:0:
28,206,180905,6,2,P|23:250|42:293,1,90,2|8,0:0|0:0,0:0:0:0:
205,335,181225,1,0,0:0:0:0:
289,186,181385,2,2,P|246:111|155:99,1,180,2|8,0:0|0:0,0:0:0:0:
134,246,181865,6,2,P|178:251|195:202,1,99.0000030212403,2|0,0:0|3:0,0:0:0:0:
356,114,182185,1,0,0:0:0:0:
410,52,182345,2,2,P|366:47|349:96,1,99.0000030212403,10|0,0:0|0:0,0:0:0:0:
380,347,182665,6,0,P|391:327|399:306,1,45,2|0,0:2|2:0,0:0:0:0:
318,280,182825,2,0,P|316:258|311:236,1,45,0|0,3:0|2:0,0:0:0:0:
311,236,182985,6,0,P|306:269|289:298,1,67.5000025749208,10|0,0:0|2:0,0:0:0:0:
175,109,183145,2,0,P|169:75|152:46,1,67.5000025749208,2|0,0:0|2:0,0:0:0:0:
74,134,183305,6,2,B|124:121|124:121|200:163|200:163|254:151,1,188.999994232178,0|0,3:1|2:0,0:0:0:0:
347,91,183625,2,2,P|306:63|258:67,1,99.0000030212403,10|0,0:0|0:0,0:0:0:0:
223,243,183945,1,0,0:0:0:0:
117,212,184105,2,2,P|113:260|140:300,1,99.0000030212403,2|8,3:1|0:0,0:0:0:0:
345,346,184425,1,0,0:0:0:0:
443,223,184585,6,2,B|394:211|374:175|374:175|371:232|329:264,1,188.999994232178,2|0,3:1|2:0,0:0:0:0:
264,318,184905,2,0,P|249:290|245:259,1,62.9999980773926,10|0,0:0|2:0,0:0:0:0:
259,77,185065,2,2,P|226:36|138:49,1,135.000005149842,0|0,0:0|3:0,0:0:0:0:
149,39,185545,6,0,P|181:44|205:67,1,67.5000025749208,10|0,0:0|2:0,0:0:0:0:
121,240,185705,2,0,P|140:267|140:300,1,67.5000025749208,2|0,0:0|2:0,0:0:0:0:
24,160,185865,5,4,3:2:0:0:
145,122,186025,1,2,0:0:0:0:
228,217,186185,1,2,0:2:0:0:
148,347,186345,6,2,B|99:361|99:361|77:292|120:240,1,180,0|0,3:0|2:0,0:0:0:0:
335,28,186825,2,0,B|368:15|368:15|386:48|378:90,1,112.5,0|2,3:0|2:1,0:0:0:0:
493,283,187145,6,0,L|434:270,1,45,0|0,3:0|2:0,0:0:0:0:
419,160,187305,2,0,L|360:173,1,45,0|0,3:0|2:0,0:0:0:0:
380,319,187465,2,0,L|321:306,1,45,0|0,3:0|2:0,0:0:0:0:
309,227,187625,6,2,L|243:240,1,54,0|0,3:0|2:0,0:0:0:0:
198,292,187945,6,0,L|177:288,1,18,0|0,3:0|2:0,0:0:0:0:
126,212,188105,2,0,L|105:216,1,18,0|0,3:0|2:0,0:0:0:0:
78,243,188265,1,4,0:2:0:0:
107,126,188425,5,0,0:0:0:0:
103,107,188585,1,0,0:0:0:0:
238,164,188745,1,0,0:0:0:0:
233,187,189065,5,0,0:0:0:0:
371,231,189225,1,2,0:2:0:0:
367,211,189385,1,2,0:2:0:0:
363,191,189545,1,2,2:0:0:0:
447,264,189705,6,0,B|365:255|389:285|304:274,1,144,2|0,0:0|0:0,0:0:0:0:
233,187,190185,2,0,P|194:194|157:198,1,72,2|0,0:0|0:0,0:0:0:0:
46,93,190505,1,0,0:0:0:0:
148,116,190665,1,0,0:0:0:0:
97,299,190825,6,0,P|62:237|78:169,1,144,2|0,0:0|0:0,0:0:0:0:
184,41,191305,1,0,0:0:0:0:
315,102,191465,2,0,P|308:139|304:182,1,72,2|0,0:0|0:0,0:0:0:0:
209,239,191785,2,0,P|215:197|219:160,1,72,2|0,0:0|0:0,0:0:0:0:
385,148,192105,1,2,0:0:0:0:
439,273,192265,6,0,B|353:280|381:247|297:258,1,144,2|0,0:0|0:0,0:0:0:0:
130,335,192745,2,0,P|74:267|92:186,1,161.999995056153,2|0,0:0|0:0,0:0:0:0:
367,13,193225,2,0,P|427:81|410:170,1,180,2|0,0:0|0:0,0:0:0:0:
113,58,194345,5,0,0:0:0:0:
89,149,194505,1,2,0:0:0:0:
29,86,194665,2,0,B|88:93|88:93|125:121|125:121|180:128,1,161.999995056153,2|0,0:0|0:0,0:0:0:0:
232,194,195145,1,0,0:0:0:0:
316,165,195305,1,2,0:0:0:0:
197,158,195465,5,0,0:0:0:0:
332,185,195625,1,2,0:0:0:0:
214,243,195785,1,0,0:0:0:0:
402,141,195945,6,0,L|492:125,1,72,2|0,0:0|0:0,0:0:0:0:
398,344,196265,1,2,0:0:0:0:
324,306,196425,1,0,0:0:0:0:
392,264,196585,1,2,0:0:0:0:
303,314,196745,5,2,0:0:0:0:
411,253,196905,1,0,0:0:0:0:
260,235,197065,1,2,0:0:0:0:
421,350,197225,1,0,0:0:0:0:
180,361,197385,6,0,P|144:291|164:215,1,161.999995056153,2|0,0:0|0:0,0:0:0:0:
257,152,197865,2,0,B|150:138|182:210|67:195,1,198.000006042481,2|0,0:0|0:0,0:0:0:0:
4,53,198345,2,0,P|64:65|102:114,1,125.999996154785,2|0,0:0|0:0,0:0:0:0:
249,315,198825,2,0,P|305:318|368:211,1,180,2|0,0:0|0:0,0:0:0:0:
446,185,199305,2,0,P|415:151|400:87,1,108,2|0,0:0|0:0,0:0:0:0:
82,34,200105,5,0,0:0:0:0:
108,107,200265,1,0,0:0:0:0:
77,19,200425,1,2,0:0:0:0:
28,90,200585,5,0,0:0:0:0:
162,44,200745,1,2,0:0:0:0:
11,98,200905,1,0,0:0:0:0:
117,140,201065,2,0,L|131:191,1,36,2|0,0:0|0:0,0:0:0:0:
222,342,201385,5,2,0:0:0:0:
285,294,201545,1,0,0:0:0:0:
184,272,201705,1,2,0:0:0:0:
300,321,201865,5,0,0:0:0:0:
163,269,202025,1,2,0:0:0:0:
267,216,202185,1,0,0:0:0:0:
215,378,202345,2,0,L|226:328,1,36,2|0,0:0|0:0,0:0:0:0:
305,37,202665,5,0,0:0:0:0:
375,84,202825,1,0,0:0:0:0:
350,159,202985,1,2,0:0:0:0:
273,127,203145,5,0,0:0:0:0:
390,78,203305,1,2,0:0:0:0:
464,160,203465,1,0,0:0:0:0:
416,243,203625,2,0,L|373:231,1,36,2|0,0:0|0:0,0:0:0:0:
80,142,203945,5,2,0:0:0:0:
161,165,204105,1,0,0:0:0:0:
95,222,204265,1,2,0:0:0:0:
53,66,204425,5,0,0:0:0:0:
224,115,204585,1,2,0:0:0:0:
175,286,204745,1,2,0:0:0:0:
4,237,204905,1,0,0:0:0:0:
113,179,205065,6,0,B|207:180|159:215|265:223,1,161.999995056153,2|0,0:0|0:0,0:0:0:0:
388,73,205545,2,0,P|300:73|242:139,1,180,2|0,0:0|0:0,0:0:0:0:
321,343,206025,2,0,P|327:289|351:232,1,107.999996704102,2|0,0:0|0:0,0:0:0:0:
87,147,206985,5,2,0:2:0:0:
121,74,207145,1,2,0:2:0:0:
168,141,207305,2,0,P|176:161|180:183,1,45,8|0,0:0|2:0,0:0:0:0:
214,264,207625,6,2,B|179:319|147:284|96:321|96:321|95:273|133:254,1,215.999993408203,4|0,3:1|2:0,0:0:0:0:
318,174,208105,6,2,B|378:150|383:197|446:197|446:197|419:236|377:229,1,215.999993408203,4|0,3:1|2:0,0:0:0:0:
181,185,208585,6,2,B|117:168|141:127|90:90|90:90|135:74|165:104,1,215.999993408203,4|0,3:2|2:0,0:0:0:0:
299,257,209065,6,2,B|340:307|297:326|316:386|316:386|270:372|264:330,1,215.999993408203,4|0,3:2|2:0,0:0:0:0:
245,129,209545,6,2,B|240:63|287:73|306:13|306:13|335:51|316:89,1,215.999993408203,4|0,3:2|3:0,0:0:0:0:
264,331,210025,5,2,0:2:0:0:
413,201,210185,2,2,P|364:190|317:174,1,99.0000030212403,6|2,3:1|0:2,0:0:0:0:
260,350,210505,1,8,0:0:0:0:
107,243,210665,5,2,0:0:0:0:
126,240,210745,1,2,0:2:0:0:
143,237,210825,1,0,3:0:0:0:
348,271,210985,1,0,0:0:0:0:
186,153,211145,1,8,0:0:0:0:
313,88,211305,6,2,B|304:150|304:150|271:185|271:185|261:256,1,180,2|0,0:0|0:0,0:0:0:0:
237,350,211785,1,8,0:0:0:0:
474,205,211945,5,2,0:0:0:0:
457,201,212025,1,2,0:2:0:0:
440,197,212105,2,0,L|385:184,1,56.25,0|0,3:0|2:0,0:0:0:0:
194,134,212265,1,0,0:2:0:0:
404,279,212425,1,10,0:0:0:0:
275,70,212585,1,2,0:2:0:0:
120,319,212745,6,2,P|178:260|260:253,1,168.75,2|0,3:1|2:0,0:0:0:0:
281,263,213065,1,8,0:0:0:0:
90,96,213225,2,2,P|42:83|-4:55,1,99.0000030212403,2|0,0:0|3:0,0:0:0:0:
124,175,213545,1,2,0:2:0:0:
238,89,213705,1,10,0:0:0:0:
110,190,213865,1,2,0:2:0:0:
167,31,214025,5,0,3:0:0:0:
317,138,214185,2,0,L|411:126,1,90,2|8,0:2|0:0,0:0:0:0:
295,284,214505,5,2,0:2:0:0:
278,281,214585,1,2,0:2:0:0:
261,278,214665,2,0,L|205:266,1,56.25,0|2,3:0|2:2,0:0:0:0:
123,310,214825,1,2,0:2:0:0:
236,170,214985,1,8,0:0:0:0:
383,321,215145,6,2,P|384:268|359:205,1,90,2|0,0:0|3:0,0:0:0:0:
208,355,215465,1,2,0:2:0:0:
454,210,215625,2,2,P|373:192|323:127,1,168.75,10|0,0:0|2:0,0:0:0:0:
323,127,215944,2,0,P|339:104|352:79,1,56.25,0|0,3:0|2:0,0:0:0:0:
296,4,216105,1,2,0:2:0:0:
473,125,216265,1,8,0:0:0:0:
263,222,216425,5,2,0:0:0:0:
243,225,216505,1,0,0:0:0:0:
223,228,216585,2,0,L|119:241,1,99.0000030212403,0|2,3:0|0:2,0:0:0:0:
56,192,216905,1,10,0:2:0:0:
197,313,217065,1,2,0:0:0:0:
29,338,217225,5,0,3:0:0:0:
221,134,217385,1,2,0:2:0:0:
11,90,217545,5,10,0:2:0:0:
211,331,217705,1,2,0:0:0:0:
361,36,217865,6,2,P|312:36|270:63,1,99.0000030212403,2|0,3:1|0:0,0:0:0:0:
262,250,218185,1,8,0:0:0:0:
57,176,218345,1,2,0:0:0:0:
91,170,218425,1,2,0:2:0:0:
124,178,218505,1,0,3:0:0:0:
153,196,218585,1,2,2:0:0:0:
173,224,218665,1,0,0:0:0:0:
412,305,218825,6,2,B|296:281|338:351|220:331,1,198.000006042481,10|0,0:0|3:0,0:0:0:0:
278,44,219305,2,2,P|298:96|299:154,1,112.5,2|8,0:0|0:0,0:0:0:0:
137,309,219625,1,0,0:0:0:0:
57,176,219785,6,0,B|88:157|88:157|135:155,2,67.5000025749208,14|0|0,0:1|2:0|2:0,0:0:0:0:
222,332,220025,2,0,B|230:296|230:296|262:261,2,67.5000025749208,12|0|0,0:2|2:0|2:0,0:0:0:0:
445,292,220265,2,0,B|426:260|426:260|424:213,1,67.5000025749208,12|0,0:2|2:0,0:0:0:0:
457,137,220425,6,0,L|336:171,1,101.250003862381,4|0,3:1|2:0,0:0:0:0:
340,171,220745,1,12,0:2:0:0:
508,231,220905,1,0,0:0:0:0:
378,74,221065,1,0,3:0:0:0:
273,239,221225,2,0,P|229:231|189:204,1,90,2|8,0:2|0:0,0:0:0:0:
147,124,221545,1,2,0:2:0:0:
25,353,221705,6,2,B|117:363|95:311|190:328,1,168.75,2|0,3:1|2:0,0:0:0:0:
209,336,222025,1,8,0:0:0:0:
266,53,222185,2,2,B|245:98|245:98|258:153,1,99.0000030212403,2|0,0:0|3:0,0:0:0:0:
366,340,222505,1,0,0:0:0:0:
493,163,222665,6,0,L|437:152,1,56.25,8|0,0:0|2:0,0:0:0:0:
251,262,222825,2,0,L|306:272,1,56.25,12|0,0:2|2:0,0:0:0:0:
512,254,222985,6,0,L|396:231,1,101.250003862381,4|0,3:1|2:0,0:0:0:0:
393,229,223305,1,12,0:2:0:0:
101,155,223625,5,0,3:0:0:0:
196,17,223785,2,0,P|185:73|167:104,1,90,2|8,0:2|0:0,0:0:0:0:
45,81,224105,1,2,0:2:0:0:
75,246,224265,6,2,B|133:239|133:239|176:210|176:210|234:204,1,168.75,2|0,3:1|2:0,0:0:0:0:
234,204,224585,2,0,L|249:281,1,56.25,8|0,0:0|2:0,0:0:0:0:
409,343,224745,6,2,L|427:245,1,99.0000030212403,2|0,0:0|3:0,0:0:0:0:
427,246,225065,2,0,L|359:230,1,56.25,0|0,0:0|2:0,0:0:0:0:
215,339,225225,5,8,0:2:0:0:
426,159,225385,1,2,0:2:0:0:
215,106,225545,6,2,L|233:203,1,99.0000030212403,2|0,3:1|0:0,0:0:0:0:
325,309,225865,1,8,0:0:0:0:
65,369,226025,2,2,P|69:280|130:210,1,180,2|0,0:0|0:0,0:0:0:0:
306,95,226505,6,2,B|241:85|241:85|205:55|205:55|138:45,1,180,10|0,0:0|3:0,0:0:0:0:
269,239,226985,1,2,0:2:0:0:
340,292,227145,2,0,L|436:270,1,90,8|0,0:0|0:0,0:0:0:0:
461,150,227465,5,2,3:1:0:0:
246,236,227625,1,0,0:0:0:0:
406,360,227785,1,12,0:2:0:0:
86,27,228105,5,14,0:0:0:0:
257,155,228265,1,2,3:2:0:0:
50,250,228425,1,8,0:0:0:0:
156,99,228585,6,2,L|219:88,1,45,4|0,3:2|0:0,0:0:0:0:
314,228,228905,1,0,3:0:0:0:
457,87,229065,5,14,0:1:0:0:
228,235,229225,1,2,3:2:0:0:
493,373,229385,1,8,0:0:0:0:
314,228,229545,6,2,B|262:220|262:220|200:292|200:292|143:286,1,198.000006042481,4|0,3:2|3:0,0:0:0:0:
138,153,230025,6,2,P|150:171|156:193,1,45,2|0,0:0|2:0,0:0:0:0:
278,350,230185,2,0,P|290:331|296:309,1,45,2|0,3:2|2:0,0:0:0:0:
380,174,230345,2,0,P|392:192|398:214,1,45,8|0,3:3|2:0,0:0:0:0:
477,290,230505,2,0,P|489:271|495:249,1,45,4|0,3:3|2:0,0:0:0:0:
423,55,230665,6,2,P|375:126|285:143,1,180,2|8,3:1|0:0,0:0:0:0:
87,42,231145,1,2,0:2:0:0:
109,44,231225,1,2,0:2:0:0:
128,55,231305,1,0,3:0:0:0:
256,219,231465,1,0,0:0:0:0:
65,215,231625,2,2,P|72:157|100:114,1,90,8|0,0:0|0:0,0:0:0:0:
226,319,231945,6,2,B|331:310|294:360|399:364,1,180,2|8,3:1|0:0,0:0:0:0:
156,247,232425,1,2,0:2:0:0:
121,238,232505,1,2,0:2:0:0:
86,244,232585,1,0,3:0:0:0:
56,264,232665,1,2,0:2:0:0:
37,294,232745,1,2,0:2:0:0:
371,267,232905,2,0,P|358:220|355:167,1,90,8|2,0:0|0:2,0:0:0:0:
228,35,233225,6,2,B|183:15|183:15|133:52|144:121,1,168.75,2|0,3:1|2:0,0:0:0:0:
151,140,233545,1,10,0:2:0:0:
450,211,233705,2,2,B|392:201|392:201|327:247|327:247|267:237,1,198.000006042481,2|0,0:0|0:0,0:0:0:0:
44,268,234185,6,2,B|85:260|111:227|111:227|114:295|172:326,1,198.000006042481,10|0,0:0|3:0,0:0:0:0:
335,290,234665,1,2,0:0:0:0:
449,119,234825,1,8,0:0:0:0:
410,97,234905,1,2,0:2:0:0:
366,96,234985,1,2,0:2:0:0:
327,117,235065,1,2,0:2:0:0:
303,154,235145,1,0,3:0:0:0:
396,363,235305,5,2,0:2:0:0:
246,243,235465,1,8,0:0:0:0:
433,284,235625,2,0,L|509:267,2,49.5000015106202,2|0|0,0:0|0:0|3:0,0:0:0:0:
157,318,235945,5,2,0:2:0:0:
246,243,236105,1,10,0:0:0:0:
143,332,236265,1,2,0:2:0:0:
260,342,236425,5,0,3:0:0:0:
144,224,236585,1,2,0:2:0:0:
297,145,236745,1,8,0:0:0:0:
433,284,236905,2,2,P|384:276|336:258,1,99.0000030212403,2|0,0:0|3:0,0:0:0:0:
64,143,237225,5,2,0:2:0:0:
145,201,237385,1,10,0:0:0:0:
48,131,237545,1,2,0:2:0:0:
167,113,237705,5,0,3:0:0:0:
44,229,237865,1,2,0:2:0:0:
181,99,238025,1,8,0:0:0:0:
0,35,238185,1,2,0:0:0:0:
34,314,238345,6,2,B|97:302|97:302|142:249|142:249|206:239,1,198.000006042481,2|8,3:1|0:0,0:0:0:0:
415,341,238825,2,2,B|364:348|364:348|312:318,1,99.0000030212403,2|0,0:0|3:0,0:0:0:0:
331,81,239145,1,2,0:0:0:0:
381,261,239305,1,8,0:0:0:0:
256,144,239465,1,2,0:2:0:0:
449,184,239625,5,0,3:0:0:0:
426,180,239705,1,8,0:3:0:0:
403,177,239785,2,0,L|324:167,1,56.25,8|4,0:3|0:3,0:0:0:0:
126,42,239945,2,0,P|129:91|148:136,1,99.0000030212403,8|2,0:0|0:2,0:0:0:0:
290,294,240265,2,0,B|202:282|223:328|139:319,1,155.250002961159,0|0,3:0|2:0,0:0:0:0:
117,315,240585,1,8,0:0:0:0:
217,65,240745,1,2,0:2:0:0:
1,173,240905,6,2,L|151:149,1,135,2|0,3:1|2:0,0:0:0:0:
148,136,241225,2,2,B|165:185|165:185|150:229,1,99.0000030212403,10|0,0:0|0:0,0:0:0:0:
323,121,241545,1,0,3:0:0:0:
290,294,241705,2,2,B|273:245|273:245|287:200,1,99.0000030212403,2|8,0:0|0:0,0:0:0:0:
512,208,242025,1,2,0:2:0:0:
512,208,242105,1,2,0:2:0:0:
512,208,242185,6,2,P|460:258|387:258,1,148.50000453186,2|0,3:1|2:0,0:0:0:0:
368,250,242505,1,8,0:0:0:0:
252,73,242665,2,2,B|192:48|192:48|125:69|116:148,1,198.000006042481,2|0,0:0|0:0,0:0:0:0:
133,315,243145,1,8,0:0:0:0:
208,150,243305,1,2,0:2:0:0:
49,218,243465,5,2,3:1:0:0:
73,223,243545,1,2,0:2:0:0:
97,228,243625,1,2,0:2:0:0:
227,296,243785,2,2,P|278:244|350:239,1,148.50000453186,10|0,0:0|2:0,0:0:0:0:
370,250,244105,1,0,3:0:0:0:
348,38,244265,2,2,P|308:65|260:76,1,99.0000030212403,2|8,0:0|0:0,0:0:0:0:
178,42,244585,1,0,0:0:0:0:
331,152,244745,6,2,B|421:144|399:184|480:182,1,155.250002961159,2|0,3:1|2:0,0:0:0:0:
502,174,245065,1,8,0:0:0:0:
277,353,245225,2,2,P|220:274|237:173,1,198.000006042481,2|0,0:0|0:0,0:0:0:0:
470,0,245705,2,2,P|471:60|460:104,1,99.0000030212403,10|0,0:0|0:0,0:0:0:0:
318,263,246025,6,2,B|265:249|265:249|197:296|197:296|126:280,1,198.000006042481,2|8,3:1|0:0,0:0:0:0:
6,59,246505,2,2,P|46:87|93:100,1,99.0000030212403,2|0,0:0|3:0,0:0:0:0:
205,74,246825,1,0,0:0:0:0:
0,259,246985,5,10,0:0:0:0:
19,219,247065,1,2,0:2:0:0:
54,193,247145,1,2,0:2:0:0:
98,186,247225,1,2,0:2:0:0:
140,200,247305,1,0,3:0:0:0:
244,280,247465,1,0,0:0:0:0:
349,357,247625,6,2,B|406:365|441:319|441:319|402:284|406:235,1,198.000006042481,8|2,0:0|3:1,0:0:0:0:
352,67,248105,1,2,0:2:0:0:
438,104,248265,1,10,0:1:0:0:
287,175,248425,1,2,0:0:0:0:
129,40,248585,5,14,0:0:0:0:
87,274,248745,1,2,3:2:0:0:
133,21,248905,1,8,0:0:0:0:
216,154,249065,6,2,L|275:171,1,45,4|0,3:2|0:0,0:0:0:0:
353,258,249385,1,0,3:0:0:0:
413,74,249545,5,14,0:1:0:0:
456,330,249705,1,2,3:2:0:0:
409,53,249865,1,8,0:0:0:0:
287,175,250025,6,2,L|228:192,1,45,4|0,3:2|0:0,0:0:0:0:
154,243,250345,1,0,3:0:0:0:
263,93,250505,6,2,B|257:151|257:151|274:176|274:176|258:216|258:216|269:242|269:242|268:284,1,188.999994232178,2|0,0:0|2:0,0:0:0:0:
225,336,250825,2,2,P|292:276|250:355,1,251.999992309571,0|4,3:0|3:2,0:0:0:0:
18,201,251465,6,2,B|60:193|83:157|83:157|93:219|154:242,1,198.000006042481,10|0,0:0|0:0,0:0:0:0:
213,85,251945,2,2,P|172:107|173:158,1,99.0000030212403,2|8,3:1|0:0,0:0:0:0:
293,230,252265,1,0,0:0:0:0:
258,358,252425,6,2,P|324:319|311:244,1,161.999995056153,2|0,3:1|2:0,0:0:0:0:
376,106,252745,2,0,P|402:112|423:128,1,53.9999983520508,10|0,0:0|2:0,0:0:0:0:
423,128,252905,2,2,B|347:119|347:119|321:135|291:138,1,135.000005149842,0|0,0:0|3:0,0:0:0:0:
92,271,253385,6,0,P|74:242|69:205,1,67.5000025749208,10|0,0:0|2:0,0:0:0:0:
232,78,253545,2,0,P|214:106|209:143,1,67.5000025749208,2|0,0:0|2:0,0:0:0:0:
14,123,253705,6,2,P|48:80|103:77,1,112.5,2|0,3:1|0:0,0:0:0:0:
103,77,254025,2,0,L|120:145,1,56.25,10|0,0:2|2:0,0:0:0:0:
179,267,254185,6,2,P|213:309|268:312,1,112.5,2|0,0:0|0:0,0:0:0:0:
268,313,254505,2,0,L|285:244,1,56.25,2|0,3:2|2:0,0:0:0:0:
331,120,254665,6,2,P|365:77|420:74,1,112.5,10|0,0:1|0:0,0:0:0:0:
420,74,254985,2,0,L|437:142,1,56.25,2|0,3:2|2:0,0:0:0:0:
447,328,255145,6,2,P|385:311|378:263,1,112.5,2|8,0:0|0:0,0:0:0:0:
456,244,255465,1,0,0:0:0:0:
194,35,255625,6,2,P|224:66|213:116,1,90,2|0,0:0|3:0,0:0:0:0:
237,206,255945,6,2,P|135:207|195:125,1,251.999992309571,10|2,0:0|3:1,0:0:0:0:
310,134,256425,1,0,0:0:0:0:
237,206,256585,6,2,B|171:198|171:198|115:240|115:240|46:232,1,198.000006042481,10|0,0:0|0:0,0:0:0:0:
280,282,257065,2,2,B|339:263|339:263|326:312,1,99.0000030212403,2|8,3:1|0:0,0:0:0:0:
192,303,257385,1,0,0:0:0:0:
287,369,257545,6,2,P|228:297|236:205,1,188.999994232178,2|0,3:1|2:0,0:0:0:0:
318,8,257865,2,0,L|388:19,1,62.9999980773926,10|0,0:0|2:0,0:0:0:0:
381,18,258025,2,2,P|392:81|347:129,1,135.000005149842,0|0,0:0|3:0,0:0:0:0:
152,44,258505,6,0,P|184:41|205:65,1,67.5000025749208,10|0,0:0|2:0,0:0:0:0:
245,263,258665,2,0,P|226:236|236:205,1,67.5000025749208,2|0,0:0|2:0,0:0:0:0:
263,127,258825,1,2,3:2:0:0:
122,277,258985,6,2,L|18:293,1,90,2|8,0:0|0:0,0:0:0:0:
323,219,259305,1,0,0:0:0:0:
224,342,259465,2,2,P|157:285|153:198,1,180,2|8,0:0|0:0,0:0:0:0:
378,50,259945,2,2,B|396:97|396:97|381:143,1,99.0000030212403,2|0,0:0|3:0,0:0:0:0:
511,312,260265,6,0,L|500:272,1,40.4999987640381,2|0,0:2|2:0,0:0:0:0:
425,295,260425,2,0,L|414:255,1,40.4999987640381,10|0,0:2|2:0,0:0:0:0:
339,278,260585,2,0,L|328:238,1,40.4999987640381,2|0,0:2|2:0,0:0:0:0:
304,111,260745,6,0,L|295:151,1,33.7500012874604,2|0,0:2|2:0,0:0:0:0:
220,124,260905,2,0,L|211:164,1,33.7500012874604,2|0,3:2|2:0,0:0:0:0:
136,137,261065,2,0,L|127:177,1,33.7500012874604,10|0,0:2|2:0,0:0:0:0:
52,150,261225,2,0,L|43:190,1,33.7500012874604,2|0,0:2|2:0,0:0:0:0:
16,270,261385,1,4,3:2:0:0:
16,270,261705,6,2,B|72:278|72:278|108:310|108:310|164:319,1,161.999995056153,10|0,0:0|0:0,0:0:0:0:
277,227,262185,2,2,L|191:248,1,80.9999975280763,2|8,3:1|0:0,0:0:0:0:
333,314,262505,1,0,0:0:0:0:
406,350,262665,2,2,P|478:323|485:247,1,161.999995056153,2|8,3:1|0:0,0:0:0:0:
485,247,263145,2,2,P|423:215|418:146,1,144,0|0,0:0|3:0,0:0:0:0:
432,21,263625,6,0,L|387:30,1,45,10|0,0:0|2:0,0:0:0:0:
236,57,263785,2,0,L|191:66,1,45,2|0,0:0|2:0,0:0:0:0:
40,93,263945,6,2,L|56:181,1,90,6|0,3:2|2:0,0:0:0:0:
56,181,264265,2,0,L|103:189,1,45,2|0,0:2|2:0,0:0:0:0:
157,330,264425,6,2,L|173:241,1,90,6|0,3:2|2:0,0:0:0:0:
173,242,264745,2,0,L|220:233,1,45,2|0,0:2|2:0,0:0:0:0:
267,80,264905,6,2,L|283:168,1,90,6|0,3:2|2:0,0:0:0:0:
283,169,265225,2,0,L|330:177,1,45,2|0,0:2|2:0,0:0:0:0:
375,333,265385,6,2,L|391:244,1,90,6|0,3:2|2:0,0:0:0:0:
391,245,265705,2,0,L|438:236,1,45,2|0,3:2|2:0,0:0:0:0:
495,144,265865,6,2,P|462:113|414:110,1,90,2|0,0:0|3:0,0:0:0:0:
286,259,266185,1,10,0:0:0:0:
253,349,266345,1,2,0:0:0:0:
160,356,266505,2,2,P|102:340|93:240,1,168.75,0|0,3:2|2:0,0:0:0:0:
102,231,266825,1,10,0:0:0:0:
430,16,267145,5,0,3:2:0:0:
436,53,267225,1,0,3:2:0:0:
417,87,267305,1,0,3:2:0:0:
381,101,267385,1,0,3:2:0:0:
345,89,267465,1,0,3:2:0:0:
308,77,267545,1,0,3:2:0:0:
272,91,267625,1,0,3:2:0:0:
253,125,267705,1,0,3:2:0:0:
260,162,267785,6,2,L|339:183,1,80.9999975280763,2|0,3:1|2:0,0:0:0:0:
338,182,268105,2,0,L|346:224,1,40.4999987640381,2|0,0:0|2:0,0:0:0:0:
476,260,268265,2,2,B|419:268|419:268|382:298|382:298|325:307,1,161.999995056153,0|0,3:2|0:0,0:0:0:0:
71,369,268745,6,0,L|82:323,1,40.4999987640381,10|0,0:0|2:0,0:0:0:0:
159,288,268905,2,0,L|148:242,1,40.4999987640381,2|0,0:0|2:0,0:0:0:0:
192,159,269065,5,12,0:2:0:0:
112,119,269225,2,2,B|84:107|72:89|72:89|86:167|174:163,1,188.999994232178,2|0,0:0|2:0,0:0:0:0:
271,114,269545,5,12,0:2:0:0:
345,64,269705,2,2,B|369:45|390:44|390:44|316:17|274:95,1,188.999994232178,2|0,0:0|2:0,0:0:0:0:
272,199,270025,5,12,0:2:0:0:
278,288,270185,2,2,B|282:314|271:339|271:339|333:286|285:211,1,194.400004746094,2|0,0:0|2:0,0:0:0:0:
