osu file format v14

[General]
AudioFilename: stolen mp3.mp3
AudioLeadIn: 0
PreviewTime: 48105
Countdown: 0
SampleSet: Soft
StackLeniency: 0.7
Mode: 0
LetterboxInBreaks: 0
WidescreenStoryboard: 1

[Editor]
Bookmarks: 48905,126985,230665,233705
DistanceSpacing: 0.7
BeatDivisor: 4
GridSize: 8
TimelineZoom: 2.899999

[Metadata]
Title:Kyoumei no True Force
TitleUnicode:共鳴のTrue Force
Artist:Harada Hitomi
ArtistUnicode:原田ひとみ
Creator:Kibbleru
Version:Collab Insane
Source:精霊使いの剣舞
Tags:Seirei Tsukai Blade Dance opening op Rizia Anais Momoka Shioi Dap Victorica Doormat wkyik kawaiwkyik [C_u_r_i] Curi
BeatmapID:1012368
BeatmapSetID:454893

[Difficulty]
HPDrainRate:6
CircleSize:4
OverallDifficulty:7
ApproachRate:9
SliderMultiplier:1.6
SliderTickRate:1

[Events]
//Background and Video events
0,0,"bgfromq.jpg",0,0
//Break Periods
2,90065,94065
2,189705,207025
//Storyboard Layer 0 (Background)
//Storyboard Layer 1 (Fail)
//Storyboard Layer 2 (Pass)
//Storyboard Layer 3 (Foreground)
//Storyboard Sound Samples

[TimingPoints]
1545,320,4,2,1,50,1,0
1545,-133.333333333333,4,2,1,50,0,0
4105,-100,4,2,1,70,0,0
16905,-133.333333333333,4,2,1,50,0,0
26025,-133.333333333333,4,2,1,70,0,0
27145,-100,4,2,1,60,0,0
37385,-133.333333333333,4,2,1,50,0,0
42505,-100,4,2,1,60,0,0
44745,-100,4,2,1,70,0,0
48905,-90.9090909090909,4,2,1,80,0,1
66825,-90.9090909090909,4,2,1,90,0,1
68745,-100,4,2,1,90,0,0
69385,-90.9090909090909,4,2,1,80,0,1
87305,-90.9090909090909,4,2,1,90,0,1
89545,-100,4,2,1,50,0,0
94665,-133.333333333333,4,2,1,50,0,0
103945,-133.333333333333,4,2,1,70,0,0
105225,-100,4,2,1,60,0,0
115465,-133.333333333333,4,2,1,50,0,0
120585,-100,4,2,1,60,0,0
122825,-100,4,2,1,70,0,0
126985,-100,4,2,1,80,0,1
144905,-100,4,2,1,90,0,1
146825,-100,4,2,1,90,0,0
147465,-100,4,2,1,80,0,1
165385,-100,4,2,1,90,0,1
167945,-100,4,2,1,70,0,0
188585,-100,4,2,1,50,0,0
207625,-100,4,2,1,80,0,1
207705,-100,4,2,1,50,0,0
208105,-100,4,2,1,80,0,1
208185,-100,4,2,1,50,0,0
208585,-100,4,2,1,80,0,1
208665,-100,4,2,1,50,0,0
209065,-100,4,2,1,80,0,1
209145,-100,4,2,1,50,0,0
209545,-100,4,2,1,80,0,1
209625,-100,4,2,1,50,0,0
210185,-100,4,2,1,80,0,1
228105,-100,4,2,1,90,0,1
230665,-100,4,2,1,70,0,0
248585,-100,4,2,1,90,0,1
251145,-100,4,2,1,70,0,0
261705,-100,4,2,1,60,0,0
263945,-100,4,2,1,70,0,0
266505,-100,4,2,1,60,0,0
269065,-100,4,2,1,80,0,0
271625,-100,4,2,1,50,0,0

[Colours]
Combo1 : 170,130,236
Combo2 : 241,101,101
Combo3 : 238,153,236

[HitObjects]
164,203,1545,6,0,P|219:197|301:187,1,120.000004577637,4|2,0:0|0:0,0:0:0:0:
283,189,2185,1,0,0:0:0:0:
385,152,2345,2,0,P|376:208|370:283,1,120.000004577637,2|2,0:0|0:0,0:0:0:0:
311,90,2825,2,0,P|364:68|431:37,1,120.000004577637,2|0,0:0|0:0,0:0:0:0:
283,189,3305,2,0,P|238:153|177:110,1,120.000004577637,2|0,0:0|0:0,0:0:0:0:
300,311,3785,1,2,0:0:0:0:
300,311,4105,6,0,B|243:309|205:342|205:342|154:319|149:289,1,160,4|2,0:0|0:0,0:0:0:0:
168,107,4585,2,0,P|220:164|215:242,1,160,2|2,0:0|0:0,0:0:0:0:
256,46,5065,2,0,P|171:64|96:75,1,160,2|2,0:0|0:0,0:0:0:0:
260,185,5545,2,0,P|338:168|417:156,1,160,2|0,0:0|0:0,0:0:0:0:
488,271,6025,1,2,0:0:0:0:
335,336,6185,5,8,1:0:0:0:
381,127,6345,1,8,1:0:0:0:
488,271,6505,1,8,1:0:0:0:
311,212,6665,6,0,B|259:220|221:261|221:261|192:257|175:218,1,160,4|10,1:0|0:1,0:0:0:0:
81,171,7145,2,0,L|63:260,1,80,0|0,0:0|0:0,0:0:0:0:
121,344,7465,1,2,1:0:0:0:
280,274,7625,2,0,P|313:295|339:325,1,80,8|0,0:0|1:0,0:0:0:0:
200,311,7945,6,0,P|194:234|184:142,1,160,2|10,1:0|0:1,0:0:0:0:
261,62,8425,2,0,P|319:56|381:146,1,160,2|0,0:0|1:0,0:0:0:0:
329,257,8905,1,10,0:1:0:0:
449,202,9065,1,2,0:2:0:0:
329,257,9225,6,0,L|225:245,1,80,0|0,1:0|0:0,0:0:0:0:
77,306,9545,1,10,0:1:0:0:
158,357,9705,2,0,B|170:306|170:306|150:252|150:252|161:203,1,160,2|0,0:0|0:1,0:0:0:0:
105,130,10185,2,0,P|60:136|15:139,1,80,8|2,0:0|0:1,0:0:0:0:
249,204,10505,6,0,P|271:101|250:48,1,160,0|10,1:0|0:1,0:0:0:0:
161,203,10985,2,0,P|166:242|188:275,1,80,0|2,0:0|0:0,0:0:0:0:
133,351,11305,1,0,1:0:0:0:
292,275,11465,2,0,L|299:354,1,80,10|2,0:1|0:2,0:0:0:0:
220,131,11785,6,0,B|262:155|299:155|299:155|330:118|324:84,1,160,0|10,1:0|0:1,0:0:0:0:
131,110,12265,2,0,L|147:201,1,80,0|0,0:0|0:0,0:0:0:0:
234,321,12585,1,2,1:0:0:0:
342,233,12745,2,0,L|250:241,1,80,8|0,0:0|0:0,0:0:0:0:
45,289,13065,6,0,B|97:302|97:302|160:288|187:249,1,160,2|10,1:0|0:1,0:0:0:0:
64,189,13545,1,2,0:0:0:0:
64,189,13865,1,0,1:0:0:0:
150,77,14025,2,0,L|164:165,1,80,10|2,0:1|0:0,0:0:0:0:
240,323,14345,5,2,0:1:0:0:
317,181,14505,1,2,0:2:0:0:
198,246,14665,2,0,B|252:240|252:240|307:268|307:268|363:262,1,160,2|0,0:1|0:0,0:0:0:0:
186,330,15145,2,0,B|240:324|240:324|295:352|295:352|351:346,1,160,2|0,0:1|0:0,0:0:0:0:
413,192,15625,5,0,1:0:0:0:
458,347,15785,1,2,1:2:0:0:
364,270,15945,1,2,1:2:0:0:
494,171,16105,1,2,1:2:0:0:
332,110,16265,5,2,1:2:0:0:
364,270,16425,1,2,1:2:0:0:
261,232,16585,1,2,1:2:0:0:
404,168,16745,1,0,1:0:0:0:
261,232,16905,6,0,P|200:223|136:218,1,120.000004577637,2|0,1:2|1:2,0:0:0:0:
78,298,17385,1,0,0:0:0:0:
187,369,17545,2,0,L|181:307,1,60.0000022888184,2|0,1:2|0:0,0:0:0:0:
222,149,17865,1,0,1:0:0:0:
141,218,18025,1,0,0:0:0:0:
265,297,18185,6,0,P|297:289|331:284,1,60.0000022888184,2|0,1:2|0:0,0:0:0:0:
426,327,18505,1,0,1:0:0:0:
383,224,18665,2,0,P|393:161|400:97,1,120.000004577637,2|0,0:2|0:0,0:0:0:0:
308,60,19145,2,0,L|248:70,1,60.0000022888184,2|0,1:2|3:0,0:0:0:0:
160,140,19465,6,0,P|149:198|174:251,1,120.000004577637,2|0,1:2|1:2,0:0:0:0:
281,267,19945,1,0,0:0:0:0:
281,123,20105,2,0,P|272:151|267:181,1,60.0000022888184,2|0,1:2|0:0,0:0:0:0:
361,179,20425,1,0,1:0:0:0:
357,68,20585,6,0,P|301:88|243:78,1,120.000004577637,2|0,0:2|0:0,0:0:0:0:
268,212,21065,1,0,1:0:0:0:
169,149,21225,2,0,P|161:121|159:72,1,60.0000022888184,2|0,0:2|0:0,0:0:0:0:
62,190,21545,2,0,P|59:220|52:249,1,60.0000022888184,0|2,0:0|1:2,0:0:0:0:
131,350,21865,1,0,0:0:0:0:
282,310,22025,6,0,P|274:252|268:177,1,120.000004577637,2|0,1:2|1:0,0:0:0:0:
351,97,22505,1,0,0:0:0:0:
283,167,22665,2,0,P|206:159|187:108,1,120.000004577637,2|0,1:2|1:0,0:0:0:0:
283,167,23145,1,0,0:0:0:0:
196,295,23305,6,0,P|189:263|182:230,2,60.0000022888184,2|0|0,1:2|0:0|1:0,0:0:0:0:
329,340,23785,2,0,P|357:332|386:322,1,60.0000022888184,2|0,0:2|0:0,0:0:0:0:
357,197,24105,1,0,0:0:0:0:
276,249,24265,1,0,1:0:0:0:
461,265,24425,2,0,P|456:235|447:206,1,60.0000022888184,2|0,0:2|1:0,0:0:0:0:
288,96,24745,6,0,P|358:99|396:52,1,120.000004577637,2|0,0:0|0:0,0:0:0:0:
136,130,25225,2,0,L|148:200,1,60.0000022888184,2|0,1:2|0:0,0:0:0:0:
349,225,25545,2,0,L|338:284,1,60.0000022888184,2|0,1:2|0:0,0:0:0:0:
240,354,25865,1,2,1:2:0:0:
258,172,26025,5,2,1:2:0:0:
170,274,26185,1,2,1:2:0:0:
340,256,26345,1,2,1:2:0:0:
173,157,26505,5,2,1:2:0:0:
350,118,26665,1,2,1:2:0:0:
245,66,26825,1,10,1:2:0:0:
275,213,26985,1,8,0:0:0:0:
437,132,27145,6,0,P|429:70|430:30,1,80,4|0,1:0|0:0,0:0:0:0:
366,208,27465,2,0,P|423:232|457:252,1,80,10|0,0:0|0:0,0:0:0:0:
289,108,27785,1,2,0:0:0:0:
252,291,27945,1,0,1:2:0:0:
367,209,28105,1,8,0:0:0:0:
211,170,28265,6,0,P|126:197|62:173,1,160,2|0,0:0|0:0,0:0:0:0:
142,302,28745,1,10,0:0:0:0:
270,250,28905,2,0,L|255:344,1,80,2|0,0:0|0:0,0:0:0:0:
200,156,29225,2,0,L|212:76,1,80,0|10,1:0|0:1,0:0:0:0:
270,250,29545,1,2,3:2:0:0:
377,137,29705,6,0,P|340:148|299:156,1,80,0|2,1:2|0:0,0:0:0:0:
240,97,30025,1,8,0:0:0:0:
360,237,30185,1,0,0:0:0:0:
465,122,30345,2,0,L|485:42,1,80,2|0,0:0|1:0,0:0:0:0:
299,22,30665,1,8,0:0:0:0:
377,137,30825,6,0,P|360:215|350:294,1,160,2|2,3:2|0:0,0:0:0:0:
434,320,31305,1,8,0:0:0:0:
251,248,31465,2,0,P|199:264|151:297,1,80,2|0,0:0|0:0,0:0:0:0:
296,158,31785,2,0,P|242:145|184:150,1,80,0|10,1:0|0:1,0:0:0:0:
333,266,32105,1,2,3:2:0:0:
151,313,32265,6,0,P|167:234|177:155,1,160,2|10,1:2|0:0,0:0:0:0:
85,207,32745,1,0,0:0:0:0:
239,323,32905,2,0,P|291:319|335:312,1,80,2|0,0:0|3:0,0:0:0:0:
279,105,33225,1,10,0:0:0:0:
276,232,33385,1,0,0:0:0:0:
279,105,33545,5,2,1:2:0:0:
152,180,33705,2,0,L|124:91,1,80,2|8,0:0|0:0,0:0:0:0:
97,286,34025,2,0,L|190:277,1,80,2|0,0:0|0:0,0:0:0:0:
288,326,34345,1,0,1:0:0:0:
407,244,34505,2,0,B|369:259|330:241|330:241|292:227|251:242,1,160,10|4,0:1|1:0,0:0:0:0:
454,321,34985,5,0,3:0:0:0:
495,243,35145,1,0,3:0:0:0:
449,167,35305,1,0,3:0:0:0:
407,244,35465,5,0,3:0:0:0:
495,243,35625,1,0,3:0:0:0:
449,167,35785,1,0,3:0:0:0:
407,244,35945,1,0,3:0:0:0:
256,209,36105,5,0,1:0:0:0:
355,122,36265,1,0,1:0:0:0:
329,283,36425,1,0,1:0:0:0:
270,121,36585,1,0,1:0:0:0:
270,121,36905,5,8,0:0:0:0:
428,206,37065,1,8,0:0:0:0:
248,294,37225,1,0,1:0:0:0:
350,337,37385,6,0,P|343:277|339:217,1,120.000004577637,2|0,1:2|0:0,0:0:0:0:
387,133,37865,1,0,1:0:0:0:
256,203,38025,1,8,0:0:0:0:
255,203,38185,2,0,P|196:195|134:189,1,120.000004577637,0|0,0:0|1:0,0:0:0:0:
62,90,38665,6,0,P|101:77|130:65,1,60.0000022888184,0|0,0:0|0:0,0:0:0:0:
226,22,38985,2,0,P|232:51|236:80,1,60.0000022888184,2|0,0:0|0:0,0:0:0:0:
181,220,39305,1,8,0:0:0:0:
260,276,39465,2,0,P|318:263|376:245,1,120.000004577637,0|0,1:0|0:0,0:0:0:0:
467,157,39945,6,0,P|460:190|457:223,1,60.0000022888184,2|0,1:2|0:0,0:0:0:0:
343,123,40265,2,0,P|371:113|399:101,1,60.0000022888184,0|0,0:0|1:0,0:0:0:0:
376,245,40585,2,0,P|353:225|329:207,1,60.0000022888184,8|0,0:0|0:0,0:0:0:0:
176,194,40905,1,2,0:0:0:0:
257,151,41065,6,0,P|272:103|227:28,1,120.000004577637,0|0,1:0|0:0,0:0:0:0:
166,137,41545,2,0,P|166:168|176:196,1,60.0000022888184,2|0,0:0|0:0,0:0:0:0:
314,220,41865,1,8,0:0:0:0:
274,321,42025,2,0,P|330:325|411:333,1,120.000004577637,0|0,1:0|0:0,0:0:0:0:
181,347,42505,6,0,L|166:268,1,80,2|0,1:2|0:0,0:0:0:0:
314,220,42825,2,0,L|328:141,1,80,10|0,0:2|0:0,0:0:0:0:
209,62,43145,2,0,L|101:78,1,80,2|2,1:2|3:2,0:0:0:0:
108,186,43465,2,0,L|0:202,1,80,8|0,0:0|0:0,0:0:0:0:
191,281,43785,5,2,1:2:0:0:
108,186,43945,1,0,0:0:0:0:
191,281,44105,1,8,0:0:0:0:
276,184,44265,1,2,0:0:0:0:
191,281,44425,2,0,L|206:378,1,80,0|0,0:0|0:0,0:0:0:0:
108,186,44745,1,8,0:0:0:0:
255,101,44905,6,0,P|342:133|358:201,1,160,4|2,1:0|1:2,0:0:0:0:
239,314,45385,1,2,1:2:0:0:
276,184,45545,1,2,1:2:0:0:
189,113,45705,1,2,1:2:0:0:
324,274,45865,1,2,1:2:0:0:
187,238,46025,1,2,1:2:0:0:
383,152,46185,1,2,1:2:0:0:
209,146,46345,5,6,1:0:0:0:
331,236,46505,1,0,1:0:0:0:
203,59,46665,1,8,0:0:0:0:
203,59,46825,6,0,P|125:117|137:194,1,160,2|0,1:0|1:0,0:0:0:0:
248,322,47305,1,0,1:0:0:0:
331,236,47465,2,0,P|316:162|297:47,1,160,4|0,1:0|3:0,0:0:0:0:
427,205,47945,1,0,3:0:0:0:
342,329,48105,5,0,3:0:0:0:
202,213,48265,1,0,3:0:0:0:
348,134,48425,1,0,3:0:0:0:
269,277,48585,1,0,3:0:0:0:
198,125,48745,1,2,0:0:0:0:
422,79,48905,6,0,P|440:128|427:182,1,88.000002685547,6|0,1:2|0:0,0:0:0:0:
310,230,49225,1,8,0:0:0:0:
471,278,49385,2,0,L|383:283,1,88.000002685547,2|2,0:0|1:2,0:0:0:0:
300,320,49705,1,0,0:0:0:0:
392,190,49865,1,10,0:0:0:0:
228,264,50025,6,0,P|154:268|101:177,1,176.000005371094,0|0,0:0|0:0,0:0:0:0:
243,87,50505,1,8,0:0:0:0:
228,264,50665,2,0,P|225:316|198:362,1,88.000002685547,2|2,0:0|1:2,0:0:0:0:
154,201,50985,1,2,0:0:0:0:
310,162,51145,1,8,0:0:0:0:
151,106,51305,1,0,0:0:0:0:
313,257,51465,6,0,L|409:243,1,88.000002685547,2|0,1:0|0:0,0:0:0:0:
310,162,51785,1,8,0:0:0:0:
232,299,51945,2,0,L|199:380,1,88.000002685547,2|2,0:0|1:2,0:0:0:0:
310,344,52265,1,0,0:0:0:0:
233,211,52425,2,0,L|178:141,1,88.000002685547,10|0,0:0|0:0,0:0:0:0:
153,253,52745,5,2,1:2:0:0:
313,257,52905,2,0,P|362:245|401:224,1,88.000002685547,0|8,0:0|0:0,0:0:0:0:
191,135,53225,2,0,P|123:133|35:211,1,176.000005371094,2|2,0:0|0:0,0:0:0:0:
108,352,53705,1,10,0:0:0:0:
274,311,53865,6,0,B|346:280|369:346|452:306,1,176.000005371094,10|0,0:1|0:0,0:0:0:0:
509,123,54345,1,8,0:0:0:0:
404,233,54505,1,2,0:0:0:0:
309,102,54665,2,0,P|308:57|326:13,1,88.000002685547,2|2,1:2|0:0,0:0:0:0:
441,58,54985,1,8,0:0:0:0:
361,171,55145,6,0,B|281:220|271:141|176:202,1,176.000005371094,10|0,0:1|0:0,0:0:0:0:
309,102,55625,1,8,0:0:0:0:
250,269,55785,1,2,0:0:0:0:
131,137,55945,1,2,1:2:0:0:
281,187,56105,1,2,0:0:0:0:
111,223,56265,2,0,P|75:231|16:222,1,88.000002685547,10|0,0:0|0:0,0:0:0:0:
214,80,56585,6,0,P|305:82|405:144,1,176.000005371094,2|8,1:0|0:0,0:0:0:0:
298,304,57065,2,0,P|207:302|107:240,1,176.000005371094,2|2,0:0|0:0,0:0:0:0:
368,150,57545,6,0,P|366:241|304:341,1,176.000005371094,10|0,0:1|1:0,0:0:0:0:
144,234,58025,2,0,P|146:143|208:43,1,176.000005371094,2|0,0:1|0:0,0:0:0:0:
351,30,58505,1,2,1:0:0:0:
302,172,58665,1,0,0:0:0:0:
258,15,58825,1,8,0:0:0:0:
435,75,58985,1,8,0:0:0:0:
449,258,59145,6,0,P|413:279|359:282,1,88.000002685547,4|2,1:0|0:0,0:0:0:0:
286,245,59465,1,8,0:0:0:0:
128,221,59625,2,0,P|166:199|210:196,1,88.000002685547,2|2,0:0|1:0,0:0:0:0:
298,331,59945,1,0,0:0:0:0:
388,201,60105,1,8,0:0:0:0:
238,187,60265,2,0,L|146:172,1,88.000002685547,2|0,0:1|1:0,0:0:0:0:
47,287,60585,5,2,0:0:0:0:
64,133,60745,1,8,0:0:0:0:
143,268,60905,1,2,0:0:0:0:
0,204,61065,1,2,1:0:0:0:
151,172,61225,1,0,0:0:0:0:
109,349,61385,2,0,P|71:371|15:368,1,88.000002685547,8|2,0:0|0:1,0:0:0:0:
225,271,61705,6,0,L|327:283,1,88.000002685547,0|2,1:0|0:0,0:0:0:0:
412,166,62025,1,8,0:0:0:0:
461,308,62185,1,2,0:0:0:0:
312,281,62345,1,2,1:0:0:0:
345,104,62505,1,0,0:0:0:0:
396,247,62665,1,8,0:0:0:0:
247,220,62825,2,0,L|147:207,1,88.000002685547,2|0,0:1|1:0,0:0:0:0:
79,259,63145,5,2,0:0:0:0:
213,137,63305,1,8,0:0:0:0:
167,309,63465,1,2,0:0:0:0:
49,177,63625,1,2,1:0:0:0:
210,224,63785,1,0,0:0:0:0:
92,343,63945,2,0,P|43:339|7:309,1,88.000002685547,8|2,0:0|0:1,0:0:0:0:
254,299,64265,6,0,B|339:267|342:335|435:297,1,176.000005371094,2|8,1:2|0:0,0:0:0:0:
298,375,64745,1,2,0:0:0:0:
384,222,64905,2,0,P|393:175|385:131,1,88.000002685547,2|0,1:2|0:0,0:0:0:0:
215,178,65225,2,0,L|302:175,1,88.000002685547,10|0,0:0|0:0,0:0:0:0:
464,41,65545,6,0,L|289:47,1,176.000005371094,2|8,1:0|0:0,0:0:0:0:
236,207,66025,1,2,0:0:0:0:
127,101,66185,2,0,P|100:49|104:4,1,88.000002685547,2|2,1:2|0:0,0:0:0:0:
263,180,66505,2,0,L|254:272,1,88.000002685547,10|0,0:0|0:0,0:0:0:0:
89,170,66825,6,0,P|38:111|26:-2,1,176.000005371094,2|8,1:0|0:0,0:0:0:0:
193,135,67305,1,2,1:0:0:0:
146,289,67465,2,0,L|47:277,1,88.000002685547,8|8,0:0|0:0,0:0:0:0:
298,247,67785,6,0,B|433:227|433:227|396:263,1,176.000005371094,2|8,1:0|0:0,0:0:0:0:
236,382,68265,2,0,L|149:372,1,88.000002685547,10|0,0:1|1:0,0:0:0:0:
47,277,68585,1,0,1:0:0:0:
226,216,68745,5,8,1:0:0:0:
149,372,68905,1,8,1:0:0:0:
16,187,69065,1,10,1:0:0:0:
147,291,69225,1,10,1:0:0:0:
210,119,69385,6,0,L|306:111,1,88.000002685547,4|0,1:0|0:0,0:0:0:0:
413,47,69705,1,8,0:0:0:0:
482,167,69865,2,0,P|448:186|381:180,1,88.000002685547,2|2,0:0|1:2,0:0:0:0:
332,34,70185,1,0,0:0:0:0:
495,78,70345,1,10,0:0:0:0:
512,243,70505,6,0,P|430:267|337:251,1,176.000005371094,8|0,0:0|0:0,0:0:0:0:
249,149,70985,1,8,0:0:0:0:
174,282,71145,2,0,P|163:320|170:378,1,88.000002685547,2|2,0:0|1:2,0:0:0:0:
249,149,71465,1,2,0:0:0:0:
83,187,71625,1,8,0:0:0:0:
134,38,71785,1,0,0:0:0:0:
249,149,71945,6,0,P|248:194|223:233,1,88.000002685547,2|0,1:0|0:0,0:0:0:0:
164,165,72265,1,8,0:0:0:0:
331,163,72425,2,0,P|364:141|416:141,1,88.000002685547,2|2,0:0|1:2,0:0:0:0:
391,227,72745,1,0,0:0:0:0:
305,85,72905,2,0,P|270:66|245:23,1,88.000002685547,10|0,0:0|0:0,0:0:0:0:
333,5,73225,5,2,1:2:0:0:
249,149,73385,2,0,L|159:138,1,88.000002685547,0|8,0:0|0:0,0:0:0:0:
315,244,73706,2,0,L|490:220,1,176.000005371094,2|0,0:0|0:0,0:0:0:0:
379,60,74185,1,10,0:0:0:0:
392,159,74345,6,0,B|400:207|400:207|385:256|385:256|399:335,1,176.000005371094,10|0,0:1|0:0,0:0:0:0:
476,258,74825,1,8,0:0:0:0:
313,196,74985,2,0,P|272:194|205:211,1,88.000002685547,2|2,0:0|1:2,0:0:0:0:
126,289,75305,1,2,0:0:0:0:
74,155,75465,1,10,0:0:0:0:
215,290,75625,2,0,P|222:330|214:384,1,88.000002685547,10|2,0:1|1:2,0:0:0:0:
150,204,75945,5,0,0:0:0:0:
277,107,76105,1,8,0:0:0:0:
115,38,76265,1,2,0:0:0:0:
277,107,76425,2,0,L|370:103,1,88.000002685547,2|2,1:2|0:0,0:0:0:0:
150,204,76745,2,0,L|59:202,1,88.000002685547,10|0,0:0|0:0,0:0:0:0:
229,26,77065,6,0,L|408:22,1,176.000005371094,2|8,1:0|0:0,0:0:0:0:
193,124,77545,2,0,L|15:119,1,176.000005371094,2|2,0:0|0:0,0:0:0:0:
250,211,78025,6,0,B|301:217|301:217|356:201|356:201|429:210,1,176.000005371094,10|0,0:1|1:0,0:0:0:0:
214,309,78505,2,0,B|162:300|162:300|110:316|110:316|34:304,1,176.000005371094,2|0,0:1|0:0,0:0:0:0:
217,201,78985,5,12,0:0:0:0:
366,338,79225,5,12,0:0:0:0:
424,132,79465,5,12,0:0:0:0:
280,284,79625,6,0,L|192:290,1,88.000002685547,4|0,1:2|0:0,0:0:0:0:
304,195,79945,2,0,L|217:201,1,88.000002685547,10|2,0:0|0:0,0:0:0:0:
106,106,80265,1,2,1:2:0:0:
50,238,80425,2,0,P|42:280|54:327,1,88.000002685547,0|10,0:0|0:0,0:0:0:0:
131,192,80745,1,0,0:0:0:0:
280,284,80905,6,0,B|327:264|380:290|380:290|396:260|436:249,1,176.000005371094,2|8,1:0|0:0,0:0:0:0:
456,101,81385,2,0,B|409:121|356:95|356:95|340:125|294:140,1,176.000005371094,2|0,0:1|0:0,0:0:0:0:
394,285,81865,2,0,P|399:232|387:194,1,88.000002685547,10|10,0:1|0:0,0:0:0:0:
224,95,82185,6,0,P|213:186|247:272,1,176.000005371094,2|10,1:2|0:0,0:0:0:0:
166,370,82665,1,0,0:0:0:0:
263,248,82825,2,0,L|361:234,1,88.000002685547,0|2,1:0|0:0,0:0:0:0:
166,370,83145,2,0,L|70:358,1,88.000002685547,10|0,0:0|0:0,0:0:0:0:
206,178,83465,6,0,L|304:164,1,88.000002685547,2|2,1:0|0:0,0:0:0:0:
356,223,83785,1,8,0:0:0:0:
175,286,83945,2,0,L|-2:265,1,176.000005371094,2|0,0:1|0:0,0:0:0:0:
74,114,84425,2,0,L|167:102,1,88.000002685547,10|10,0:1|0:0,0:0:0:0:
351,142,84745,6,0,P|279:201|205:177,1,176.000005371094,2|8,1:2|0:0,0:0:0:0:
268,112,85225,1,2,0:0:0:0:
370,254,85385,2,0,L|481:253,1,88.000002685547,0|0,1:0|0:0,0:0:0:0:
258,330,85705,2,0,L|149:330,1,88.000002685547,10|0,0:0|0:0,0:0:0:0:
324,177,86025,6,0,L|504:172,1,176.000005371094,2|10,1:2|0:0,0:0:0:0:
380,339,86505,1,0,0:0:0:0:
269,246,86665,2,0,P|219:243|173:259,1,88.000002685547,2|0,1:0|0:0,0:0:0:0:
101,376,86985,1,10,0:0:0:0:
113,73,87305,5,12,1:0:0:0:
255,200,87465,1,0,1:0:0:0:
268,55,87625,1,0,1:0:0:0:
123,202,87785,1,6,1:0:0:0:
123,202,88105,1,0,1:0:0:0:
238,38,88265,5,12,1:0:0:0:
396,114,88425,1,0,1:0:0:0:
255,200,88585,1,0,1:0:0:0:
346,4,88745,1,6,1:0:0:0:
346,4,89065,1,0,1:2:0:0:
477,124,89225,5,0,0:0:0:0:
472,151,89305,1,0,0:0:0:0:
467,178,89385,1,0,0:0:0:0:
462,205,89465,1,0,0:0:0:0:
457,232,89545,2,0,L|452:266,8,20,2|0|0|0|0|0|0|0|0,0:1|0:0|0:0|0:0|0:0|0:0|0:0|0:0|0:0,0:0:0:0:
84,289,94665,5,0,0:0:0:0:
166,333,94825,2,0,B|226:348|226:300|305:329,1,120.000004577637,0|0,0:0|0:0,0:0:0:0:
355,209,95305,1,0,1:0:0:0:
439,314,95465,1,0,0:0:0:0:
501,156,95625,2,0,P|507:108|500:80,1,60.0000022888184,2|0,1:2|0:0,0:0:0:0:
441,230,95945,1,0,1:0:0:0:
299,128,96105,6,0,L|439:120,1,120.000004577637,2|0,0:2|0:0,0:0:0:0:
254,18,96585,1,0,1:0:0:0:
166,122,96745,2,0,P|159:162|165:195,1,60.0000022888184,2|0,0:2|1:0,0:0:0:0:
229,292,97065,2,0,P|236:252|230:219,1,60.0000022888184,2|0,0:2|1:0,0:0:0:0:
97,84,97385,6,0,P|81:156|90:218,1,120.000004577637,2|2,0:2|0:2,0:0:0:0:
229,292,97865,1,0,1:0:0:0:
84,331,98025,1,2,0:2:0:0:
217,208,98185,2,0,P|264:213|292:235,1,60.0000022888184,0|2,1:0|0:2,0:0:0:0:
366,314,98505,1,0,1:0:0:0:
453,220,98665,6,0,L|446:77,1,120.000004577637,2|0,0:2|0:0,0:0:0:0:
280,108,99145,1,0,1:0:0:0:
364,198,99305,2,0,L|360:126,1,60.0000022888184,2|0,0:2|0:0,0:0:0:0:
282,48,99625,2,0,L|280:108,1,60.0000022888184,0|2,0:0|1:2,0:0:0:0:
225,188,99945,1,0,0:0:0:0:
80,203,100105,6,0,B|125:211|125:211|165:199|165:199|206:208,1,120.000004577637,2|0,1:2|1:0,0:0:0:0:
51,222,100585,1,0,0:0:0:0:
118,122,100745,2,0,L|117:63,1,60.0000022888184,2|0,1:2|0:0,0:0:0:0:
167,285,101065,2,0,L|169:345,1,60.0000022888184,0|2,1:0|0:2,0:0:0:0:
225,188,101385,5,0,0:0:0:0:
345,293,101545,2,0,P|305:314|273:312,1,60.0000022888184,0|0,0:0|1:0,0:0:0:0:
365,200,101865,2,0,B|385:197|406:184|406:184|439:212|479:213,1,120.000004577637,2|0,0:2|0:0,0:0:0:0:
345,293,102345,1,2,1:2:0:0:
354,121,102505,2,0,P|349:77|353:48,1,60.0000022888184,0|0,0:0|1:0,0:0:0:0:
145,96,102825,6,0,L|285:98,1,120.000004577637,2|0,0:2|0:0,0:0:0:0:
117,71,103305,2,0,L|87:18,1,60.0000022888184,2|0,1:2|0:0,0:0:0:0:
112,111,103625,2,0,L|81:162,1,60.0000022888184,2|0,1:2|0:0,0:0:0:0:
28,86,103945,5,2,1:2:0:0:
173,186,104105,1,2,1:2:0:0:
190,7,104265,1,2,1:2:0:0:
28,103,104425,5,2,1:2:0:0:
188,177,104585,1,2,1:2:0:0:
174,0,104745,1,2,1:2:0:0:
31,121,104905,5,10,1:2:0:0:
202,165,105065,1,8,0:2:0:0:
60,289,105225,6,0,L|148:298,1,80,4|0,1:0|0:0,0:0:0:0:
289,349,105545,2,0,L|200:358,1,80,10|0,0:0|0:0,0:0:0:0:
39,207,105865,2,0,L|130:217,1,80,2|0,0:0|1:2,0:0:0:0:
244,113,106185,1,8,0:0:0:0:
328,248,106345,6,0,P|274:296|186:271,1,160,2|0,0:0|0:0,0:0:0:0:
244,113,106825,1,10,0:0:0:0:
381,177,106985,2,0,L|468:173,1,80,2|0,0:0|0:0,0:0:0:0:
244,113,107305,2,0,L|150:111,1,80,0|10,1:0|0:1,0:0:0:0:
328,248,107625,6,0,B|399:284|399:284|375:366,1,160,2|2,3:2|0:0,0:0:0:0:
165,298,108105,1,8,0:0:0:0:
302,325,108265,1,0,0:0:0:0:
169,212,108425,2,0,P|114:227|92:255,1,80,2|0,0:0|1:0,0:0:0:0:
203,378,108745,1,8,0:0:0:0:
252,171,108905,6,0,B|264:123|264:123|233:3,1,160,2|2,3:2|0:0,0:0:0:0:
174,121,109385,1,8,0:0:0:0:
342,177,109545,2,0,L|426:166,1,80,2|0,0:0|0:0,0:0:0:0:
174,121,109865,2,0,L|90:110,1,80,0|10,1:0|0:1,0:0:0:0:
244,259,110185,1,2,3:2:0:0:
304,100,110345,6,0,B|355:106|391:67|391:67|463:105,1,160,2|10,1:2|0:0,0:0:0:0:
418,254,110825,1,0,0:0:0:0:
284,339,110985,2,0,L|181:335,1,80,2|0,0:0|1:0,0:0:0:0:
51,286,111305,2,0,L|154:282,1,80,10|0,0:0|0:0,0:0:0:0:
255,177,111625,5,2,1:2:0:0:
364,295,111785,2,0,P|374:341|357:394,1,80,2|8,0:0|0:0,0:0:0:0:
244,258,112105,2,0,L|233:81,1,160,2|0,0:0|1:0,0:0:0:0:
328,9,112585,2,0,L|323:108,1,80,10|2,0:1|0:0,0:0:0:0:
448,228,112905,5,4,1:0:0:0:
369,271,113065,1,0,3:0:0:0:
366,183,113225,1,0,3:0:0:0:
445,140,113385,1,0,3:0:0:0:
448,228,113545,5,0,3:0:0:0:
369,271,113705,1,0,3:0:0:0:
366,183,113865,1,0,3:0:0:0:
448,228,114025,1,0,3:0:0:0:
287,226,114185,5,0,1:0:0:0:
445,140,114345,1,0,1:0:0:0:
450,315,114505,1,0,1:0:0:0:
287,226,114665,1,0,1:0:0:0:
287,226,114985,5,8,0:0:0:0:
114,274,115145,1,8,0:0:0:0:
292,317,115305,1,0,1:0:0:0:
203,181,115465,6,0,B|182:135|206:85|206:85|222:107|222:129,1,120.000004577637,2|0,1:2|0:0,0:0:0:0:
287,226,115945,1,0,1:0:0:0:
152,290,116105,1,8,0:0:0:0:
152,290,116265,2,0,P|96:307|30:280,1,120.000004577637,0|0,0:0|1:0,0:0:0:0:
1,144,116745,6,0,P|57:127|121:155,1,120.000004577637,0|2,0:0|0:0,0:0:0:0:
216,257,117225,1,0,0:0:0:0:
290,88,117385,1,8,0:0:0:0:
192,169,117545,2,0,L|326:176,1,120.000004577637,0|0,1:0|0:0,0:0:0:0:
492,124,118025,5,2,1:2:0:0:
492,124,118185,2,0,P|433:100|376:136,1,120.000004577637,0|0,0:0|1:0,0:0:0:0:
341,302,118665,1,8,0:0:0:0:
341,302,118825,2,0,P|391:262|384:198,1,120.000004577637,0|0,0:0|1:0,0:0:0:0:
258,84,119305,6,0,P|266:147|327:176,1,120.000004577637,0|2,0:0|0:0,0:0:0:0:
391,210,119785,1,0,0:0:0:0:
229,243,119945,1,8,0:0:0:0:
368,226,120105,2,0,L|221:219,1,120.000004577637,0|0,1:0|3:0,0:0:0:0:
86,126,120585,6,0,L|78:39,1,80,2|0,1:2|0:0,0:0:0:0:
134,203,120905,2,0,L|126:290,1,80,10|0,0:2|0:0,0:0:0:0:
178,119,121225,6,0,L|257:126,1,80,2|2,1:2|3:2,0:0:0:0:
414,71,121545,2,0,L|334:78,1,80,8|0,0:0|0:0,0:0:0:0:
210,204,121865,5,2,1:2:0:0:
256,38,122025,1,0,0:0:0:0:
381,156,122185,2,0,L|460:163,1,80,8|2,0:0|0:0,0:0:0:0:
294,263,122505,1,0,0:0:0:0:
272,123,122665,1,0,0:0:0:0:
382,249,122825,1,8,0:0:0:0:
206,277,122985,6,0,B|125:299|134:231|39:258,1,160,4|2,1:0|1:2,0:0:0:0:
90,65,123465,1,2,1:2:0:0:
182,192,123625,1,2,1:2:0:0:
182,35,123785,1,2,1:2:0:0:
90,161,123945,1,2,1:2:0:0:
238,113,124105,1,2,1:2:0:0:
90,65,124265,1,2,1:2:0:0:
108,256,124425,5,6,1:0:0:0:
159,113,124585,1,0,1:0:0:0:
7,111,124745,1,8,0:0:0:0:
46,317,124905,2,0,P|127:338|190:280,1,160,2|0,1:0|1:0,0:0:0:0:
283,178,125385,1,0,1:0:0:0:
399,302,125545,6,0,B|319:279|319:279|288:302|288:302|271:262,1,160,4|0,1:0|3:0,0:0:0:0:
221,126,126025,1,0,3:0:0:0:
371,148,126185,1,0,3:0:0:0:
273,266,126345,1,0,3:0:0:0:
146,115,126505,5,0,3:0:0:0:
296,137,126665,1,0,3:0:0:0:
198,255,126825,1,2,0:0:0:0:
71,104,126985,6,0,L|90:21,1,80,6|0,1:2|0:0,0:0:0:0:
142,204,127305,1,8,0:0:0:0:
142,204,127465,2,0,L|33:195,1,80,2|2,0:0|1:2,0:0:0:0:
273,233,127785,1,0,0:0:0:0:
181,308,127945,1,10,0:0:0:0:
273,233,128105,6,0,P|261:167|249:71,1,160,8|0,0:0|0:0,0:0:0:0:
343,96,128585,1,8,0:0:0:0:
163,117,128745,2,0,L|58:106,1,80,2|2,0:0|1:2,0:0:0:0:
120,271,129065,1,2,0:0:0:0:
208,202,129225,2,0,P|220:239|227:279,1,80,8|0,0:0|0:0,0:0:0:0:
163,117,129545,6,0,P|266:103|349:87,1,160,2|8,1:0|0:0,0:0:0:0:
441,52,130025,2,0,L|430:156,1,80,2|2,0:0|1:2,0:0:0:0:
319,260,130345,1,0,0:0:0:0:
319,260,130505,2,0,L|310:180,1,80,10|0,0:0|0:0,0:0:0:0:
334,88,130825,6,0,L|254:86,1,80,2|0,1:2|0:0,0:0:0:0:
398,221,131145,2,0,L|478:223,1,80,8|2,0:0|0:0,0:0:0:0:
332,327,131465,1,2,1:2:0:0:
302,172,131625,1,2,0:0:0:0:
398,221,131785,1,10,0:0:0:0:
225,272,131945,6,0,P|143:260|61:252,1,160,10|0,0:1|0:0,0:0:0:0:
148,100,132425,2,0,P|178:125|207:158,1,80,8|2,0:0|0:0,0:0:0:0:
54,118,132745,2,0,P|60:78|74:37,1,80,2|2,1:2|0:0,0:0:0:0:
118,197,133065,1,8,0:0:0:0:
267,120,133225,6,0,P|325:172|296:270,1,160,10|0,0:1|0:0,0:0:0:0:
168,128,133705,2,0,L|184:37,1,80,8|2,0:0|0:0,0:0:0:0:
240,203,134025,1,2,1:2:0:0:
93,222,134185,1,2,0:0:0:0:
240,203,134345,2,0,L|344:192,1,80,10|0,0:0|0:0,0:0:0:0:
227,75,134665,6,0,P|137:79|59:59,1,160,2|8,1:0|0:0,0:0:0:0:
352,32,135145,1,2,0:0:0:0:
352,32,135305,2,0,L|366:137,1,80,2|2,1:2|0:0,0:0:0:0:
196,211,135625,1,10,0:1:0:0:
196,211,135785,2,0,L|89:204,1,80,0|0,0:0|1:0,0:0:0:0:
338,318,136105,6,0,P|365:243|355:165,1,160,2|0,0:1|0:0,0:0:0:0:
196,211,136585,1,2,1:0:0:0:
306,109,136745,1,0,0:0:0:0:
196,211,136905,1,8,0:0:0:0:
306,109,137065,1,8,0:0:0:0:
338,277,137225,6,0,L|249:285,1,80,4|2,1:0|0:0,0:0:0:0:
120,154,137545,2,0,P|107:191|102:231,1,80,8|2,0:0|0:0,0:0:0:0:
226,120,137865,1,2,1:0:0:0:
135,29,138025,1,0,0:0:0:0:
226,120,138185,1,8,0:0:0:0:
226,120,138345,6,0,L|411:101,1,160,2|2,0:1|0:0,0:0:0:0:
345,287,138825,2,0,P|333:242|334:204,1,80,8|2,0:0|0:0,0:0:0:0:
456,251,139145,1,2,1:0:0:0:
402,344,139305,1,0,0:0:0:0:
251,266,139465,1,8,0:0:0:0:
251,266,139625,2,0,L|263:163,1,80,2|0,0:1|1:0,0:0:0:0:
432,129,139945,5,2,0:0:0:0:
432,129,140105,2,0,L|353:100,1,80,8|2,0:0|0:0,0:0:0:0:
188,166,140425,1,2,1:0:0:0:
330,189,140585,1,0,0:0:0:0:
273,79,140745,1,8,0:0:0:0:
188,166,140905,6,0,B|139:188|139:188|25:160,1,160,2|2,0:1|0:0,0:0:0:0:
219,59,141385,1,8,0:0:0:0:
79,52,141545,1,2,0:0:0:0:
219,59,141705,2,0,L|209:158,1,80,2|0,1:0|0:0,0:0:0:0:
295,239,142025,1,8,0:0:0:0:
133,317,142185,1,2,0:1:0:0:
295,239,142345,6,0,P|376:233|429:313,1,160,2|8,1:2|0:0,0:0:0:0:
236,346,142825,1,2,0:0:0:0:
172,240,142985,2,0,L|209:138,1,80,2|0,1:2|0:0,0:0:0:0:
320,78,143305,2,0,P|280:76|240:71,1,80,10|0,0:0|0:0,0:0:0:0:
388,177,143625,5,2,1:0:0:0:
400,50,143785,1,0,0:0:0:0:
388,177,143945,2,0,P|427:175|467:170,1,80,8|2,0:0|0:0,0:0:0:0:
219,88,144265,2,0,P|227:127|237:165,1,80,2|2,1:2|0:0,0:0:0:0:
261,338,144585,1,10,0:0:0:0:
327,232,144745,1,0,0:0:0:0:
132,145,144905,6,0,P|98:179|130:291,1,160,2|8,1:0|0:0,0:0:0:0:
245,276,145385,2,0,L|354:261,1,80,2|8,1:0|0:0,0:0:0:0:
286,108,145705,1,8,0:0:0:0:
286,108,145865,2,0,L|206:97,1,80,2|8,1:0|0:0,0:0:0:0:
358,202,146185,5,8,0:0:0:0:
245,276,146345,2,0,L|261:376,1,80,10|0,0:1|1:0,0:0:0:0:
398,300,146665,1,0,1:0:0:0:
286,108,146825,5,8,1:0:0:0:
245,276,146985,1,8,1:0:0:0:
358,202,147145,1,10,1:0:0:0:
154,115,147305,1,10,1:0:0:0:
81,284,147465,6,0,L|164:273,1,80,4|0,1:0|0:0,0:0:0:0:
336,199,147785,1,8,0:0:0:0:
336,199,147945,2,0,L|253:188,1,80,2|2,0:0|1:2,0:0:0:0:
348,117,148265,1,0,0:0:0:0:
433,242,148425,1,10,0:0:0:0:
330,358,148585,6,0,P|336:302|334:187,1,160,8|0,0:0|0:0,0:0:0:0:
180,146,149065,1,8,0:0:0:0:
180,146,149225,2,0,P|176:200|181:235,1,80,2|2,0:0|1:2,0:0:0:0:
243,322,149545,1,2,0:0:0:0:
257,191,149705,1,8,0:0:0:0:
243,322,149865,1,0,0:0:0:0:
43,301,150025,6,0,L|128:293,1,80,2|0,1:0|0:0,0:0:0:0:
251,290,150345,1,8,0:0:0:0:
416,206,150505,2,0,L|240:189,1,160,2|0,0:0|0:0,0:0:0:0:
99,191,150985,2,0,P|133:144|147:102,1,80,10|0,0:0|0:0,0:0:0:0:
279,50,151305,6,0,P|296:86|321:117,1,80,2|0,1:2|0:0,0:0:0:0:
416,206,151625,1,8,0:0:0:0:
256,190,151785,1,2,0:0:0:0:
409,122,151945,1,2,0:0:0:0:
382,288,152105,2,0,L|303:293,1,80,2|10,0:0|0:0,0:0:0:0:
196,283,152425,1,10,0:1:0:0:
252,110,152585,6,0,P|255:185|260:206,1,80,2|0,1:2|0:0,0:0:0:0:
192,362,152905,2,0,P|197:322|195:282,1,80,8|2,0:0|0:0,0:0:0:0:
121,168,153225,1,2,1:2:0:0:
121,168,153385,1,2,0:0:0:0:
115,317,153545,1,10,0:0:0:0:
38,138,153705,6,0,P|77:92|177:101,1,160,10|0,0:1|0:0,0:0:0:0:
309,179,154185,2,0,P|256:180|212:159,1,80,8|2,0:0|0:0,0:0:0:0:
406,100,154505,2,0,L|409:212,1,80,2|2,1:2|0:0,0:0:0:0:
295,308,154825,1,10,0:0:0:0:
309,179,154985,1,0,0:0:0:0:
480,295,155145,6,0,P|404:286|311:294,1,160,2|8,1:0|0:0,0:0:0:0:
157,343,155625,1,2,0:0:0:0:
157,343,155785,2,0,P|202:281|216:249,1,80,2|2,1:2|0:0,0:0:0:0:
238,113,156105,2,0,P|268:183|289:211,1,80,10|0,0:1|0:0,0:0:0:0:
281,45,156425,6,0,P|222:36|184:54,1,80,0|2,1:0|0:1,0:0:0:0:
333,123,156745,1,8,0:0:0:0:
164,172,156905,1,0,0:0:0:0:
364,217,157065,5,12,0:0:0:0:
248,352,157305,5,12,0:0:0:0:
184,190,157545,5,12,0:0:0:0:
350,87,157705,6,0,P|349:153|355:255,1,160,4|10,1:2|0:0,0:0:0:0:
248,352,158185,1,2,0:0:0:0:
211,212,158345,2,0,P|241:181|259:128,1,80,2|0,1:2|0:0,0:0:0:0:
113,215,158665,2,0,P|124:256|161:298,1,80,10|0,0:0|0:0,0:0:0:0:
158,122,158985,6,0,P|215:55|314:67,1,160,2|8,1:0|0:0,0:0:0:0:
415,156,159465,2,0,P|333:149|238:148,1,160,2|0,0:1|0:0,0:0:0:0:
113,215,159945,2,0,P|153:215|215:206,1,80,10|10,0:1|0:0,0:0:0:0:
338,345,160265,6,0,B|325:306|337:266|337:266|351:228|327:159,1,160,2|10,1:2|0:0,0:0:0:0:
357,55,160745,1,2,0:0:0:0:
413,174,160905,2,0,P|421:224|416:267,1,80,0|0,1:0|0:0,0:0:0:0:
258,357,161225,2,0,P|250:307|255:264,1,80,10|0,0:0|0:0,0:0:0:0:
354,125,161545,6,0,B|307:148|307:148|165:154,1,160,2|8,1:0|0:0,0:0:0:0:
97,305,162025,2,0,B|144:282|144:282|286:276,1,160,2|0,0:1|0:0,0:0:0:0:
400,343,162505,2,0,P|385:270|387:204,1,120,10|0,0:1|0:0,0:0:0:0:
425,143,162825,6,0,B|362:115|310:169|310:169|311:124,1,160,2|8,1:2|0:0,0:0:0:0:
111,116,163305,2,0,B|174:144|226:90|226:90|225:135,1,160,2|0,0:0|0:0,0:0:0:0:
257,312,163785,2,0,L|247:212,1,80,10|0,0:0|0:0,0:0:0:0:
310,135,164105,5,2,1:2:0:0:
336,276,164265,1,0,0:0:0:0:
444,180,164425,1,10,0:0:0:0:
366,198,164585,1,0,0:0:0:0:
430,292,164745,1,2,1:0:0:0:
393,107,164905,1,0,0:0:0:0:
249,232,165065,2,0,P|201:241|106:217,1,120,10|0,0:0|0:0,0:0:0:0:
58,181,165385,5,12,1:0:0:0:
218,136,165545,1,0,1:0:0:0:
91,91,165705,1,0,1:0:0:0:
131,229,165865,2,0,P|137:269|142:329,1,80,6|0,1:0|0:0,0:0:0:0:
249,232,166185,5,0,1:0:0:0:
387,297,166345,1,12,1:0:0:0:
232,326,166505,1,0,1:0:0:0:
361,199,166665,1,0,1:0:0:0:
216,162,166825,2,0,P|165:162|124:149,1,80,6|0,1:0|0:0,0:0:0:0:
283,80,167145,1,0,1:2:0:0:
311,256,167305,5,0,1:0:0:0:
379,119,167465,1,0,1:0:0:0:
306,275,167625,1,0,1:0:0:0:
286,110,167785,1,0,1:0:0:0:
388,286,167945,6,0,P|336:351|245:330,1,160,2|10,1:0|0:1,0:0:0:0:
200,217,168425,2,0,P|198:178|186:117,1,80,0|0,0:0|0:0,0:0:0:0:
133,282,168745,1,2,1:1:0:0:
289,226,168905,2,0,L|378:212,1,80,8|0,0:0|0:0,0:0:0:0:
329,88,169225,6,0,P|280:81|182:156,1,160,2|10,1:0|0:1,0:0:0:0:
146,260,169705,1,0,0:0:0:0:
103,143,169865,2,0,L|94:61,1,80,0|0,0:0|1:0,0:0:0:0:
168,231,170185,2,0,L|159:310,1,80,10|2,0:1|0:0,0:0:0:0:
63,245,170505,5,0,1:0:0:0:
190,137,170665,2,0,L|280:169,1,80,2|8,0:1|0:0,0:0:0:0:
337,286,170985,1,0,0:0:0:0:
426,132,171145,1,2,0:1:0:0:
426,132,171305,2,0,P|366:157|340:180,1,80,0|8,1:0|0:0,0:0:0:0:
307,271,171625,1,2,0:1:0:0:
187,201,171785,6,0,B|172:158|187:120|187:120|202:82|168:13,1,160,0|10,0:0|0:1,0:0:0:0:
260,164,172265,1,0,0:0:0:0:
109,84,172425,2,0,L|7:91,1,80,0|0,0:0|1:0,0:0:0:0:
187,201,172745,2,0,P|219:182|256:123,1,80,10|2,0:1|0:0,0:0:0:0:
83,193,173065,6,0,L|97:359,1,160,2|10,1:0|0:1,0:0:0:0:
222,356,173545,1,0,0:0:0:0:
321,279,173705,2,0,L|331:178,1,80,0|2,0:0|1:0,0:0:0:0:
181,125,174025,2,0,L|192:232,1,80,8|0,0:0|0:0,0:0:0:0:
212,325,174345,5,2,1:0:0:0:
212,325,174505,1,0,0:0:0:0:
356,215,174665,2,0,P|313:214|262:238,1,80,10|0,0:1|0:0,0:0:0:0:
113,302,174985,1,0,0:0:0:0:
113,302,175145,2,0,L|104:207,1,80,0|10,1:0|0:1,0:0:0:0:
151,107,175465,1,2,0:2:0:0:
191,244,175625,5,0,1:0:0:0:
268,147,175785,2,0,L|384:135,1,80,2|8,0:1|0:0,0:0:0:0:
464,48,176105,1,0,0:0:0:0:
464,48,176265,2,0,P|447:105|439:156,1,80,2|0,0:1|1:0,0:0:0:0:
463,229,176585,1,8,0:0:0:0:
324,188,176745,1,2,0:1:0:0:
477,251,176905,6,0,P|492:309|482:360,1,80,0|0,0:0|0:0,0:0:0:0:
402,189,177225,2,0,P|361:181|305:197,1,80,10|0,0:1|0:0,0:0:0:0:
230,274,177545,1,0,0:0:0:0:
230,274,177705,1,0,0:0:0:0:
217,135,177865,2,0,P|169:139|124:155,1,80,10|2,0:1|0:0,0:0:0:0:
123,349,178185,5,2,1:0:0:0:
95,226,178345,1,0,0:0:0:0:
230,274,178505,2,0,B|277:269|277:269|346:291|346:291|405:287,1,160,10|0,0:1|0:0,0:0:0:0:
305,154,178985,2,0,B|258:159|258:159|189:137|189:137|130:141,1,160,2|0,1:0|0:0,0:0:0:0:
274,73,179465,6,0,P|336:52|370:27,1,80,2|0,1:0|0:0,0:0:0:0:
176,63,179785,2,0,P|182:143|186:231,1,160,10|0,0:1|0:0,0:0:0:0:
287,318,180265,1,0,1:0:0:0:
148,304,180425,2,0,P|93:297|43:304,1,80,10|2,0:1|0:0,0:0:0:0:
96,146,180745,1,0,1:0:0:0:
219,227,180905,6,0,B|255:240|289:221|289:221|304:237|304:237|339:217|391:237,1,160,2|0,0:1|0:0,0:0:0:0:
245,142,181385,2,0,P|188:141|160:158,1,80,2|0,0:1|1:0,0:0:0:0:
148,304,181705,1,8,0:0:0:0:
88,158,181865,1,2,0:1:0:0:
88,158,182025,6,0,L|81:61,1,80,0|0,0:0|0:0,0:0:0:0:
219,227,182345,2,0,B|340:220|340:220|293:184,1,160,10|0,0:1|0:0,0:0:0:0:
186,117,182825,1,0,1:0:0:0:
138,260,182985,2,0,P|150:308|149:352,1,80,10|0,0:1|0:0,0:0:0:0:
86,126,183305,6,0,P|94:66|126:26,1,80,2|0,1:0|0:0,0:0:0:0:
225,30,183625,2,0,P|292:21|341:22,1,80,10|0,0:1|0:0,0:0:0:0:
401,114,183945,1,0,0:0:0:0:
261,146,184105,2,0,P|194:137|145:138,1,80,2|8,1:0|0:0,0:0:0:0:
368,40,184425,1,0,0:0:0:0:
329,190,184585,6,0,P|317:244|397:322,1,160,2|10,1:0|0:1,0:0:0:0:
270,343,185065,2,0,P|226:330|172:335,1,80,0|0,0:0|0:0,0:0:0:0:
53,354,185385,1,0,1:0:0:0:
163,245,185545,1,10,0:1:0:0:
57,140,185705,1,2,0:0:0:0:
53,324,185865,5,2,1:0:0:0:
163,245,186025,2,0,P|228:255|266:257,1,80
312,336,186345,2,0,P|345:263|308:180,1,160,0|2,0:0|1:2,0:0:0:0:
413,145,186825,2,0,P|417:190|432:260,1,80
470,319,187145,5,8,0:0:0:0:
272,267,187305,1,8,0:0:0:0:
423,127,187465,1,8,0:0:0:0:
449,340,187625,1,0,1:0:0:0:
432,358,187945,5,0,1:0:0:0:
406,117,188105,1,0,1:0:0:0:
250,253,188265,1,8,0:0:0:0:
57,109,207625,6,0,P|50:195|93:292,1,160,4|0,1:0|0:0,0:0:0:0:
306,351,208105,2,0,P|330:275|322:196,1,160,4|0,1:0|0:0,0:0:0:0:
193,68,208585,2,0,P|168:143|176:222,1,160,4|0,1:0|0:0,0:0:0:0:
437,312,209065,2,0,P|444:232|420:157,1,160,4|0,1:0|0:0,0:0:0:0:
193,68,209545,6,0,P|150:74|98:77,1,80,4|0,1:0|0:0,0:0:0:0:
23,201,209865,2,0,P|62:203|102:209,1,80,0|0,1:0|0:0,0:0:0:0:
236,277,210185,5,4,1:0:0:0:
169,140,210345,1,0,0:0:0:0:
156,308,210505,1,8,0:0:0:0:
310,246,210665,2,0,P|307:167|311:81,1,160,2|0,0:0|0:0,0:0:0:0:
423,152,211145,1,10,0:0:0:0:
385,294,211305,6,0,P|342:329|234:291,1,160,8|0,0:0|0:0,0:0:0:0:
222,163,211785,1,8,0:0:0:0:
400,153,211945,2,0,L|235:161,1,160,2|2,0:0|0:0,0:0:0:0:
154,255,212425,1,8,0:0:0:0:
167,101,212585,1,0,0:0:0:0:
341,257,212745,6,0,L|252:261,1,80,2|0,1:0|0:0,0:0:0:0:
134,246,213065,1,8,0:0:0:0:
271,340,213225,2,0,B|272:299|272:299|251:230|251:230|249:179,1,160,2|0,0:0|0:0,0:0:0:0:
389,89,213705,2,0,P|348:123|302:136,1,80,10|0,0:0|0:0,0:0:0:0:
167,145,214025,5,2,1:2:0:0:
290,58,214185,1,0,0:0:0:0:
167,145,214345,2,0,P|158:195|178:249,1,80,8|2,0:0|0:0,0:0:0:0:
318,348,214665,2,0,P|327:309|321:270,1,80,2|2,0:0|0:0,0:0:0:0:
217,307,214985,1,10,0:0:0:0:
275,161,215145,6,0,L|434:145,1,160,10|2,0:1|0:0,0:0:0:0:
247,243,215625,1,0,0:0:0:0:
443,225,215785,1,0,0:0:0:0:
318,348,215945,1,2,1:2:0:0:
344,194,216105,1,2,0:0:0:0:
425,345,216265,1,10,0:0:0:0:
247,243,216425,6,0,P|173:252|73:278,1,160,8|0,0:1|0:0,0:0:0:0:
5,155,216905,2,0,P|53:164|92:178,1,80,8|2,0:0|0:0,0:0:0:0:
151,361,217225,1,2,1:2:0:0:
176,212,217385,1,2,0:0:0:0:
151,361,217545,1,10,0:0:0:0:
83,214,217705,1,0,0:0:0:0:
238,286,217865,6,0,P|280:264|342:273,1,80,2|0,1:0|0:0,0:0:0:0:
408,321,218185,1,8,0:0:0:0:
408,321,218345,1,2,0:0:0:0:
353,185,218505,2,0,P|350:137|366:92,1,80,2|2,1:2|0:0,0:0:0:0:
238,286,218825,2,0,P|241:238|225:193,1,80,10|0,0:1|0:0,0:0:0:0:
126,98,219145,6,0,P|78:95|33:111,1,80,0|2,1:0|0:1,0:0:0:0:
65,267,219465,2,0,P|104:270|143:261,1,80,8|0,0:0|0:0,0:0:0:0:
305,102,219785,5,12,0:0:0:0:
326,301,220025,5,12,0:0:0:0:
153,201,220265,5,12,0:0:0:0:
305,102,220425,6,0,L|394:99,1,80,4|0,1:2|0:0,0:0:0:0:
230,157,220745,2,0,B|232:207|232:207|216:268|216:268|218:325,1,160,10|2,0:0|1:2,0:0:0:0:
313,372,221225,1,0,0:0:0:0:
437,295,221385,2,0,P|371:282|340:299,1,80,10|0,0:0|0:0,0:0:0:0:
188,336,221705,6,0,P|143:348|103:244,1,160,2|8,1:0|0:0,0:0:0:0:
324,336,222185,2,0,P|369:348|409:244,1,160,2|0,0:1|0:0,0:0:0:0:
252,168,222665,2,0,P|257:233|258:270,1,80,10|0,0:1|0:0,0:0:0:0:
324,336,222985,6,0,P|361:302|401:292,1,80,2|0,1:2|0:0,0:0:0:0:
488,205,223305,2,0,P|440:189|411:160,1,80,10|0,0:0|0:0,0:0:0:0:
339,66,223625,1,0,1:0:0:0:
314,224,223785,2,0,P|233:206|171:275,1,160,2|0,0:0|0:0,0:0:0:0:
250,367,224265,6,0,P|259:309|248:263,1,80,2|2,1:0|0:0,0:0:0:0:
196,175,224585,1,8,0:0:0:0:
103,324,224745,2,0,P|77:259|126:164,1,160,2|0,0:1|0:0,0:0:0:0:
272,113,225225,2,0,L|372:110,1,80,10|0,0:1|0:0,0:0:0:0:
464,132,225545,6,0,B|447:166|464:210|464:210|479:251|457:301,1,160,2|8,1:2|0:0,0:0:0:0:
241,254,226025,2,0,P|302:224|394:242,1,160,2|0,0:0|0:0,0:0:0:0:
272,113,226505,2,0,P|195:130|123:98,1,160,10|2,0:0|1:2,0:0:0:0:
60,16,226985,5,0,0:0:0:0:
65,172,227145,2,0,L|75:262,1,80,10|0,0:0|0:0,0:0:0:0:
163,335,227465,2,0,L|171:227,1,80,2|0,1:0|0:0,0:0:0:0:
141,135,227785,2,0,L|251:136,1,80,10|0,0:0|0:0,0:0:0:0:
339,179,228105,5,12,1:0:0:0:
249,295,228265,1,0,1:0:0:0:
339,179,228425,1,0,1:0:0:0:
392,314,228585,1,6,1:0:0:0:
392,314,228905,5,0,1:0:0:0:
344,149,229065,1,12,1:0:0:0:
223,290,229225,1,0,1:0:0:0:
344,149,229385,1,0,1:0:0:0:
416,320,229545,1,6,1:0:0:0:
416,321,229865,5,0,1:2:0:0:
209,323,230025,1,0,1:0:0:0:
343,270,230185,1,0,1:0:0:0:
154,258,230345,1,0,1:0:0:0:
362,249,230505,1,0,1:0:0:0:
184,174,230665,6,0,L|178:87,1,80,6|0,1:0|0:0,0:0:0:0:
67,243,230985,2,0,L|61:343,1,80,8|0,0:0|0:0,0:0:0:0:
174,283,231305,1,0,1:0:0:0:
72,128,231465,1,2,0:0:0:0:
174,283,231625,1,8,0:0:0:0:
275,119,231785,1,0,0:0:0:0:
174,283,231945,6,0,P|207:310|255:310,1,80,2|0,1:2|0:0,0:0:0:0:
344,149,232265,2,0,P|311:122|263:122,1,80,8|2,0:0|0:0,0:0:0:0:
333,253,232585,1,2,1:2:0:0:
333,253,232745,1,0,0:0:0:0:
395,85,232905,1,10,0:0:0:0:
395,85,233065,1,0,0:0:0:0:
239,159,233225,6,0,P|169:176|77:112,1,160,2|8,1:2|0:0,0:0:0:0:
301,227,233705,2,0,P|371:210|463:274,1,160,2|0,0:0|0:0,0:0:0:0:
221,237,234185,6,0,P|237:313|199:382,1,160,10|2,0:0|1:2,0:0:0:0:
290,146,234664,2,0,P|274:70|312:1,1,160,0|2,0:0|0:0,0:0:0:0:
440,169,235145,1,0,1:0:0:0:
303,280,235305,1,2,0:0:0:0:
367,85,235465,1,8,0:0:0:0:
390,289,235625,6,0,P|368:340|336:360,1,80,2|2,0:0|1:2,0:0:0:0:
165,199,235945,1,0,0:0:0:0:
303,280,236105,1,10,0:0:0:0:
165,360,236265,1,0,0:0:0:0:
95,157,236425,1,2,1:2:0:0:
233,238,236585,1,0,0:0:0:0:
95,318,236745,1,10,0:0:0:0:
26,115,236905,2,0,P|62:83|117:80,1,80,2|2,0:0|1:2,0:0:0:0:
94,239,237225,5,0,0:0:0:0:
94,239,237385,1,10,0:0:0:0:
238,160,237545,1,0,0:0:0:0:
238,160,237705,1,2,1:2:0:0:
166,288,237865,1,0,0:0:0:0:
166,288,238025,1,10,0:0:0:0:
167,114,238185,1,0,0:0:0:0:
339,203,238345,6,0,P|433:222|501:181,1,160,2|10,1:2|0:0,0:0:0:0:
254,158,238825,1,0,0:0:0:0:
166,208,238985,2,0,P|161:254|170:303,1,80,0|2,1:0|0:0,0:0:0:0:
241,66,239305,2,0,P|203:38|156:21,1,80,8|2,0:0|0:0,0:0:0:0:
339,203,239625,6,0,P|433:222|501:181,1,160,2|8,1:2|0:0,0:0:0:0:
254,158,240105,1,0,0:0:0:0:
165,199,240265,2,0,P|160:245|169:294,1,80,0|0,1:0|0:0,0:0:0:0:
241,66,240585,2,0,P|203:38|156:21,1,80,10|0,0:0|0:0,0:0:0:0:
0,155,240905,6,0,L|92:168,1,80,2|0,1:2|0:0,0:0:0:0:
0,295,241225,2,0,L|92:308,1,80,10|0,0:0|0:0,0:0:0:0:
246,236,241545,1,0,1:0:0:0:
327,288,241705,2,0,P|331:334|327:368,1,80,2|8,0:0|0:0,0:0:0:0:
246,236,242025,1,0,0:0:0:0:
480,215,242185,6,0,B|442:210|422:180|422:180|324:199,1,160,2|8,1:2|0:0,0:0:0:0:
236,79,242665,2,0,B|274:84|294:114|294:114|392:95,1,160,2|0,0:0|0:0,0:0:0:0:
246,236,243145,2,0,P|224:191|231:148,1,80,10|0,0:0|0:0,0:0:0:0:
413,25,243465,6,0,P|457:73|423:162,1,160,2|10,1:2|0:2,0:0:0:0:
324,25,243945,1,0,0:0:0:0:
160,115,244105,2,0,L|70:95,1,80,0|2,1:0|0:2,0:0:0:0:
246,164,244425,2,0,L|336:144,1,80,8|0,0:0|0:0,0:0:0:0:
164,211,244745,6,0,B|39:182|39:182|78:227,1,160,2|10,1:2|0:0,0:0:0:0:
246,164,245225,2,0,B|332:70|332:70|275:81,1,160,2|0,0:0|0:0,0:0:0:0:
252,265,245705,2,0,B|270:326|270:326|280:298,1,80,10|0,0:0|0:0,0:0:0:0:
160,115,246025,6,0,P|93:86|4:119,1,160,2|8,1:2|0:0,0:0:0:0:
168,310,246505,1,2,0:0:0:0:
335,211,246665,2,0,L|438:208,1,80,2|0,1:2|0:0,0:0:0:0:
160,115,246985,2,0,L|105:27,1,80,10|0,0:0|0:0,0:0:0:0:
168,310,247305,6,0,L|255:148,1,160,2|10,1:2|0:0,0:0:0:0:
381,289,247785,1,0,0:0:0:0:
466,134,247945,2,0,P|470:88|455:41,1,80,2|0,1:2|0:0,0:0:0:0:
376,184,248265,1,10,0:0:0:0:
70,145,248585,5,12,1:0:0:0:
142,325,248745,1,0,1:0:0:0:
184,166,248905,1,0,1:0:0:0:
18,275,249065,1,6,1:0:0:0:
18,275,249385,5,0,1:0:0:0:
59,94,249545,1,12,1:0:0:0:
269,159,249705,1,0,1:0:0:0:
98,176,249865,1,0,1:0:0:0:
220,33,250025,1,6,1:0:0:0:
220,33,250345,1,0,1:2:0:0:
360,178,250505,5,0,0:0:0:0:
361,205,250585,1,0,0:0:0:0:
362,232,250665,1,0,0:0:0:0:
364,259,250745,1,0,0:0:0:0:
366,285,250825,2,0,L|368:320,6,20,2|0|0|0|0|0|0,0:1|0:0|0:0|0:0|0:0|0:0|0:0,0:0:0:0:
357,331,251145,6,0,P|310:343|268:330,1,80,4|0,1:0|0:0,0:0:0:0:
89,260,251465,2,0,L|259:246,1,160,10|0,0:1|0:0,0:0:0:0:
121,162,251945,1,2,1:0:0:0:
5,215,252105,2,0,P|-5:264|14:317,1,80,8|0,0:0|0:0,0:0:0:0:
121,162,252425,6,0,L|118:63,1,80,2|0,1:0|0:0,0:0:0:0:
209,199,252745,2,0,L|200:15,1,160,10|0,0:1|0:0,0:0:0:0:
37,123,253225,1,0,1:0:0:0:
169,274,253385,2,0,P|210:282|264:267,1,80,10|2,0:1|0:0,0:0:0:0:
378,115,253705,6,0,P|418:109|457:117,1,80,2|0,1:0|0:0,0:0:0:0:
286,297,254025,1,10,0:0:0:0:
290,112,254185,2,0,P|284:72|292:34,1,80,2|0,1:0|0:0,0:0:0:0:
469,208,254505,1,2,1:2:0:0:
287,200,254665,2,0,P|247:206|209:199,1,80,10|0,1:0|0:0,0:0:0:0:
379,27,254985,5,2,1:2:0:0:
375,203,255145,2,0,P|381:243|374:282,1,80,2|8,1:0|0:0,0:0:0:0:
290,112,255465,1,0,0:0:0:0:
429,129,255625,2,0,P|476:119|526:142,1,80,2|0,0:0|1:0,0:0:0:0:
236,191,255945,2,0,P|189:201|139:178,1,80,10|0,0:1|0:0,0:0:0:0:
307,77,256265,6,0,P|296:38|305:0,1,80,2|0,1:0|0:0,0:0:0:0:
361,256,256585,2,0,P|354:336|282:382,1,160,10|0,0:1|0:0,0:0:0:0:
273,289,257065,1,2,1:0:0:0:
433,384,257225,2,0,L|519:368,1,80,8|0,0:0|0:0,0:0:0:0:
273,289,257545,6,0,L|187:273,1,80,2|0,1:0|0:0,0:0:0:0:
345,150,257865,2,0,P|418:123|499:184,1,160,10|0,0:1|0:0,0:0:0:0:
408,298,258345,1,0,1:0:0:0:
345,150,258505,2,0,L|337:61,1,80,10|2,0:1|0:0,0:0:0:0:
429,102,258825,5,0,1:0:0:0:
255,159,258985,2,0,L|247:70,1,80,2|8,0:1|0:0,0:0:0:0:
340,109,259305,5,0,0:0:0:0:
166,166,259465,2,0,L|158:77,1,80,2|0,0:1|1:0,0:0:0:0:
252,114,259785,5,8,0:0:0:0:
82,218,259945,2,0,L|68:56,1,160,2|2,0:1|0:0,0:0:0:0:
252,114,260425,1,10,0:0:0:0:
252,114,260585,1,2,0:0:0:0:
105,55,260745,1,2,0:0:0:0:
105,55,260905,1,2,1:2:0:0:
82,218,261065,1,10,0:0:0:0:
82,218,261225,1,2,0:0:0:0:
266,274,261385,6,0,P|320:276|358:259,1,80,4|0,1:0|0:0,0:0:0:0:
149,164,261705,2,0,P|74:130|-3:174,1,160,10|0,0:1|0:0,0:0:0:0:
232,344,262185,2,0,P|324:355|400:323,1,160,2|0,1:0|0:0,0:0:0:0:
143,298,262665,6,0,P|134:345|143:386,1,80,2|0,1:2|0:0,0:0:0:0:
301,243,262985,2,0,P|315:170|287:92,1,160,10|0,0:1|0:0,0:0:0:0:
208,224,263465,1,0,1:0:0:0:
405,151,263625,2,0,L|492:155,1,80,10|0,0:1|0:0,0:0:0:0:
301,243,263945,6,0,P|279:286|152:295,1,160,2|2,1:0|0:0,0:0:0:0:
74,142,264425,2,0,P|96:99|223:90,1,160,2|2,1:0|0:0,0:0:0:0:
424,176,264905,6,0,P|402:219|275:228,1,160,2|2,1:0|0:0,0:0:0:0:
197,75,265385,2,0,P|219:32|346:23,1,160,2|0,1:0|0:0,0:0:0:0:
334,156,265865,1,2,0:0:0:0:
166,163,266025,1,0,1:0:0:0:
292,95,266185,1,10,0:1:0:0:
208,224,266345,1,0,0:0:0:0:
365,88,266505,6,0,L|457:83,1,80,2|0,1:0|0:0,0:0:0:0:
283,243,266825,2,0,P|260:281|204:300,1,80,2|0,0:0|0:0,0:0:0:0:
74,102,267145,1,0,1:0:0:0:
101,98,267225,1,0,1:0:0:0:
128,94,267305,1,0,1:0:0:0:
155,90,267385,1,0,1:0:0:0:
182,86,267465,2,0,L|238:77,3,40,0|0|0|0,1:0|1:0|1:0|1:0,0:0:0:0:
168,163,267785,6,0,P|119:139|100:96,1,80,2|0,1:0|0:0,0:0:0:0:
300,67,268105,1,2,0:0:0:0:
377,243,268265,1,0,0:0:0:0:
435,108,268425,1,0,0:0:0:0:
265,225,268585,1,2,0:0:0:0:
265,225,268665,1,2,0:0:0:0:
265,225,268745,2,0,L|268:310,1,80,2|0,1:0|0:0,0:0:0:0:
103,282,269065,5,4,1:0:0:0:
196,137,269225,1,2,0:1:0:0:
81,203,269545,5,4,1:0:0:0:
279,144,269705,1,2,0:1:0:0:
62,125,270025,5,4,1:0:0:0:
362,154,270185,1,2,0:1:0:0:
256,192,270265,12,0,271625,1:0:0:0:
