osu file format v14

[General]
AudioFilename: audio.mp3
AudioLeadIn: 0
PreviewTime: 47226
Countdown: 1
SampleSet: None
StackLeniency: 0.7
Mode: 0
LetterboxInBreaks: 0
WidescreenStoryboard: 0

[Editor]
DistanceSpacing: 1.6
BeatDivisor: 4
GridSize: 4
TimelineZoom: 1

[Metadata]
Title:Kyoumei No True Force
TitleUnicode:共鳴のTrue Force
Artist:Harada Hitomi
ArtistUnicode:原田ひとみ
Creator:yuuch
Version:Blade Dance
Source:精霊使いの剣舞
Tags:seirei tsukai no blade dance opening tv size
BeatmapID:889450
BeatmapSetID:409800

[Difficulty]
HPDrainRate:6
CircleSize:4
OverallDifficulty:8.5
ApproachRate:9.2
SliderMultiplier:1.7
SliderTickRate:1

[Events]
//Background and Video events
Video,0,"seirei.flv"
0,0,"true.png",0,0
//Break Periods
//Storyboard Layer 0 (Background)
//Storyboard Layer 1 (Fail)
//Storyboard Layer 2 (Pass)
//Storyboard Layer 3 (Foreground)
//Storyboard Sound Samples

[TimingPoints]
666,320,4,1,0,70,1,0
666,-100,4,2,0,70,0,0
3546,-111.111111111111,4,2,0,70,0,0
6106,-111.111111111111,4,2,0,60,0,0
14746,-100,4,3,0,70,0,0
16026,-100,4,2,0,50,0,0
21146,-133.333333333333,4,2,0,50,0,0
24026,-100,4,2,0,50,0,0
32026,-117.647058823529,4,2,0,50,0,0
32666,-100,4,2,0,44,0,0
35226,-100,4,3,0,50,0,0
36506,-133.333333333333,4,2,0,50,0,0
36506,-133.333333333333,4,2,0,50,0,0
41946,-100,4,2,0,50,0,0
48026,-90.9090909090909,4,3,0,80,0,1
52826,-90.9090909090909,4,1,0,80,0,1
53466,-90.9090909090909,4,3,0,80,0,1
57626,-90.9090909090909,4,1,0,80,0,1
58266,-90.9090909090909,4,3,0,80,0,1
68186,-90.9090909090909,4,1,0,80,0,1
68506,-90.9090909090909,4,3,0,80,0,1
70746,-90.9090909090909,4,1,0,80,0,1
71386,-90.9090909090909,4,3,0,80,0,1
72666,-90.9090909090909,4,1,0,80,0,1
73946,-90.9090909090909,4,3,0,80,0,1
78106,-66.6666666666667,4,1,0,90,0,1
78746,-90.9090909090909,4,3,0,80,0,1
85306,-90.9090909090909,4,1,0,80,0,1
86746,-90.9090909090909,4,3,0,80,0,1
88666,-90.9090909090909,4,3,0,80,0,0

[HitObjects]
292,120,666,6,0,B|284:72|284:72|288:28,1,85,8|0,0:0|0:0,0:0:0:0:
432,188,986,2,0,B|440:236|440:236|436:280,1,85,8|0,0:0|0:0,0:0:0:0:
216,268,1306,1,8,0:0:0:0:
216,268,1466,2,0,L|40:252,1,170,2|0,0:0|0:0,0:0:0:0:
300,132,1946,6,0,L|480:112,1,170,8|0,0:0|0:0,0:0:0:0:
176,72,2426,2,0,B|120:72|64:60|64:60|64:80|100:108,1,170,2|0,0:0|0:0,0:0:0:0:
220,252,2906,2,0,L|216:352,1,85,8|0,0:0|0:0,0:0:0:0:
380,256,3226,6,0,L|384:168,1,85,8|0,0:0|0:0,0:0:0:0:
364,128,3546,1,8,0:0:0:0:
200,60,3706,5,2,0:0:0:0:
200,60,3786,1,0,0:0:0:0:
200,60,3866,2,2,L|196:164,1,76.4999976654053,8|0,0:0|0:0,0:0:0:0:
136,232,4186,1,8,0:0:0:0:
276,320,4346,5,2,0:0:0:0:
276,320,4426,1,0,0:0:0:0:
276,320,4506,2,0,L|276:220,1,76.4999976654053,8|0,0:0|0:0,0:0:0:0:
320,112,4826,1,8,0:0:0:0:
452,64,4986,1,0,0:0:0:0:
388,276,5146,5,8,0:0:0:0:
336,100,5306,1,0,0:0:0:0:
208,160,5466,2,0,L|104:152,1,76.4999976654053,8|0,0:0|0:0,0:0:0:0:
216,296,5786,6,0,L|312:292,1,76.4999976654053,8|0,0:0|0:0,0:0:0:0:
400,176,6106,5,8,0:0:0:0:
400,176,6266,2,0,B|380:64|380:64|396:24,1,152.999995330811,2|0,0:0|0:0,0:0:0:0:
248,120,6746,1,8,0:0:0:0:
148,48,6906,1,0,0:0:0:0:
144,172,7066,2,8,B|136:208|136:208|144:264,1,76.4999976654053,8|0,0:0|0:0,0:0:0:0:
272,288,7386,1,8,0:0:0:0:
272,288,7546,2,0,L|436:276,1,152.999995330811,2|0,0:0|0:0,0:0:0:0:
424,172,8026,1,8,0:0:0:0:
332,64,8186,5,0,0:0:0:0:
332,64,8266,1,0,0:0:0:0:
332,64,8346,1,8,0:0:0:0:
304,200,8506,1,0,0:0:0:0:
184,100,8666,1,8,0:0:0:0:
92,176,8826,2,0,B|80:232|80:232|100:344,1,152.999995330811,2|0,0:0|0:0,0:0:0:0:
268,176,9306,2,0,B|280:120|280:120|260:8,1,152.999995330811,10|0,0:0|0:0,0:0:0:0:
436,136,9786,5,2,0:0:0:0:
436,136,9866,1,0,0:0:0:0:
436,136,9946,2,0,L|428:220,1,76.4999976654053,10|0,0:0|0:0,0:0:0:0:
344,308,10266,1,8,0:0:0:0:
308,200,10426,2,0,L|248:164,1,38.2499988327027,2|0,0:0|0:0,0:0:0:0:
192,76,10586,2,0,L|184:144,1,38.2499988327027,8|0,0:0|0:0,0:0:0:0:
160,228,10746,1,2,0:0:0:0:
280,312,10906,6,0,B|384:308|384:308|436:288,1,152.999995330811,10|0,0:0|0:0,0:0:0:0:
288,112,11386,2,0,P|176:92|124:124,1,152.999995330811,2|0,0:0|0:0,0:0:0:0:
104,272,11866,1,0,0:0:0:0:
208,356,12026,1,0,0:0:0:0:
224,224,12186,2,0,B|200:184|228:120,1,76.4999976654053,8|0,0:0|0:0,0:0:0:0:
300,72,12506,2,0,L|464:52,1,152.999995330811,10|0,0:0|0:0,0:0:0:0:
408,208,12986,1,2,0:0:0:0:
356,336,13146,1,8,0:0:0:0:
272,180,13306,1,0,0:0:0:0:
272,180,13466,5,10,0:0:0:0:
184,96,14746,5,8,0:0:0:0:
372,88,14906,1,2,0:0:0:0:
161,117,15066,5,8,0:0:0:0:
348,60,15226,1,2,0:0:0:0:
112,220,15386,5,8,0:0:0:0:
336,208,15546,1,2,0:0:0:0:
176,304,15706,5,8,0:0:0:0:
160,104,15866,1,2,0:0:0:0:
160,104,16026,6,0,L|168:16,1,85,8|2,0:0|0:0,0:0:0:0:
312,144,16346,2,0,L|304:248,1,85,8|2,0:0|0:0,0:0:0:0:
208,320,16666,1,8,0:0:0:0:
208,320,16826,1,2,0:0:0:0:
352,152,16986,2,0,L|448:168,1,85,8|2,0:0|0:0,0:0:0:0:
224,64,17306,6,0,B|144:32|88:48|88:48|112:64|112:64|128:96,1,170,8|0,0:0|0:0,0:0:0:0:
152,168,17786,1,2,0:0:0:0:
152,168,17866,1,0,0:0:0:0:
152,168,17946,2,0,L|144:272,1,85,0|2,0:0|0:0,0:0:0:0:
272,336,18266,2,0,L|280:232,1,85,8|2,0:0|0:0,0:0:0:0:
352,104,18586,6,0,L|472:88,1,85,8|2,0:0|0:0,0:0:0:0:
256,24,18906,2,0,L|136:32,1,85,8|2,0:0|0:0,0:0:0:0:
64,160,19226,1,8,0:0:0:0:
184,208,19386,1,2,0:0:0:0:
184,208,19546,2,8,L|304:200,1,85,8|2,0:0|0:0,0:0:0:0:
444,312,19866,6,0,B|396:336|316:320|316:320|348:312|372:280,1,170,8|0,0:0|0:0,0:0:0:0:
428,212,20346,1,2,0:0:0:0:
428,212,20426,1,0,0:0:0:0:
428,212,20506,2,0,B|440:168|440:168|428:100,1,85,8|2,0:0|0:0,0:0:0:0:
308,40,20826,2,0,B|296:84|296:84|308:152,1,85,8|2,0:0|0:0,0:0:0:0:
244,276,21146,6,0,L|176:272,1,63.7500024318696,8|2,0:0|0:0,0:0:0:0:
24,200,21466,2,0,L|92:204,1,63.7500024318696,8|2,0:0|0:0,0:0:0:0:
180,152,21786,6,0,L|184:72,1,63.7500024318696,8|2,0:0|0:0,0:0:0:0:
316,20,22106,2,0,L|312:100,1,63.7500024318696,8|2,0:0|0:0,0:0:0:0:
296,196,22426,1,8,0:0:0:0:
332,320,22586,1,2,0:0:0:0:
332,320,22746,1,8,0:0:0:0:
460,312,22906,1,2,0:0:0:0:
480,168,23066,2,0,L|484:76,1,63.7500024318696,8|2,0:0|0:0,0:0:0:0:
364,24,23386,2,0,L|360:116,1,63.7500024318696,8|2,0:0|0:0,0:0:0:0:
328,184,23706,5,8,0:0:0:0:
276,288,23866,1,2,0:0:0:0:
192,156,24026,2,0,P|188:104|200:56,1,85,8|2,0:0|0:0,0:0:0:0:
352,48,24346,1,8,0:0:0:0:
496,120,24506,1,2,0:0:0:0:
392,240,24666,2,0,P|340:244|292:232,1,85,8|2,0:0|0:0,0:0:0:0:
204,72,24986,5,8,0:0:0:0:
84,164,25146,1,2,0:0:0:0:
68,203,25226,1,0,0:0:0:0:
64,245,25306,1,8,0:0:0:0:
70,287,25386,1,0,0:0:0:0:
88,324,25466,2,0,L|144:324,1,42.5,2|0,0:0|0:0,0:0:0:0:
276,328,25626,6,0,B|292:312|292:312|308:264,1,42.5
384,240,25786,6,0,L|384:192,1,42.5,2|0,0:0|0:0,0:0:0:0:
276,160,25946,6,0,L|292:92,1,42.5,8|0,0:0|0:0,0:0:0:0:
400,88,26106,6,0,L|388:28,1,42.5,2|0,0:0|0:0,0:0:0:0:
208,44,26266,6,0,L|108:52,1,85,8|2,0:0|0:0,0:0:0:0:
48,136,26586,2,0,P|48:180|68:224,1,85,8|2,0:0|0:0,0:0:0:0:
176,268,26906,2,0,L|284:280,1,85,8|2,0:0|0:0,0:0:0:0:
408,304,27226,1,8,0:0:0:0:
424,152,27386,5,2,0:0:0:0:
424,152,27466,1,0,0:0:0:0:
424,152,27546,2,0,L|428:56,1,85,8|2,0:0|0:0,0:0:0:0:
332,192,27866,2,0,P|312:248|420:276,1,170,8|0,0:0|0:0,0:0:0:0:
456,204,28346,1,2,0:0:0:0:
348,96,28506,1,8,0:0:0:0:
224,184,28666,1,2,0:0:0:0:
100,108,28826,6,0,B|92:156|92:156|116:292,1,170,8|0,0:0|0:0,0:0:0:0:
260,304,29306,1,2,0:0:0:0:
260,304,29386,1,0,0:0:0:0:
260,304,29466,2,0,L|348:304,1,85,8|2,0:0|0:0,0:0:0:0:
420,228,29786,1,8,0:0:0:0:
280,132,29946,1,2,0:0:0:0:
408,40,30106,2,0,B|416:72|416:72|408:136,1,85,8|2,0:0|0:0,0:0:0:0:
284,248,30426,1,8,0:0:0:0:
184,164,30586,5,2,0:0:0:0:
184,164,30666,1,0,0:0:0:0:
184,164,30746,2,0,L|64:156,1,85,8|2,0:0|0:0,0:0:0:0:
48,96,31066,1,8,0:0:0:0:
116,264,31226,1,2,0:0:0:0:
284,128,31386,2,0,P|292:80|280:8,1,85,8|2,0:0|0:0,0:0:0:0:
288,16,31706,1,8,0:0:0:0:
400,168,31866,1,2,0:0:0:0:
304,284,32026,2,0,L|144:280,1,144.500002756119,8|0,0:0|0:0,0:0:0:0:
116,144,32506,5,2,0:0:0:0:
116,144,32586,1,0,0:0:0:0:
116,144,32666,2,0,B|112:96|112:96|124:24,1,85,8|2,0:0|0:0,0:0:0:0:
248,56,32986,1,8,0:0:0:0:
412,168,33146,1,2,0:0:0:0:
224,156,33306,1,8,0:0:0:0:
344,56,33466,5,2,0:0:0:0:
344,56,33626,1,8,0:0:0:0:
292,200,33786,1,2,0:0:0:0:
400,308,33946,1,8,0:0:0:0:
408,316,35226,5,8,0:0:0:0:
316,224,35386,1,2,0:0:0:0:
412,136,35546,2,0,P|420:92|412:28,1,85,0|2,0:0|0:0,0:0:0:0:
432,28,36026,1,2,0:0:0:0:
192,96,36186,1,8,0:0:0:0:
184,104,36506,6,0,L|176:176,1,63.7500024318696
276,308,36826,2,2,L|284:216,1,63.7500024318696,10|0,0:0|0:0,0:0:0:0:
272,212,37146,1,8,0:0:0:0:
320,72,37306,1,2,0:0:0:0:
460,48,37466,1,8,0:0:0:0:
468,40,37786,6,0,L|464:128,1,63.7500024318696,8|2,0:0|0:0,0:0:0:0:
384,152,38106,2,0,L|380:236,1,63.7500024318696,8|2,0:0|0:0,0:0:0:0:
392,236,38426,1,8,0:0:0:0:
216,296,38586,1,2,0:0:0:0:
328,328,38906,5,0,0:0:0:0:
288,196,39066,2,0,L|284:116,1,63.7500024318696,8|0,0:0|0:0,0:0:0:0:
176,52,39386,2,0,L|180:132,1,63.7500024318696,8|2,0:0|0:0,0:0:0:0:
140,216,39706,1,8,0:0:0:0:
276,312,39866,5,2,0:0:0:0:
276,312,39946,1,0,0:0:0:0:
276,312,40026,2,0,L|276:236,1,63.7500024318696,8|2,0:0|0:0,0:0:0:0:
316,168,40346,2,0,L|316:80,1,63.7500024318696,8|2,0:0|0:0,0:0:0:0:
332,64,40666,1,8,0:0:0:0:
184,88,40826,1,2,0:0:0:0:
256,220,40986,6,0,L|328:228,1,63.7500024318696,8|2,0:0|0:0,0:0:0:0:
356,228,41306,1,8,0:0:0:0:
248,328,41466,1,2,0:0:0:0:
156,212,41626,2,0,L|160:124,1,63.7500024318696,8|0,0:0|0:0,0:0:0:0:
224,44,41946,1,8,0:0:0:0:
364,168,42106,5,2,0:0:0:0:
364,168,42186,1,0,0:0:0:0:
364,168,42266,2,0,L|356:264,1,85,8|2,0:0|0:0,0:0:0:0:
224,308,42586,2,8,B|164:324|96:284|36:308,1,170,0|0,0:0|0:0,0:0:0:0:
44,324,43066,5,2,0:0:0:0:
108,80,43226,1,8,0:0:0:0:
264,168,43386,2,0,L|352:172,1,85,2|0,0:0|0:0,0:0:0:0:
384,172,43706,5,2,0:0:0:0:
228,56,43866,1,8,0:0:0:0:
204,248,44026,1,2,0:0:0:0:
216,260,44346,5,0,0:0:0:0:
364,156,44506,2,0,P|368:104|360:56,1,85,8|0,0:0|0:0,0:0:0:0:
336,24,44826,5,8,0:0:0:0:
132,112,44986,1,0,0:0:0:0:
280,176,45146,1,8,0:0:0:0:
232,32,45306,1,2,0:0:0:0:
172,232,45466,1,8,0:0:0:0:
376,128,45626,5,0,0:0:0:0:
176,28,45786,1,8,0:0:0:0:
152,316,45946,1,2,0:0:0:0:
304,280,46266,5,0,0:0:0:0:
304,280,46426,2,0,B|308:240|308:240|300:180,1,85,8|0,0:0|0:0,0:0:0:0:
212,52,46746,1,8,0:0:0:0:
120,136,46906,5,2,0:0:0:0:
120,136,46986,1,0,0:0:0:0:
120,136,47066,1,8,0:0:0:0:
200,224,47226,5,2,0:0:0:0:
200,224,47306,1,0,0:0:0:0:
200,224,47386,1,8,0:0:0:0:
92,332,47546,5,2,0:0:0:0:
92,332,47706,2,0,P|84:264|96:224,1,85,8|2,0:0|0:0,0:0:0:0:
208,88,48026,6,0,B|272:48|320:136|412:88,1,187.000005706787,8|0,0:0|0:0,0:0:0:0:
432,64,48506,1,2,0:0:0:0:
368,200,48666,6,0,L|364:304,1,93.5000028533936,8|2,0:0|0:0,0:0:0:0:
316,336,48986,1,8,0:0:0:0:
220,240,49146,1,2,0:0:0:0:
80,224,49306,2,0,B|72:180|72:180|88:32,1,187.000005706787,8|0,0:0|0:0,0:0:0:0:
240,48,49786,5,2,0:0:0:0:
240,48,49866,1,0,0:0:0:0:
240,48,49946,2,0,L|340:56,1,93.5000028533936,8|2,0:0|0:0,0:0:0:0:
436,156,50266,1,8,0:0:0:0:
396,336,50426,1,2,0:0:0:0:
288,200,50586,6,0,B|236:216|160:168|160:168|84:192,1,187.000005706787,8|0,0:0|0:0,0:0:0:0:
32,288,51066,1,2,0:0:0:0:
32,288,51146,1,0,0:0:0:0:
32,288,51226,2,0,L|32:192,1,93.5000028533936,8|2,0:0|0:0,0:0:0:0:
196,24,51546,2,0,B|204:60|204:60|200:120,1,93.5000028533936,8|0,0:0|0:0,0:0:0:0:
156,168,51866,1,8,0:0:0:0:
292,268,52026,5,2,0:0:0:0:
292,268,52106,1,0,0:0:0:0:
292,268,52186,1,8,0:0:0:0:
340,72,52346,1,2,0:0:0:0:
448,168,52506,2,0,L|448:276,1,93.5000028533936,8|2,0:0|0:0,0:0:0:0:
368,320,52826,6,0,L|300:312,1,46.7500014266968,8|0,0:0|0:0,0:0:0:0:
272,232,52986,2,0,L|196:232,1,46.7500014266968,2|0,0:0|0:0,0:0:0:0:
120,320,53146,2,0,B|104:264|104:264|128:128,1,187.000005706787,8|0,0:0|0:0,0:0:0:0:
188,120,53626,5,2,0:0:0:0:
60,64,53786,1,8,0:0:0:0:
56,204,53946,1,2,0:0:0:0:
192,236,54106,1,8,0:0:0:0:
328,300,54266,5,2,0:0:0:0:
328,300,54346,1,0,0:0:0:0:
328,300,54426,2,0,P|340:240|324:176,1,93.5000028533936,2|2,0:0|0:0,0:0:0:0:
356,80,54746,2,0,B|304:88|304:88|220:64|220:64|144:84,1,187.000005706787,8|0,0:0|0:0,0:0:0:0:
84,88,55226,5,2,0:0:0:0:
84,88,55306,1,0,0:0:0:0:
84,88,55386,1,8,0:0:0:0:
172,268,55546,1,2,0:0:0:0:
336,168,55706,6,0,P|344:112|268:-12,1,187.000005706787,8|0,0:0|0:0,0:0:0:0:
204,240,56186,5,2,0:0:0:0:
204,240,56266,1,0,0:0:0:0:
204,240,56346,1,8,0:0:0:0:
440,132,56506,1,2,0:0:0:0:
244,40,56666,6,0,P|160:24|48:80,1,187.000005706787,8|0,0:0|0:0,0:0:0:0:
72,280,57146,1,2,0:0:0:0:
72,280,57226,1,0,0:0:0:0:
72,280,57306,2,0,B|68:228|68:228|76:172,1,93.5000028533936,8|2,0:0|0:0,0:0:0:0:
156,120,57626,6,0,L|212:136,1,46.7500014266968,8|0,0:0|0:0,0:0:0:0:
260,216,57786,2,0,L|324:200,1,46.7500014266968,2|0,0:0|0:0,0:0:0:0:
392,164,57946,2,0,B|400:132|400:132|388:60,1,93.5000028533936,8|2,0:0|0:0,0:0:0:0:
320,24,58266,5,8,0:0:0:0:
160,184,58426,1,2,0:0:0:0:
340,152,58586,1,8,0:0:0:0:
168,40,58746,1,2,0:0:0:0:
228,272,58906,1,8,0:0:0:0:
304,72,59066,5,2,0:0:0:0:
304,72,59146,1,0,0:0:0:0:
304,72,59226,1,8,0:0:0:0:
76,156,59386,1,2,0:0:0:0:
304,220,59546,2,0,P|364:216|412:188,1,93.5000028533936,8|2,0:0|0:0,0:0:0:0:
144,44,59866,5,8,0:0:0:0:
168,296,60026,1,2,0:0:0:0:
324,112,60186,1,8,0:0:0:0:
64,136,60346,1,2,0:0:0:0:
312,256,60506,1,8,0:0:0:0:
184,48,60666,1,2,0:0:0:0:
148,48,60986,5,2,0:0:0:0:
112,232,61146,1,8,0:0:0:0:
264,112,61306,1,2,0:0:0:0:
56,100,61466,1,8,0:0:0:0:
248,204,61626,5,2,0:0:0:0:
248,204,61706,1,0,0:0:0:0:
248,204,61786,2,0,B|256:244|256:244|248:300,1,93.5000028533936,8|2,0:0|0:0,0:0:0:0:
228,328,62106,1,8,0:0:0:0:
76,220,62266,1,2,0:0:0:0:
208,88,62426,1,8,0:0:0:0:
104,72,62586,5,2,0:0:0:0:
104,72,62666,1,0,0:0:0:0:
104,72,62746,1,8,0:0:0:0:
212,208,62906,1,2,0:0:0:0:
364,116,63066,2,0,P|364:64|344:8,1,93.5000028533936,8|2,0:0|0:0,0:0:0:0:
200,136,63386,6,0,B|144:116|144:116|76:160|-16:132,1,187.000005706787,8|0,0:0|0:0,0:0:0:0:
112,260,63866,1,2,0:0:0:0:
112,260,63946,1,0,0:0:0:0:
112,260,64026,2,0,L|212:272,1,93.5000028533936,8|2,0:0|0:0,0:0:0:0:
232,304,64346,1,8,0:0:0:0:
388,164,64506,1,2,0:0:0:0:
264,96,64666,6,0,B|268:44|268:44|260:4,1,93.5000028533936,8|2,0:0|0:0,0:0:0:0:
152,68,64986,1,8,0:0:0:0:
164,316,65146,1,2,0:0:0:0:
236,184,65306,1,8,0:0:0:0:
60,160,65466,1,2,0:0:0:0:
272,296,65626,2,0,B|312:280|312:280|380:336|460:296,1,187.000005706787,8|0,0:0|0:0,0:0:0:0:
416,60,66106,5,2,0:0:0:0:
416,60,66186,1,0,0:0:0:0:
416,60,66266,2,0,L|412:164,1,93.5000028533936,8|2,0:0|0:0,0:0:0:0:
424,196,66586,1,8,0:0:0:0:
268,92,66746,1,8,0:0:0:0:
336,272,66906,1,8,0:0:0:0:
368,60,67066,1,8,0:0:0:0:
124,168,67226,1,8,0:0:0:0:
252,216,67386,5,8,0:0:0:0:
216,60,67546,1,8,0:0:0:0:
128,312,67706,1,8,0:0:0:0:
128,312,67786,1,0,0:0:0:0:
128,312,67866,2,0,L|220:300,1,93.5000028533936,8|2,0:0|0:0,0:0:0:0:
352,288,68186,6,0,L|344:232,1,46.7500014266968,8|0,0:0|0:0,0:0:0:0:
232,204,68346,2,0,L|244:128,1,46.7500014266968,2|0,0:0|0:0,0:0:0:0:
328,60,68506,2,0,L|136:56,1,187.000005706787,8|0,0:0|0:0,0:0:0:0:
100,64,68986,1,2,0:0:0:0:
196,220,69146,1,8,0:0:0:0:
64,312,69306,2,0,P|60:260|76:200,1,93.5000028533936,2|0,0:0|0:0,0:0:0:0:
216,92,69626,5,2,0:0:0:0:
216,92,69706,1,0,0:0:0:0:
216,92,69786,2,0,L|328:88,1,93.5000028533936,8|2,0:0|0:0,0:0:0:0:
368,48,70106,1,8,0:0:0:0:
288,212,70266,1,2,0:0:0:0:
432,140,70426,1,8,0:0:0:0:
200,48,70586,1,2,0:0:0:0:
168,140,70746,6,0,P|168:168|160:208,1,46.7500014266968,8|0,0:0|0:0,0:0:0:0:
80,224,70906,2,0,P|76:256|88:296,1,46.7500014266968,2|0,0:0|0:0,0:0:0:0:
184,320,71066,2,0,B|236:304|236:304|308:336|388:320,1,187.000005706787,8|0,0:0|0:0,0:0:0:0:
416,340,71546,1,2,0:0:0:0:
408,164,71706,2,0,P|412:120|396:40,1,93.5000028533936,8|2,0:0|0:0,0:0:0:0:
296,56,72026,2,0,L|104:60,1,187.000005706787,8|0,0:0|0:0,0:0:0:0:
72,80,72506,1,2,0:0:0:0:
84,184,72666,6,0,P|108:184|148:196,1,46.7500014266968,8|0,0:0|0:0,0:0:0:0:
156,288,72826,6,0,P|188:292|228:280,1,46.7500014266968,2|0,0:0|0:0,0:0:0:0:
320,272,72986,6,0,B|332:256|332:256|312:220,1,46.7500014266968,8|0,0:0|0:0,0:0:0:0:
232,164,73146,6,0,P|228:144|252:100,1,46.7500014266968,2|0,0:0|0:0,0:0:0:0:
288,48,73306,6,0,L|336:40,1,46.7500014266968,8|0,0:0|0:0,0:0:0:0:
452,96,73466,6,0,B|456:120|456:120|448:176,1,46.7500014266968,2|0,0:0|0:0,0:0:0:0:
432,272,73626,6,0,L|224:276,1,187.000005706787,8|0,0:0|0:0,0:0:0:0:
136,300,74106,5,2,0:0:0:0:
136,300,74186,1,0,0:0:0:0:
136,300,74266,2,0,B|132:248|132:248|144:184,1,93.5000028533936,8|2,0:0|0:0,0:0:0:0:
200,188,74586,1,8,0:0:0:0:
132,48,74746,1,2,0:0:0:0:
304,76,74906,6,0,L|428:76,1,93.5000028533936,8|2,0:0|0:0,0:0:0:0:
456,48,75226,1,8,0:0:0:0:
364,324,75386,1,2,0:0:0:0:
320,148,75546,1,8,0:0:0:0:
440,216,75706,1,2,0:0:0:0:
248,316,75866,1,8,0:0:0:0:
168,88,76026,1,2,0:0:0:0:
380,32,76186,6,0,L|376:144,1,93.5000028533936,8|8,0:0|0:0,0:0:0:0:
372,244,76506,5,8,0:0:0:0:
296,72,76666,1,10,0:0:0:0:
260,200,76826,1,8,0:0:0:0:
440,84,76986,1,8,0:0:0:0:
200,44,77146,5,8,0:0:0:0:
168,240,77306,1,8,0:0:0:0:
360,116,77466,1,8,0:0:0:0:
108,84,77626,5,8,0:0:0:0:
152,328,77786,1,8,0:0:0:0:
440,128,77946,1,8,0:0:0:0:
292,52,78106,6,0,P|212:40|124:104,1,191.250007295609,8|0,0:0|0:0,0:0:0:0:
156,200,78426,6,0,B|196:192|196:192|248:204|248:204|324:192,1,127.500004863739,8|12,0:0|0:0,0:0:0:0:
404,164,78746,6,0,L|400:268,1,85,8|2,0:0|0:0,0:0:0:0:
272,336,79066,2,0,L|276:240,1,85,8|0,0:0|0:0,0:0:0:0:
264,208,79386,1,8,0:0:0:0:
216,48,79546,1,0,0:0:0:0:
88,136,79706,6,0,L|84:240,1,85,8|0,0:0|0:0,0:0:0:0:
244,316,80026,2,0,P|356:292|388:228,1,187.000005706787,8|0,0:0|0:0,0:0:0:0:
260,56,80506,1,2,0:0:0:0:
260,56,80666,2,0,L|156:52,1,85,8|2,0:0|0:0,0:0:0:0:
48,176,80986,2,0,L|152:180,1,85,8|2,0:0|0:0,0:0:0:0:
272,212,81306,1,8,0:0:0:0:
272,212,81626,6,0,B|264:240|264:240|280:316,1,85,8|2,0:0|0:0,0:0:0:0:
412,140,81946,2,0,B|420:112|420:112|404:36,1,85,8|2,0:0|0:0,0:0:0:0:
288,56,82266,2,0,L|176:56,1,85,8|2,0:0|0:0,0:0:0:0:
72,136,82586,6,0,L|72:248,1,85,8|2,0:0|0:0,0:0:0:0:
176,344,82906,2,0,L|176:224,1,85,8|2,0:0|0:0,0:0:0:0:
160,208,83226,1,8,0:0:0:0:
312,96,83386,1,2,0:0:0:0:
312,96,83466,1,0,0:0:0:0:
312,96,83546,2,0,L|308:184,1,85,8|2,0:0|0:0,0:0:0:0:
248,300,83866,6,0,L|136:292,1,85,8|2,0:0|0:0,0:0:0:0:
68,232,84186,1,8,0:0:0:0:
240,184,84346,6,0,L|128:176,1,85,2|0,0:0|0:0,0:0:0:0:
60,116,84666,1,2,0:0:0:0:
188,44,84826,2,0,L|396:32,1,187.000005706787,8|0,0:0|0:0,0:0:0:0:
388,124,85306,5,2,0:0:0:0:
396,132,85386,1,0,0:0:0:0:
396,132,85466,2,0,L|380:184,1,42.5,8|0,0:0|0:0,0:0:0:0:
272,172,85626,6,0,L|288:228,1,42.5,2|0,0:0|0:0,0:0:0:0:
380,276,85786,6,0,B|376:308|376:308|356:336,1,42.5,8|0,0:0|0:0,0:0:0:0:
264,336,85946,6,0,P|240:340|200:336,1,42.5,2|0,0:0|0:0,0:0:0:0:
200,236,86106,6,0,P|176:232|132:240,1,42.5,8|0,0:0|0:0,0:0:0:0:
64,284,86266,6,0,B|60:264|60:264|64:220,1,42.5,2|0,0:0|0:0,0:0:0:0:
100,120,86426,6,0,B|136:28|300:64,1,187.000005706787,8|0,0:0|0:0,0:0:0:0:
388,56,86906,5,2,0:0:0:0:
388,56,86986,1,0,0:0:0:0:
388,56,87066,2,0,L|380:168,1,93.5000028533936,8|2,0:0|0:0,0:0:0:0:
256,148,87386,2,0,L|280:260,1,93.5000028533936,8|2,0:0|0:0,0:0:0:0:
304,328,87706,5,8,0:0:0:0:
104,216,87866,1,2,0:0:0:0:
376,152,88026,1,8,0:0:0:0:
196,296,88186,1,2,0:0:0:0:
252,32,88346,1,8,0:0:0:0:
252,32,88666,6,0,L|256:152,1,93.5000028533936,12|0,0:0|0:0,0:0:0:0:
