osu file format v14

[General]
AudioFilename: audio.mp3
AudioLeadIn: 0
PreviewTime: 47184
Countdown: 0
SampleSet: Normal
StackLeniency: 0.7
Mode: 0
LetterboxInBreaks: 0
WidescreenStoryboard: 0

[Editor]
DistanceSpacing: 1.2
BeatDivisor: 4
GridSize: 4
TimelineZoom: 1

[Metadata]
Title:Cherish
TitleUnicode:Cherish
Artist:Harada Hitomi
ArtistUnicode:原田ひとみ
Creator:searchingfor
Version:Hard
Source:ソレヨリノ前奏詩
Tags:Harada Hitomi galgame
BeatmapID:1603289
BeatmapSetID:762575

[Difficulty]
HPDrainRate:7
CircleSize:4.5
OverallDifficulty:6
ApproachRate:6.5
SliderMultiplier:1.4
SliderTickRate:1

[Events]
//Background and Video events
Video,0,"Cherish.mp4"
0,0,"47b0f57a.jpg",0,0
//Break Periods
//Storyboard Layer 0 (Background)
//Storyboard Layer 1 (Fail)
//Storyboard Layer 2 (Pass)
//Storyboard Layer 3 (Foreground)
//Storyboard Sound Samples

[TimingPoints]
1460,413.793103448276,4,1,0,100,1,0
14701,-133.333333333333,4,1,0,100,0,0
27942,-100,4,1,0,100,0,0
47804,-100,4,1,0,100,0,1
80908,-100,4,1,0,100,0,0

[HitObjects]
196,168,632,5,4,0:0:0:0:
196,168,831,2,0,L|108:176,2,70
244,96,1468,2,0,P|228:136|260:224,1,140,0|8,0:0|0:0,0:0:0:0:
180,256,2080,2,0,B|220:232|220:232|332:240,1,140
364,304,2701,1,8,0:0:0:0:
428,248,2908,2,0,L|436:96,1,140
364,64,3528,1,8,0:0:0:0:
364,64,3735,2,0,P|332:96|236:96,1,140
156,92,4356,5,8,0:0:0:0:
156,92,4460,1,0,0:0:0:0:
156,92,4563,1,0,0:0:0:0:
192,168,4770,2,0,L|184:248,1,70
261,325,5184,2,0,L|268:256,1,70,8|0,0:0|0:0,0:0:0:0:
280,172,5597,2,0,L|364:184,1,70
408,124,6011,2,0,L|420:84,3,35,8|0|0|0,0:0|0:0|0:0|0:0,0:0:0:0:
440,128,6425,2,0,P|480:196|440:260,1,140,0|8,0:0|0:0,0:0:0:0:
384,288,7046,5,0,0:0:0:0:
308,252,7253,2,0,L|228:260,1,70
168,304,7666,2,0,L|164:212,1,70,8|0,0:0|0:0,0:0:0:0:
99,185,8080,2,0,P|158:152|224:172,1,140,0|8,0:0|0:0,0:0:0:0:
292,224,8701,1,0,0:0:0:0:
348,160,8908,2,0,L|417:167,1,70
501,91,9322,2,0,L|432:84,1,70,8|0,0:0|0:0,0:0:0:0:
272,46,9735,6,0,L|276:116,1,70
195,197,10149,2,0,L|192:128,1,70,8|0,0:0|0:0,0:0:0:0:
280,196,10563,2,0,P|336:180|360:104,1,140,0|8,0:0|0:0,0:0:0:0:
348,24,11184,1,0,0:0:0:0:
272,46,11391,2,0,L|132:58,1,140,0|8,0:0|0:0,0:0:0:0:
76,120,12011,1,0,0:0:0:0:
156,152,12218,2,0,B|168:196|164:232,1,70
96,325,12632,2,0,B|84:281|88:256,1,70,8|0,0:0|0:0,0:0:0:0:
180,312,13046,6,0,L|272:320,1,70
276,284,13356,2,0,L|368:292,1,70
376,264,13666,1,8,0:0:0:0:
336,192,13873,2,0,L|340:112,1,70
332,36,14287,2,0,L|252:52,1,70,8|0,0:0|0:0,0:0:0:0:
184,76,14701,6,0,L|180:200,1,105.000004005432,0|2,0:0|0:0,0:0:0:0:
224,252,15322,1,0,0:0:0:0:
288,196,15528,2,0,L|348:200,1,52.5000020027161
392,132,15942,2,0,L|452:136,1,52.5000020027161,2|0,0:0|0:0,0:0:0:0:
512,88,16356,2,0,P|480:136|488:204,1,105.000004005432,0|2,0:0|0:0,0:0:0:0:
512,260,16977,1,0,0:0:0:0:
432,240,17184,2,0,L|360:248,2,52.5000020027161,0|0|2,0:0|0:0|0:0,0:0:0:0:
308,128,18011,6,0,P|260:104|200:116,1,105.000004005432,0|2,0:0|0:0,0:0:0:0:
136,152,18632,1,0,0:0:0:0:
200,204,18839,2,0,L|204:260,1,52.5000020027161
278,311,19253,2,0,L|288:260,1,52.5000020027161,2|0,0:0|0:0,0:0:0:0:
368,232,19666,2,0,L|428:240,2,52.5000020027161,0|0|2,0:0|0:0|0:0,0:0:0:0:
320,164,20287,2,0,B|304:144|304:144|308:64,1,105.000004005432
224,56,20908,2,0,L|220:112,1,52.5000020027161,2|0,0:0|0:0,0:0:0:0:
156,160,21322,6,0,B|124:168|124:168|132:204|124:240,1,105.000004005432,0|2,0:0|0:0,0:0:0:0:
184,300,21942,1,0,0:0:0:0:
248,244,22149,2,0,L|312:248,1,52.5000020027161
372,292,22563,2,0,L|376:228,1,52.5000020027161,2|0,0:0|0:0,0:0:0:0:
456,220,22977,2,0,P|484:168|468:112,1,105.000004005432,0|2,0:0|0:0,0:0:0:0:
416,68,23597,1,0,0:0:0:0:
344,108,23804,2,0,L|284:104,1,52.5000020027161
264,184,24218,2,0,L|204:180,1,52.5000020027161,2|0,0:0|0:0,0:0:0:0:
160,248,24632,6,0,P|192:184|180:136,1,105.000004005432,0|2,0:0|0:0,0:0:0:0:
108,120,25253,2,0,P|76:184|88:232,1,105.000004005432
96,296,25873,2,0,L|92:352,1,52.5000020027161,2|0,0:0|0:0,0:0:0:0:
176,328,26287,2,0,L|244:320,1,52.5000020027161
308,352,26701,1,2,0:0:0:0:
368,292,26908,2,0,P|396:248|392:184,1,105.000004005432
332,140,27528,2,0,L|340:112,3,26.2500010013581,2|0|0|0,0:0|0:0|0:0|0:0,0:0:0:0:
296,120,27942,6,0,B|188:104|188:104|212:132,1,140,4|8,0:0|0:0,0:0:0:0:
252,200,28563,1,0,0:0:0:0:
252,200,28666,1,0,0:0:0:0:
252,200,28770,2,0,L|248:276,1,70
328,300,29184,2,0,L|332:372,1,70,8|0,0:0|0:0,0:0:0:0:
396,252,29597,6,0,P|444:192|408:116,1,140,0|8,0:0|0:0,0:0:0:0:
364,180,30218,1,0,0:0:0:0:
356,96,30425,2,0,L|284:100,1,70
204,80,30839,2,0,L|188:40,2,35,8|0|0,0:0|0:0|0:0,0:0:0:0:
168,156,31253,6,0,L|160:296,1,140,0|8,0:0|0:0,0:0:0:0:
228,348,31873,1,0,0:0:0:0:
228,348,32080,2,0,P|260:356|300:352,1,70
400,280,32494,2,0,P|366:271|331:275,1,70,8|0,0:0|0:0,0:0:0:0:
260,228,32908,2,0,B|240:200|240:200|248:80,1,140,0|8,0:0|0:0,0:0:0:0:
312,148,33528,2,0,P|248:168|180:132,1,140
132,72,34149,2,0,L|80:68,3,35,8|0|0|0,0:0|0:0|0:0|0:0,0:0:0:0:
108,108,34563,6,0,L|96:252,1,140,0|8,0:0|0:0,0:0:0:0:
44,312,35184,2,0,P|128:328|176:272,1,140
184,216,35804,2,0,L|264:220,1,70,8|0,0:0|0:0,0:0:0:0:
288,296,36218,2,0,B|268:260|268:260|280:152,1,140,0|8,0:0|0:0,0:0:0:0:
352,120,36839,2,0,B|372:156|372:156|360:264,2,140,0|0|8,0:0|0:0|0:0,0:0:0:0:
276,84,37873,6,0,L|280:8,2,70,0|0|8,0:0|0:0|0:0,0:0:0:0:
196,112,38494,2,0,P|156:152|152:236,1,140
216,284,39115,2,0,L|212:360,1,70,8|8,0:0|0:0,0:0:0:0:
292,324,39528,2,0,L|364:320,1,70
436,364,39942,1,8,0:0:0:0:
492,300,40149,2,0,P|508:248|488:160,1,140
412,140,40770,2,0,L|418:70,1,70,8|8,0:0|0:0,0:0:0:0:
332,164,41184,6,0,B|300:152|300:152|212:160,2,105,0|0|8,0:0|0:0|0:0,0:0:0:0:
372,236,42011,2,0,L|376:344,2,105,0|0|8,0:0|0:0|0:0,0:0:0:0:
416,160,42839,2,0,P|468:132|480:80,2,105,0|0|8,0:0|0:0|0:0,0:0:0:0:
332,164,43666,2,0,L|212:160,2,105,0|0|8,0:0|0:0|0:0,0:0:0:0:
384,232,44494,6,0,L|376:312,1,70
299,377,44908,2,0,L|292:308,1,70,8|0,0:0|0:0,0:0:0:0:
228,252,45322,2,0,L|140:260,1,70
92,312,45735,2,0,L|76:228,1,70,8|0,0:0|0:0,0:0:0:0:
136,180,46149,1,0,0:0:0:0:
148,96,46356,1,0,0:0:0:0:
220,188,46563,1,8,0:0:0:0:
232,104,46770,1,0,0:0:0:0:
304,196,46977,1,4,0:0:0:0:
304,196,47597,5,0,0:0:0:0:
304,196,47701,1,0,0:0:0:0:
304,196,47804,2,0,P|236:172|180:212,1,140,0|8,0:0|0:0,0:0:0:0:
248,252,48425,2,0,L|240:92,1,140
312,64,49046,2,0,L|388:68,1,70,8|0,0:0|0:0,0:0:0:0:
388,152,49460,2,0,L|464:156,2,70,0|0|8,0:0|0:0|0:0,0:0:0:0:
308,180,50080,2,0,L|320:324,1,140
236,328,50701,2,0,P|204:340|160:332,1,70,8|0,0:0|0:0,0:0:0:0:
188,252,51115,6,0,B|172:220|172:220|180:116,1,140,0|8,0:0|0:0,0:0:0:0:
260,88,51735,2,0,B|276:120|276:120|268:224,1,140
348,248,52356,2,0,L|352:184,2,35,8|0|0,0:0|0:0|0:0,0:0:0:0:
320,328,52770,2,0,P|384:324|400:312,2,70,0|0|8,0:0|0:0|0:0,0:0:0:0:
260,268,53391,2,0,L|120:272,1,140
119,179,54011,2,0,L|189:177,1,70,8|0,0:0|0:0,0:0:0:0:
272,192,54425,6,0,P|264:132|188:100,1,140,0|8,0:0|0:0,0:0:0:0:
189,178,55046,2,0,P|197:238|273:270,1,140
340,232,55666,1,8,0:0:0:0:
340,232,55873,2,0,B|364:208|364:208|360:96,1,140
284,64,56494,2,0,L|192:68,1,70,8|0,0:0|0:0,0:0:0:0:
110,147,56908,2,0,L|180:144,1,70
274,202,57322,2,0,L|240:204,2,35,8|0|0,0:0|0:0|0:0,0:0:0:0:
334,70,57735,6,0,L|328:140,1,70
252,48,58149,2,0,L|245:117,1,70,8|0,0:0|0:0,0:0:0:0:
181,249,58563,2,0,L|188:180,1,70
98,226,58977,2,0,L|105:157,1,70,8|0,0:0|0:0,0:0:0:0:
176,108,59391,2,0,P|232:112|268:192,1,140,0|8,0:0|0:0,0:0:0:0:
268,264,60011,1,0,0:0:0:0:
344,224,60218,2,0,L|413:220,1,70
352,140,60632,2,0,L|380:104,3,35,8|0|0|0,0:0|0:0|0:0|0:0,0:0:0:0:
332,116,61046,6,0,L|180:120,1,140,0|8,0:0|0:0,0:0:0:0:
148,48,61666,2,0,P|116:100|136:176,1,140
216,192,62287,1,8,0:0:0:0:
216,192,62494,2,0,B|240:216|240:216|232:328,1,140
156,356,63115,1,8,0:0:0:0:
232,321,63322,2,0,P|308:341|372:297,1,140
420,256,63942,2,0,L|432:304,2,35,8|0|0,0:0|0:0|0:0,0:0:0:0:
352,204,64356,6,0,L|356:56,1,140,0|8,0:0|0:0,0:0:0:0:
272,52,64977,2,0,P|188:56|136:100,1,140
104,164,65597,1,8,0:0:0:0:
145,87,65804,2,0,P|188:136|168:224,1,140
148,284,66425,1,8,0:0:0:0:
228,264,66632,2,0,L|368:256,1,140
292,220,67253,2,0,P|300:184|296:148,1,70,8|0,0:0|0:0,0:0:0:0:
216,176,67666,6,0,P|224:112|300:72,1,140,0|8,0:0|0:0,0:0:0:0:
296,156,68287,2,0,B|412:152|412:152|392:184,1,140
340,232,68908,1,8,0:0:0:0:
420,252,69115,2,0,P|368:308|292:296,1,140
248,244,69735,2,0,L|176:256,1,70,8|0,0:0|0:0,0:0:0:0:
66,191,70149,2,0,L|136:180,1,70
192,116,70563,2,0,L|184:72,2,35,8|0|0,0:0|0:0|0:0,0:0:0:0:
276,104,70977,6,0,P|336:108|360:96,1,70
392,36,71391,2,0,P|452:32|476:44,1,70,8|0,0:0|0:0,0:0:0:0:
436,116,71804,2,0,L|444:256,1,140,0|8,0:0|0:0,0:0:0:0:
368,296,72425,1,0,0:0:0:0:
200,280,72632,1,0,0:0:0:0:
200,280,73873,6,0,L|184:332,2,35
148,212,74287,2,0,P|228:200|272:256,1,140,0|8,0:0|0:0,0:0:0:0:
272,320,74908,1,0,0:0:0:0:
340,272,75115,2,0,L|416:276,2,70,0|0|8,0:0|0:0|0:0,0:0:0:0:
308,196,75735,2,0,L|320:56,1,140
240,28,76356,1,8,0:0:0:0:
176,84,76563,2,0,P|152:112|56:112,1,140
108,48,77184,2,0,B|128:8|176:12,1,70,8|0,0:0|0:0,0:0:0:0:
240,28,77597,6,0,L|400:32,1,140,0|8,0:0|0:0,0:0:0:0:
460,8,78218,1,0,0:0:0:0:
452,92,78425,1,0,0:0:0:0:
452,92,78528,1,0,0:0:0:0:
452,92,78632,2,0,L|456:180,1,70,0|8,0:0|0:0,0:0:0:0:
384,204,79046,1,0,0:0:0:0:
304,184,79253,6,0,L|212:180,1,70
164,132,79666,1,8,0:0:0:0:
96,184,79873,2,0,L|92:264,1,70
168,292,80287,2,0,L|201:300,2,35,0|0|8,0:0|0:0|0:0,0:0:0:0:
268,248,80701,1,0,0:0:0:0:
268,248,80804,1,0,0:0:0:0:
268,248,80908,6,0,L|272:164,1,70
192,148,81322,1,8,0:0:0:0:
264,108,81528,2,0,P|216:68|144:80,1,140
76,132,82149,1,8,0:0:0:0:
76,132,82356,2,0,L|68:280,1,140
112,344,82977,1,8,0:0:0:0:
176,288,83184,2,0,B|204:268|204:268|328:280,1,140
388,304,83804,2,0,L|392:352,2,35,8|0|0,0:0|0:0|0:0,0:0:0:0:
340,200,84218,6,0,P|368:132|328:64,1,140,0|8,0:0|0:0,0:0:0:0:
260,48,84839,2,0,L|104:56,1,140
60,112,85460,2,0,L|56:196,1,70,8|0,0:0|0:0,0:0:0:0:
132,281,85873,2,0,L|136:212,1,70
144,128,86287,1,8,0:0:0:0:
208,180,86494,2,0,L|242:176,2,35
308,124,86908,2,0,L|311:54,2,70,0|8|0,0:0|0:0|0:0,0:0:0:0:
384,156,87528,6,0,P|404:220|372:296,1,140,0|8,0:0|0:0,0:0:0:0:
296,300,88149,2,0,L|304:372,2,70
272,220,88770,1,8,0:0:0:0:
216,276,88977,2,0,L|72:288,1,140
20,224,89597,1,8,0:0:0:0:
96,192,89804,2,0,L|104:32,1,140
184,80,90425,2,0,L|218:86,2,35,8|0|0,0:0|0:0|0:0,0:0:0:0:
304,92,90839,6,0,L|312:180,1,70,12|0,0:0|0:0,0:0:0:0:
398,241,91253,2,0,L|392:172,1,70,8|0,0:0|0:0,0:0:0:0:
228,180,91666,2,0,L|234:249,1,70,8|0,0:0|0:0,0:0:0:0:
166,357,92080,2,0,L|160:288,1,70,8|0,0:0|0:0,0:0:0:0:
140,208,92494,2,0,L|64:196,1,70,8|0,0:0|0:0,0:0:0:0:
104,32,92908,2,0,L|173:42,1,70,8|0,0:0|0:0,0:0:0:0:
156,124,93322,2,0,L|86:113,1,70,8|0,0:0|0:0,0:0:0:0:
232,164,93735,2,0,L|272:156,3,35,8|0|0|0,0:0|0:0|0:0|0:0,0:0:0:0:
256,192,94149,12,2,104080,0:0:0:0:
