osu file format v14

[General]
AudioFilename: audio.mp3
AudioLeadIn: 0
PreviewTime: 57126
Countdown: 0
SampleSet: Normal
StackLeniency: 0.7
Mode: 1
LetterboxInBreaks: 0
WidescreenStoryboard: 0

[Editor]
DistanceSpacing: 0.5
BeatDivisor: 4
GridSize: 16
TimelineZoom: 1.5

[Metadata]
Title:Isekai Girls Talk (TV Size)
TitleUnicode:異世界ガールズ♡トーク (TV Size)
Artist:Hara Yumi, Amamiya Sora, Takahashi Rie, Yuuki Aoi
ArtistUnicode:原 由実, 雨宮 天, 高橋李依, 悠木 碧
Creator:Etsu
Version:Muzukashii
Source:異世界かるてっと
Tags:anime japanese Albedo Aqua Emilia Tanya quartet ending Kenichi Maeyamada Kono Subarashii Sekai ni Shukufuku wo! この素晴らしい世界に祝福を!Overlord オーバーロード Re:Zero kara Hajimeru Isekai Seikatsu Re:ゼロから始める異世界生活 Youjo Senki 幼女戦記 Poii
BeatmapID:2074579
BeatmapSetID:992011

[Difficulty]
HPDrainRate:7
CircleSize:2
OverallDifficulty:5
ApproachRate:9
SliderMultiplier:1.4
SliderTickRate:1

[Events]
//Background and Video events
0,0,"bg1.jpg",0,60
Video,0,"video.avi"
//Break Periods
//Storyboard Layer 0 (Background)
//Storyboard Layer 1 (Fail)
//Storyboard Layer 2 (Pass)
//Storyboard Layer 3 (Foreground)
//Storyboard Layer 4 (Overlay)
//Storyboard Sound Samples

[TimingPoints]
479,352.941176470588,4,1,0,70,1,0
58361,-100,4,1,0,80,0,1
82361,-100,4,1,0,70,0,0

[HitObjects]
256,192,479,5,0,0:0:0:0:
160,224,831,1,8,0:0:0:0:
256,192,1184,1,0,0:0:0:0:
256,192,1890,1,8,0:0:0:0:
256,192,2243,1,0,0:0:0:0:
256,192,2596,1,8,0:0:0:0:
256,192,3302,1,0,0:0:0:0:
256,192,3655,1,0,0:0:0:0:
256,208,3831,1,0,0:0:0:0:
256,192,4008,1,8,0:0:0:0:
432,192,4361,1,0,0:0:0:0:
256,192,4714,1,8,0:0:0:0:
256,192,5067,1,8,0:0:0:0:
256,192,5420,1,0,0:0:0:0:
256,192,6126,1,8,0:0:0:0:
256,192,6478,1,0,0:0:0:0:
256,192,6831,1,8,0:0:0:0:
256,192,7537,1,0,0:0:0:0:
256,192,7890,1,0,0:0:0:0:
256,192,8243,1,8,0:0:0:0:
256,192,8949,1,0,0:0:0:0:
256,192,9655,1,0,0:0:0:0:
256,192,10361,1,0,0:0:0:0:
256,192,10537,1,0,0:0:0:0:
256,192,10714,1,0,0:0:0:0:
256,192,10890,1,0,0:0:0:0:
256,192,11067,1,0,0:0:0:0:
256,192,11243,1,0,0:0:0:0:
112,192,11420,1,4,0:0:0:0:
256,192,11773,5,8,0:0:0:0:
344,190,12126,1,0,0:0:0:0:
167,238,12655,1,0,0:0:0:0:
256,192,12831,1,8,0:0:0:0:
136,194,13008,1,0,0:0:0:0:
243,179,13361,1,0,0:0:0:0:
256,192,13537,1,8,0:0:0:0:
256,192,14243,1,8,0:0:0:0:
256,192,14596,1,0,0:0:0:0:
334,218,14949,1,8,0:0:0:0:
256,192,15478,1,8,0:0:0:0:
180,181,15655,1,8,0:0:0:0:
256,192,15831,1,0,0:0:0:0:
249,187,16184,1,0,0:0:0:0:
177,150,16361,1,8,0:0:0:0:
273,177,17067,1,0,0:0:0:0:
256,192,17420,1,8,0:0:0:0:
256,192,17773,1,0,0:0:0:0:
241,219,18302,1,0,0:0:0:0:
256,192,18478,1,8,0:0:0:0:
139,230,18655,1,0,0:0:0:0:
249,187,19008,1,0,0:0:0:0:
256,192,19184,1,8,0:0:0:0:
256,192,19890,1,8,0:0:0:0:
256,192,20243,1,0,0:0:0:0:
233,165,20596,1,8,0:0:0:0:
49,143,21126,1,0,0:0:0:0:
256,192,21302,1,8,0:0:0:0:
258,168,21478,1,8,0:0:0:0:
138,230,21655,1,0,0:0:0:0:
128,192,22008,1,0,0:0:0:0:
376,208,22714,1,0,0:0:0:0:
232,141,23067,1,8,0:0:0:0:
244,166,23420,1,8,0:0:0:0:
222,167,23596,1,0,0:0:0:0:
281,225,23949,1,0,0:0:0:0:
176,136,24126,1,8,0:0:0:0:
143,192,24302,1,0,0:0:0:0:
257,151,24655,1,0,0:0:0:0:
392,288,24831,1,8,0:0:0:0:
302,201,25008,1,8,0:0:0:0:
160,144,25537,1,8,0:0:0:0:
232,168,25890,1,0,0:0:0:0:
244,166,26243,1,8,0:0:0:0:
281,225,26420,1,0,0:0:0:0:
281,225,26773,1,8,0:0:0:0:
456,320,26949,1,8,0:0:0:0:
143,192,27126,1,0,0:0:0:0:
257,151,27478,1,0,0:0:0:0:
176,128,27655,1,8,0:0:0:0:
302,182,27831,1,0,0:0:0:0:
208,144,28361,1,0,0:0:0:0:
384,280,28714,1,8,0:0:0:0:
255,207,29067,1,8,0:0:0:0:
237,168,29243,1,0,0:0:0:0:
190,222,29596,1,0,0:0:0:0:
416,272,29773,1,8,0:0:0:0:
257,151,29949,1,0,0:0:0:0:
257,151,30302,1,0,0:0:0:0:
144,264,30478,1,8,0:0:0:0:
400,112,31184,1,8,0:0:0:0:
192,272,31537,1,0,0:0:0:0:
255,207,31890,1,8,0:0:0:0:
293,125,32067,1,0,0:0:0:0:
255,207,32420,1,0,0:0:0:0:
352,280,32596,1,8,0:0:0:0:
104,160,32773,1,0,0:0:0:0:
192,160,32949,1,8,0:0:0:0:
256,192,33302,1,0,0:0:0:0:
400,280,34008,1,0,0:0:0:0:
143,193,34361,1,8,0:0:0:0:
168,120,34714,1,0,0:0:0:0:
114,167,35067,1,8,0:0:0:0:
51,145,35243,1,8,0:0:0:0:
256,89,35420,1,0,0:0:0:0:
224,160,35596,1,0,0:0:0:0:
70,143,35773,1,8,0:0:0:0:
79,160,36126,1,8,0:0:0:0:
123,191,36302,1,0,0:0:0:0:
207,106,36831,1,8,0:0:0:0:
168,120,37184,1,0,0:0:0:0:
207,106,37537,1,8,0:0:0:0:
280,184,37890,1,8,0:0:0:0:
280,184,38067,1,0,0:0:0:0:
116,99,38243,1,8,0:0:0:0:
145,148,38420,1,8,0:0:0:0:
240,172,38596,1,0,0:0:0:0:
193,150,38949,1,0,0:0:0:0:
224,216,39126,1,8,0:0:0:0:
152,104,39655,1,0,0:0:0:0:
216,192,40008,1,8,0:0:0:0:
240,248,40361,1,0,0:0:0:0:
121,146,40714,1,0,0:0:0:0:
168,144,40890,1,0,0:0:0:0:
131,134,41067,1,8,0:0:0:0:
121,146,41243,1,8,0:0:0:0:
97,197,41420,1,0,0:0:0:0:
288,256,41773,1,8,0:0:0:0:
110,217,41949,1,0,0:0:0:0:
160,160,42478,1,8,0:0:0:0:
320,256,42831,1,0,0:0:0:0:
176,152,43184,1,8,0:0:0:0:
110,210,43537,1,0,0:0:0:0:
99,201,43714,1,0,0:0:0:0:
229,116,43890,1,8,0:0:0:0:
209,92,44067,1,0,0:0:0:0:
272,240,44243,1,8,0:0:0:0:
256,192,44596,1,0,0:0:0:0:
240,264,45302,1,0,0:0:0:0:
271,160,45655,1,12,0:0:0:0:
316,245,46008,1,0,0:0:0:0:
344,160,46361,1,0,0:0:0:0:
316,245,46714,1,0,0:0:0:0:
134,183,46890,1,8,0:0:0:0:
376,176,47067,1,0,0:0:0:0:
256,192,47243,1,8,0:0:0:0:
224,145,47420,1,8,0:0:0:0:
288,280,47773,1,8,0:0:0:0:
256,192,47949,1,0,0:0:0:0:
384,280,48478,1,0,0:0:0:0:
134,183,48831,1,0,0:0:0:0:
82,107,49008,1,0,0:0:0:0:
104,144,49184,1,8,0:0:0:0:
205,185,49361,1,8,0:0:0:0:
229,174,49537,1,0,0:0:0:0:
144,288,49890,1,8,0:0:0:0:
96,168,50243,1,8,0:0:0:0:
224,224,50420,1,0,0:0:0:0:
288,288,50596,1,8,0:0:0:0:
134,183,50773,1,8,0:0:0:0:
119,187,50861,1,8,0:0:0:0:
134,183,50949,1,8,0:0:0:0:
376,184,51302,1,0,0:0:0:0:
224,224,51831,1,0,0:0:0:0:
240,224,52008,1,8,0:0:0:0:
135,184,52361,1,0,0:0:0:0:
224,199,52714,1,8,0:0:0:0:
280,248,52890,1,8,0:0:0:0:
264,240,53067,1,0,0:0:0:0:
220,186,53243,1,0,0:0:0:0:
144,144,53420,1,8,0:0:0:0:
224,199,53773,1,0,0:0:0:0:
200,240,54126,1,8,0:0:0:0:
254,145,54478,1,8,0:0:0:0:
336,288,54831,1,0,0:0:0:0:
118,144,55008,1,0,0:0:0:0:
240,192,55184,1,8,0:0:0:0:
264,190,55537,1,8,0:0:0:0:
208,192,55714,1,0,0:0:0:0:
135,184,55890,1,8,0:0:0:0:
264,240,56243,1,8,0:0:0:0:
224,199,56420,1,8,0:0:0:0:
336,224,56596,1,8,0:0:0:0:
203,211,56773,1,8,0:0:0:0:
336,224,56949,1,0,0:0:0:0:
87,128,58008,1,8,0:0:0:0:
232,256,58361,1,4,0:0:0:0:
192,168,58714,1,8,0:0:0:0:
134,247,58890,1,0,0:0:0:0:
189,145,59243,1,0,0:0:0:0:
262,243,59420,1,8,0:0:0:0:
134,247,59596,1,0,0:0:0:0:
278,155,59773,1,0,0:0:0:0:
328,224,59861,1,0,0:0:0:0:
278,155,59949,1,0,0:0:0:0:
278,155,60126,1,8,0:0:0:0:
224,136,60302,1,0,0:0:0:0:
201,150,60831,1,8,0:0:0:0:
144,192,61184,1,0,0:0:0:0:
144,192,61361,1,0,0:0:0:0:
144,192,61537,1,8,0:0:0:0:
144,192,61714,1,8,0:0:0:0:
144,192,61890,1,0,0:0:0:0:
95,196,62243,1,0,0:0:0:0:
237,210,62420,1,8,0:0:0:0:
233,142,62773,1,0,0:0:0:0:
168,280,62949,1,0,0:0:0:0:
115,149,63126,1,8,0:0:0:0:
128,152,64008,1,0,0:0:0:0:
212,140,64361,1,8,0:0:0:0:
168,208,64714,1,0,0:0:0:0:
229,167,64890,1,0,0:0:0:0:
212,140,65067,1,0,0:0:0:0:
288,168,65243,1,12,0:0:0:0:
260,191,65596,1,0,0:0:0:0:
288,168,65949,1,12,0:0:0:0:
112,184,66478,1,8,0:0:0:0:
216,152,66831,1,0,0:0:0:0:
304,232,67184,1,0,0:0:0:0:
384,280,67537,1,8,0:0:0:0:
169,196,67714,1,0,0:0:0:0:
217,172,67890,1,8,0:0:0:0:
194,76,68243,1,0,0:0:0:0:
256,192,68596,1,8,0:0:0:0:
256,192,68949,1,0,0:0:0:0:
233,156,69302,1,8,0:0:0:0:
208,176,69655,1,4,0:0:0:0:
144,212,70008,1,8,0:0:0:0:
184,176,70184,1,0,0:0:0:0:
233,198,70537,1,0,0:0:0:0:
156,168,70714,1,8,0:0:0:0:
156,168,70890,1,0,0:0:0:0:
168,256,71067,1,0,0:0:0:0:
289,220,71155,1,0,0:0:0:0:
289,220,71243,1,0,0:0:0:0:
256,216,71420,1,8,0:0:0:0:
289,220,71596,1,0,0:0:0:0:
201,171,72126,1,0,0:0:0:0:
160,160,72478,1,8,0:0:0:0:
107,147,72831,1,0,0:0:0:0:
139,194,73008,1,0,0:0:0:0:
289,220,73184,1,8,0:0:0:0:
288,261,73361,1,0,0:0:0:0:
392,280,73714,1,8,0:0:0:0:
138,194,74067,1,8,0:0:0:0:
304,232,74243,1,0,0:0:0:0:
268,194,74420,1,8,0:0:0:0:
160,128,75302,1,0,0:0:0:0:
139,194,75655,1,8,0:0:0:0:
144,264,76008,1,0,0:0:0:0:
261,179,76184,1,0,0:0:0:0:
139,194,76361,1,0,0:0:0:0:
240,288,76537,1,12,0:0:0:0:
252,178,76890,1,0,0:0:0:0:
256,240,77243,1,12,0:0:0:0:
187,156,77773,1,8,0:0:0:0:
144,144,78126,1,0,0:0:0:0:
288,256,78478,1,0,0:0:0:0:
248,168,78831,1,0,0:0:0:0:
262,181,79008,1,0,0:0:0:0:
104,203,79184,1,8,0:0:0:0:
200,272,79537,1,0,0:0:0:0:
296,256,79714,1,0,0:0:0:0:
262,181,79890,1,0,0:0:0:0:
158,131,80067,1,0,0:0:0:0:
312,232,80243,1,8,0:0:0:0:
262,181,80420,1,8,0:0:0:0:
12,170,80596,1,8,0:0:0:0:
251,156,80684,1,8,0:0:0:0:
173,192,80773,1,8,0:0:0:0:
192,224,80949,1,0,0:0:0:0:
224,224,81831,1,0,0:0:0:0:
172,188,82008,1,12,0:0:0:0:
360,168,82361,1,0,0:0:0:0:
224,208,82714,1,8,0:0:0:0:
136,173,83067,1,0,0:0:0:0:
128,120,83420,1,8,0:0:0:0:
262,182,83508,1,8,0:0:0:0:
262,182,83596,1,8,0:0:0:0:
136,173,83773,1,8,0:0:0:0:
136,173,84126,1,0,0:0:0:0:
136,173,84478,1,8,0:0:0:0:
336,256,84831,1,0,0:0:0:0:
262,183,84920,1,0,0:0:0:0:
262,183,85008,1,0,0:0:0:0:
176,280,85184,1,0,0:0:0:0:
320,168,85890,1,8,0:0:0:0:
286,207,86420,1,0,0:0:0:0:
344,160,86596,1,8,0:0:0:0:
192,256,87302,1,4,0:0:0:0:
