osu file format v14

[General]
AudioFilename: audio.mp3
AudioLeadIn: 0
PreviewTime: 57288
Countdown: 0
SampleSet: Soft
StackLeniency: 0.7
Mode: 3
LetterboxInBreaks: 0
EpilepsyWarning: 1
SpecialStyle: 0
WidescreenStoryboard: 1

[Editor]
DistanceSpacing: 0.5
BeatDivisor: 2
GridSize: 8
TimelineZoom: 2

[Metadata]
Title:Isekai Girls Talk (TV Size)
TitleUnicode:異世界ガールズ ♡ トーク (TV Size)
Artist:Hara Yumi, Amamiya Sora, Takahashi Rie, Yuuki Aoi
ArtistUnicode:原 由実, 雨宮 天, 高橋李依, 悠木 碧
Creator:[ Lovega ]
Version:Girls*Talk
Source:異世界かるてっと
Tags:Syadow- dudehacker Affirmation Isekai Quartet オーバーロード overlord この素晴らしい世界に祝福を! konosuba: god's blessing on this wonderful world! kono subarashii sekai ni shukufuku syukufuku o re zero kara hajimeru isekai seikatsu re:ゼロから始める異世界生活 re:zero -starting life in another world- 幼女戦記 Saga of Tanya the Evil youjo senki tanya von degurechaff emilia aqua albedo ターニャ・デグレチャフ エミリア アクア アルベド ed ending anime japanese
BeatmapID:2021258
BeatmapSetID:957917

[Difficulty]
HPDrainRate:8.5
CircleSize:4
OverallDifficulty:8.5
ApproachRate:5
SliderMultiplier:1.4
SliderTickRate:1

[Events]
//Background and Video events
0,0,"BGsya.jpg",0,0
//Break Periods
//Storyboard Layer 0 (Background)
//Storyboard Layer 1 (Fail)
//Storyboard Layer 2 (Pass)
//Storyboard Layer 3 (Foreground)
//Storyboard Layer 4 (Overlay)
//Storyboard Sound Samples

[TimingPoints]
465,352.941176470588,4,2,1,70,1,0
58347,-100,4,2,1,70,0,1
78112,-100,4,2,1,70,0,0

[HitObjects]
448,192,465,128,0,817:0:0:0:70:LR_Drum Rpd Fast .wav
64,192,465,128,0,817:0:0:0:0:
192,192,817,1,0,0:0:0:70:LR_Drum Rpd Fast .wav
320,192,817,1,0,0:0:0:0:
64,192,994,1,0,0:0:0:0:
448,192,994,1,0,0:0:0:0:
64,192,1170,128,0,1788:0:0:0:70:LR_TomSnare.wav
448,192,1170,128,0,1788:0:0:0:0:
320,192,1876,128,0,2229:0:0:0:70:LR_Drum Rpd Fast .wav
448,192,1876,128,0,2229:0:0:0:0:
192,192,2229,1,0,0:0:0:70:LR_Drum Rpd Fast .wav
64,192,2229,1,0,0:0:0:0:
320,192,2406,1,0,0:0:0:0:
448,192,2406,1,0,0:0:0:0:
320,192,2582,128,0,3200:0:0:0:70:LR_TomSnare.wav
448,192,2582,128,0,3200:0:0:0:0:
64,192,3288,128,0,3641:0:0:0:0:
448,192,3288,128,0,3641:0:0:0:70:LR_Drum Rpd Fast .wav
192,192,3641,1,0,0:0:0:70:LR_Drum Rpd Fast .wav
320,192,3641,1,0,0:0:0:0:
320,192,3817,1,0,0:0:0:70:LR_Drum Rpd Fast .wav
192,192,3817,1,0,0:0:0:0:
64,192,3994,1,0,0:0:0:0:
448,192,3994,1,0,0:0:0:70:LR_Drum Rpd Fast .wav
448,192,4170,1,0,0:0:0:0:
64,192,4170,1,0,0:0:0:70:LR_Drum Rpd Fast .wav
320,192,4347,1,0,0:0:0:70:LR_Drum Rpd Fast .wav
448,192,4347,1,0,0:0:0:0:
192,192,4523,1,0,0:0:0:70:LR_Drum Rpd Fast .wav
64,192,4523,1,0,0:0:0:0:
192,192,4700,128,0,5053:0:0:0:70:LR_Drum Rpd Fast .wav
64,192,4700,128,0,5053:0:0:0:0:
320,192,5053,1,0,0:0:0:70:LR_Drum Rpd Fast .wav
448,192,5053,1,0,0:0:0:0:
192,192,5229,1,0,0:0:0:0:
64,192,5229,1,0,0:0:0:0:
64,192,5406,128,0,6023:0:0:0:70:LR_TomSnare.wav
192,192,5406,128,0,6023:0:0:0:0:
320,192,6112,128,0,6464:0:0:0:0:
192,192,6112,128,0,6464:0:0:0:70:LR_Drum Rpd Fast .wav
64,192,6464,1,0,0:0:0:0:
448,192,6464,1,0,0:0:0:70:LR_Drum Rpd Fast .wav
192,192,6641,1,0,0:0:0:0:
320,192,6641,1,0,0:0:0:0:
192,192,6817,128,0,7435:0:0:0:70:LR_TomSnare.wav
320,192,6817,128,0,7435:0:0:0:0:
320,192,7523,128,0,7876:0:0:0:70:LR_Drum Rpd Fast .wav
64,192,7523,128,0,7876:0:0:0:0:
192,192,7876,1,0,0:0:0:70:LR_Drum Rpd Fast .wav
448,192,7876,1,0,0:0:0:0:
320,192,8053,1,0,0:0:0:0:
64,192,8053,1,0,0:0:0:0:
64,192,8229,128,0,8847:0:0:0:70:LR_TomSnare.wav
320,192,8229,128,0,8847:0:0:0:0:
320,192,8935,1,2,0:0:0:0:
448,192,8935,1,0,0:0:0:0:
64,192,8935,1,0,0:0:0:0:
320,192,9641,1,2,0:0:0:0:
448,192,9641,1,0,0:0:0:0:
64,192,9641,1,0,0:0:0:0:
192,192,10347,1,2,0:0:0:0:
64,192,10347,1,0,0:0:0:0:
64,192,10523,1,0,0:0:0:0:
192,192,10523,1,2,0:0:0:0:
64,192,10700,1,0,0:0:0:0:
192,192,10700,1,2,0:0:0:0:
64,192,10876,1,0,0:0:0:0:
192,192,10876,1,2,0:0:0:0:
64,192,11053,1,0,0:0:0:0:
192,192,11053,1,2,0:0:0:0:
448,192,11229,1,0,0:0:0:0:
320,192,11229,1,2,0:0:0:0:
64,192,11229,1,0,0:0:0:0:
320,192,11406,1,8,0:0:0:0:
448,192,11406,1,0,0:0:0:70:CrashRight.wav
192,192,11406,1,0,0:0:0:0:
64,192,11406,1,0,0:0:0:0:
64,192,11759,128,0,12023:0:0:0:0:
192,192,11759,128,2,12023:0:0:0:0:
64,192,12112,1,0,0:0:0:0:
192,192,12112,1,8,0:0:0:0:
448,192,12112,1,0,0:0:0:0:
64,192,12288,1,0,0:0:0:0:
192,192,12288,1,2,0:0:0:0:
320,192,12376,1,0,0:0:0:0:
448,192,12464,1,0,0:0:0:0:
192,192,12641,1,0,0:0:0:0:
320,192,12641,1,2,0:0:0:0:
320,192,12817,1,8,0:0:0:0:
448,192,12817,1,0,0:0:0:0:
64,192,12817,1,0,0:0:0:0:
192,192,12994,1,0,0:0:0:0:
448,192,12994,1,2,0:0:0:0:
64,192,13347,1,0,0:0:0:0:
320,192,13347,1,2,0:0:0:0:
192,192,13523,1,8,0:0:0:0:
448,192,13523,1,0,0:0:0:0:
64,192,13523,1,0,0:0:0:0:
320,192,13700,1,0,0:0:0:0:
320,192,13876,1,2,0:0:0:0:
64,192,13876,1,0,0:0:0:0:
192,192,14053,1,0,0:0:0:0:
448,192,14053,1,2,0:0:0:0:
192,192,14229,128,0,14406:0:0:0:0:
320,192,14229,128,0,14406:0:0:0:0:
448,192,14229,1,8,0:0:0:0:
192,192,14582,128,0,14847:0:0:0:0:
320,192,14582,128,2,14847:0:0:0:0:
64,192,14935,1,0,0:0:0:0:
320,192,14935,1,0,0:0:0:0:
448,192,14935,1,8,0:0:0:0:
448,192,15112,1,0,0:0:0:0:
320,192,15112,1,2,0:0:0:0:
192,192,15200,1,0,0:0:0:0:
64,192,15288,1,0,0:0:0:0:
320,192,15464,1,2,0:0:0:0:
448,192,15464,1,0,0:0:0:0:
192,192,15641,1,8,0:0:0:0:
448,192,15641,1,0,0:0:0:0:
64,192,15641,1,0,0:0:0:0:
320,192,15817,1,2,0:0:0:0:
64,192,15817,1,0,0:0:0:0:
192,192,16170,1,2,0:0:0:0:
448,192,16170,1,0,0:0:0:0:
320,192,16347,1,8,0:0:0:0:
448,192,16347,1,0,0:0:0:0:
64,192,16347,1,0,0:0:0:0:
192,192,16523,1,0,0:0:0:0:
64,192,16700,1,0,0:0:0:0:
192,192,16700,1,2,0:0:0:0:
448,192,16876,1,0,0:0:0:0:
320,192,16876,1,2,0:0:0:0:
192,192,16964,1,0,0:0:0:0:
448,192,17053,128,0,17229:0:0:0:0:
320,192,17053,128,8,17229:0:0:0:0:
64,192,17053,1,0,0:0:0:0:
192,192,17229,1,0,0:0:0:0:
64,192,17317,1,0,0:0:0:0:
448,192,17406,128,0,17670:0:0:0:0:
320,192,17406,128,2,17670:0:0:0:0:
64,192,17759,1,0,0:0:0:0:
192,192,17759,1,8,0:0:0:0:
320,192,17759,1,0,0:0:0:0:
320,192,17935,1,0,0:0:0:0:
192,192,17935,1,2,0:0:0:0:
448,192,18023,1,0,0:0:0:0:
64,192,18112,1,0,0:0:0:0:
192,192,18288,1,2,0:0:0:0:
448,192,18288,1,0,0:0:0:0:
320,192,18464,1,8,0:0:0:0:
64,192,18464,1,0,0:0:0:0:
448,192,18464,1,0,0:0:0:0:
192,192,18641,1,0,0:0:0:0:
320,192,18641,1,2,0:0:0:0:
64,192,18729,1,0,0:0:0:0:
448,192,18817,1,0,0:0:0:0:
64,192,18994,1,0,0:0:0:0:
320,192,18994,1,2,0:0:0:0:
320,192,19170,1,8,0:0:0:0:
448,192,19170,1,0,0:0:0:0:
192,192,19170,1,0,0:0:0:0:
64,192,19347,1,0,0:0:0:0:
64,192,19523,1,2,0:0:0:0:
448,192,19523,1,0,0:0:0:0:
448,192,19700,1,0,0:0:0:0:
320,192,19700,1,2,0:0:0:0:
64,192,19876,128,0,20053:0:0:0:0:
192,192,19876,128,0,20053:0:0:0:0:
320,192,19876,1,8,0:0:0:0:
64,192,20229,128,0,20494:0:0:0:0:
192,192,20229,128,2,20494:0:0:0:0:
320,192,20582,1,8,0:0:0:0:
192,192,20582,1,0,0:0:0:0:
448,192,20582,1,0,0:0:0:0:
320,192,20759,1,2,0:0:0:0:
192,192,20759,1,0,0:0:0:0:
64,192,20847,1,0,0:0:0:0:
448,192,20935,1,0,0:0:0:0:
320,192,21112,1,2,0:0:0:0:
192,192,21112,1,0,0:0:0:0:
192,192,21288,1,8,0:0:0:0:
64,192,21288,1,0,0:0:0:0:
448,192,21288,1,0,0:0:0:0:
448,192,21464,1,2,0:0:0:0:
64,192,21464,1,0,0:0:0:0:
192,192,21641,1,0,0:0:0:0:
320,192,21641,1,2,0:0:0:0:
192,192,21817,1,0,0:0:0:0:
320,192,21817,1,2,0:0:0:0:
192,192,21994,1,0,0:0:0:0:
320,192,21994,1,2,0:0:0:0:
192,192,22170,1,0,0:0:0:0:
320,192,22170,1,2,0:0:0:0:
320,192,22347,1,2,0:0:0:0:
192,192,22347,1,0,0:0:0:0:
192,192,22523,1,0,0:0:0:0:
320,192,22523,1,2,0:0:0:0:
448,192,22523,1,0,0:0:0:0:
192,192,22700,128,0,22876:0:0:0:0:
320,192,22700,128,0,22876:0:0:0:0:
64,192,22700,1,0,0:0:0:70:CrashRight.wav
448,192,22700,1,8,0:0:0:0:
192,192,23053,128,0,23317:0:0:0:0:
320,192,23053,128,2,23317:0:0:0:0:
64,192,23406,1,0,0:0:0:0:
320,192,23406,1,0,0:0:0:0:
448,192,23406,1,8,0:0:0:0:
64,192,23582,1,0,0:0:0:0:
320,192,23582,1,2,0:0:0:0:
192,192,23670,1,0,0:0:0:0:
448,192,23759,1,0,0:0:0:0:
192,192,23935,1,2,0:0:0:0:
448,192,23935,1,0,0:0:0:0:
192,192,24112,1,0,0:0:0:0:
320,192,24112,1,8,0:0:0:0:
64,192,24112,1,0,0:0:0:0:
64,192,24288,1,0,0:0:0:0:
448,192,24288,1,2,0:0:0:0:
320,192,24464,1,0,0:0:0:0:
448,192,24641,1,2,0:0:0:0:
192,192,24641,1,0,0:0:0:0:
320,192,24817,1,0,0:0:0:0:
448,192,24817,1,8,0:0:0:0:
64,192,24817,1,0,0:0:0:0:
192,192,24994,1,0,0:0:0:0:
448,192,25170,1,0,0:0:0:0:
192,192,25170,1,2,0:0:0:0:
64,192,25347,1,0,0:0:0:0:
320,192,25347,1,2,0:0:0:0:
320,192,25523,128,8,25700:0:0:0:0:
448,192,25523,128,0,25700:0:0:0:0:
64,192,25523,1,0,0:0:0:0:
320,192,25876,128,2,26141:0:0:0:0:
448,192,25876,128,0,26141:0:0:0:0:
448,192,26229,1,8,0:0:0:0:
192,192,26229,1,0,0:0:0:0:
64,192,26229,1,0,0:0:0:0:
448,192,26406,1,2,0:0:0:0:
192,192,26406,1,0,0:0:0:0:
320,192,26494,1,0,0:0:0:0:
64,192,26582,1,0,0:0:0:0:
320,192,26759,1,2,0:0:0:0:
64,192,26759,1,0,0:0:0:0:
320,192,26935,1,8,0:0:0:0:
192,192,26935,1,0,0:0:0:0:
448,192,26935,1,0,0:0:0:0:
448,192,27112,1,2,0:0:0:0:
64,192,27112,1,0,0:0:0:0:
192,192,27200,1,0,0:0:0:0:
320,192,27288,1,0,0:0:0:0:
192,192,27464,1,2,0:0:0:0:
64,192,27464,1,0,0:0:0:0:
448,192,27553,1,0,0:0:0:0:
192,192,27641,1,0,0:0:0:0:
320,192,27641,1,8,0:0:0:0:
64,192,27729,1,0,0:0:0:0:
448,192,27817,1,0,0:0:0:0:
320,192,27817,1,0,0:0:0:0:
192,192,27906,1,0,0:0:0:0:
64,192,27994,1,0,0:0:0:0:
448,192,27994,1,2,0:0:0:0:
320,192,28170,1,2,0:0:0:0:
192,192,28170,1,0,0:0:0:0:
448,192,28259,1,0,0:0:0:0:
320,192,28347,128,8,28523:0:0:0:0:
192,192,28347,128,0,28523:0:0:0:0:
64,192,28347,1,0,0:0:0:0:
320,192,28700,128,2,28964:0:0:0:0:
192,192,28700,128,0,28964:0:0:0:0:
320,192,29053,1,0,0:0:0:0:
64,192,29053,1,0,0:0:0:0:
448,192,29053,1,8,0:0:0:0:
64,192,29229,1,0,0:0:0:0:
192,192,29229,1,2,0:0:0:0:
320,192,29317,1,0,0:0:0:0:
448,192,29406,1,0,0:0:0:0:
192,192,29582,1,0,0:0:0:0:
320,192,29582,1,2,0:0:0:0:
448,192,29759,1,0,0:0:0:0:
192,192,29759,1,8,0:0:0:0:
64,192,29759,1,0,0:0:0:0:
320,192,29935,1,2,0:0:0:0:
448,192,29935,1,0,0:0:0:0:
192,192,30023,1,0,0:0:0:0:
64,192,30112,1,0,0:0:0:0:
448,192,30288,1,2,0:0:0:0:
64,192,30288,1,0,0:0:0:0:
320,192,30464,1,8,0:0:0:0:
448,192,30464,1,0,0:0:0:0:
192,192,30464,1,0,0:0:0:0:
192,192,30641,1,0,0:0:0:0:
448,192,30817,1,0,0:0:0:0:
320,192,30817,1,2,0:0:0:0:
64,192,30994,1,0,0:0:0:0:
320,192,30994,1,2,0:0:0:0:
64,192,31170,128,0,31347:0:0:0:0:
192,192,31170,128,0,31347:0:0:0:0:
448,192,31170,1,8,0:0:0:0:
64,192,31523,128,0,31788:0:0:0:0:
192,192,31523,128,2,31788:0:0:0:0:
192,192,31876,1,0,0:0:0:0:
320,192,31876,1,8,0:0:0:0:
448,192,31876,1,0,0:0:0:0:
64,192,32053,1,0,0:0:0:0:
192,192,32053,1,2,0:0:0:0:
448,192,32141,1,0,0:0:0:0:
320,192,32229,1,0,0:0:0:0:
320,192,32406,1,2,0:0:0:0:
64,192,32406,1,0,0:0:0:0:
192,192,32582,1,0,0:0:0:0:
448,192,32582,1,8,0:0:0:0:
64,192,32582,1,0,0:0:0:0:
320,192,32759,1,2,0:0:0:0:
448,192,32759,1,0,0:0:0:0:
192,192,32847,1,0,0:0:0:0:
64,192,32935,1,0,0:0:0:0:
448,192,32935,1,2,0:0:0:0:
64,192,33112,1,0,0:0:0:0:
448,192,33112,1,2,0:0:0:0:
64,192,33288,1,0,0:0:0:0:
448,192,33288,1,2,0:0:0:0:
64,192,33464,1,0,0:0:0:0:
448,192,33464,1,2,0:0:0:0:
64,192,33641,1,0,0:0:0:0:
448,192,33641,1,2,0:0:0:0:
64,192,33817,1,0,0:0:0:0:
448,192,33817,1,0,0:0:0:0:
192,192,33817,1,2,0:0:0:0:
64,192,33994,128,0,34170:0:0:0:0:
448,192,33994,128,0,34170:0:0:0:0:
192,192,33994,1,0,0:0:0:70:CrashRight.wav
320,192,33994,1,8,0:0:0:0:
448,192,34347,128,2,34612:0:0:0:0:
64,192,34347,128,0,34612:0:0:0:0:
192,192,34700,1,0,0:0:0:0:
320,192,34700,1,8,0:0:0:0:
64,192,34700,1,0,0:0:0:0:
448,192,34876,1,0,0:0:0:0:
320,192,34876,1,2,0:0:0:0:
64,192,34964,1,0,0:0:0:0:
192,192,35053,1,0,0:0:0:0:
192,192,35229,1,2,0:0:0:0:
448,192,35229,1,0,0:0:0:0:
320,192,35406,1,8,0:0:0:0:
64,192,35406,1,0,0:0:0:0:
448,192,35406,1,0,0:0:0:0:
192,192,35582,1,2,0:0:0:0:
64,192,35582,1,0,0:0:0:0:
320,192,35935,1,2,0:0:0:0:
448,192,35935,1,0,0:0:0:0:
448,192,36112,1,0,0:0:0:0:
192,192,36112,1,0,0:0:0:0:
64,192,36112,1,8,0:0:0:0:
320,192,36288,1,0,0:0:0:0:
64,192,36464,1,0,0:0:0:0:
192,192,36464,1,2,0:0:0:0:
448,192,36641,1,0,0:0:0:0:
320,192,36641,1,2,0:0:0:0:
192,192,36817,128,0,36994:0:0:0:0:
448,192,36817,128,0,36994:0:0:0:0:
64,192,36817,1,8,0:0:0:0:
192,192,37170,128,2,37435:0:0:0:0:
448,192,37170,128,0,37435:0:0:0:0:
64,192,37523,1,0,0:0:0:0:
448,192,37523,1,0,0:0:0:0:
320,192,37523,1,8,0:0:0:0:
192,192,37700,1,0,0:0:0:0:
320,192,37700,1,2,0:0:0:0:
64,192,37788,1,0,0:0:0:0:
448,192,37876,1,0,0:0:0:0:
448,192,38053,1,2,0:0:0:0:
192,192,38053,1,0,0:0:0:0:
320,192,38229,1,8,0:0:0:0:
64,192,38229,1,0,0:0:0:0:
192,192,38229,1,0,0:0:0:0:
64,192,38406,1,0,0:0:0:0:
448,192,38406,1,2,0:0:0:0:
64,192,38759,1,0,0:0:0:0:
448,192,38759,1,2,0:0:0:0:
192,192,38935,1,0,0:0:0:0:
320,192,38935,1,0,0:0:0:0:
448,192,38935,1,8,0:0:0:0:
64,192,39112,1,0,0:0:0:0:
320,192,39288,1,2,0:0:0:0:
448,192,39288,1,0,0:0:0:0:
192,192,39464,1,2,0:0:0:0:
64,192,39464,1,0,0:0:0:0:
320,192,39553,1,0,0:0:0:0:
192,192,39641,128,0,39817:0:0:0:0:
64,192,39641,128,0,39817:0:0:0:0:
448,192,39641,1,8,0:0:0:0:
320,192,39817,1,0,0:0:0:0:
448,192,39906,1,0,0:0:0:0:
64,192,39994,128,0,40259:0:0:0:0:
192,192,39994,128,2,40259:0:0:0:0:
192,192,40347,1,0,0:0:0:0:
64,192,40347,1,0,0:0:0:0:
448,192,40347,1,8,0:0:0:0:
192,192,40523,1,0,0:0:0:0:
320,192,40523,1,2,0:0:0:0:
448,192,40612,1,0,0:0:0:0:
64,192,40700,1,0,0:0:0:0:
64,192,40876,1,0,0:0:0:0:
320,192,40876,1,2,0:0:0:0:
448,192,41053,1,0,0:0:0:0:
320,192,41053,1,8,0:0:0:0:
192,192,41053,1,0,0:0:0:0:
192,192,41229,1,2,0:0:0:0:
64,192,41229,1,0,0:0:0:0:
448,192,41582,1,0,0:0:0:0:
320,192,41582,1,2,0:0:0:0:
320,192,41759,1,8,0:0:0:0:
64,192,41759,1,0,0:0:0:0:
192,192,41759,1,0,0:0:0:0:
192,192,41935,1,0,0:0:0:0:
448,192,42112,1,0,0:0:0:0:
320,192,42112,1,2,0:0:0:0:
192,192,42288,1,2,0:0:0:0:
64,192,42288,1,0,0:0:0:0:
320,192,42464,128,0,42641:0:0:0:0:
448,192,42464,128,0,42641:0:0:0:0:
192,192,42464,1,8,0:0:0:0:
320,192,42817,128,2,43082:0:0:0:0:
448,192,42817,128,0,43082:0:0:0:0:
64,192,43170,5,0,0:0:0:0:
320,192,43170,1,8,0:0:0:0:
448,192,43170,1,0,0:0:0:0:
192,192,43347,1,2,0:0:0:0:
64,192,43347,1,0,0:0:0:0:
320,192,43435,1,0,0:0:0:0:
448,192,43523,1,0,0:0:0:0:
448,192,43700,1,2,0:0:0:0:
192,192,43700,1,0,0:0:0:0:
320,192,43876,1,0,0:0:0:0:
64,192,43876,1,0,0:0:0:0:
192,192,43876,1,8,0:0:0:0:
448,192,44053,1,2,0:0:0:0:
64,192,44053,1,0,0:0:0:0:
192,192,44229,5,2,0:0:0:0:
320,192,44229,1,0,0:0:0:0:
192,192,44406,1,2,0:0:0:0:
320,192,44406,1,0,0:0:0:0:
192,192,44582,5,2,0:0:0:0:
320,192,44582,1,0,0:0:0:0:
192,192,44759,1,2,0:0:0:0:
320,192,44759,1,0,0:0:0:0:
192,192,44935,1,2,0:0:0:0:
320,192,44935,1,0,0:0:0:0:
192,192,45112,1,2,0:0:0:0:
320,192,45112,1,0,0:0:0:0:
448,192,45288,128,0,45464:0:0:0:0:
192,192,45288,128,0,45464:0:0:0:0:
320,192,45288,1,8,0:0:0:0:
64,192,45288,1,0,0:0:0:70:CrashRight.wav
448,192,45641,5,0,0:0:0:0:
64,192,45641,1,0,0:0:0:0:
192,192,45641,1,8,0:0:0:0:
448,192,45994,1,0,0:0:0:0:
64,192,45994,1,0,0:0:0:0:
192,192,45994,1,8,0:0:0:0:
448,192,46347,1,8,0:0:0:0:
64,192,46347,1,0,0:0:0:0:
192,192,46347,1,0,0:0:0:0:
448,192,46523,1,0,0:0:0:0:
320,192,46523,1,2,0:0:0:0:
192,192,46700,1,8,0:0:0:0:
64,192,46700,1,0,0:0:0:0:
320,192,46788,1,0,0:0:0:0:
448,192,46876,1,0,0:0:0:0:
64,192,46876,1,2,0:0:0:0:
192,192,46964,1,0,0:0:0:0:
64,192,47053,1,0,0:0:0:0:
448,192,47053,1,0,0:0:0:0:
320,192,47053,1,8,0:0:0:0:
320,192,47406,1,8,0:0:0:0:
448,192,47406,1,0,0:0:0:0:
64,192,47406,1,0,0:0:0:0:
192,192,47582,1,0,0:0:0:0:
320,192,47759,1,0,0:0:0:0:
448,192,47759,1,8,0:0:0:0:
64,192,47759,1,0,0:0:0:0:
192,192,47935,1,0,0:0:0:0:
320,192,47935,1,2,0:0:0:0:
64,192,48112,1,0,0:0:0:0:
448,192,48112,1,0,0:0:0:0:
192,192,48112,1,8,0:0:0:0:
320,192,48288,1,0,0:0:0:0:
64,192,48288,1,2,0:0:0:0:
192,192,48464,1,0,0:0:0:0:
320,192,48464,1,0,0:0:0:0:
448,192,48464,1,8,0:0:0:0:
64,192,48817,1,0,0:0:0:0:
320,192,48817,1,0,0:0:0:0:
448,192,48817,1,8,0:0:0:0:
64,192,49170,1,8,0:0:0:0:
192,192,49170,1,0,0:0:0:0:
448,192,49170,1,0,0:0:0:0:
192,192,49347,1,2,0:0:0:0:
320,192,49347,1,0,0:0:0:0:
64,192,49523,1,0,0:0:0:0:
320,192,49523,1,8,0:0:0:0:
448,192,49523,1,0,0:0:0:0:
192,192,49700,1,0,0:0:0:0:
448,192,49700,1,2,0:0:0:0:
320,192,49876,1,0,0:0:0:0:
192,192,49876,1,0,0:0:0:0:
64,192,49876,1,8,0:0:0:0:
64,192,50053,1,0,0:0:0:0:
448,192,50229,1,0,0:0:0:0:
192,192,50229,1,8,0:0:0:0:
320,192,50229,1,0,0:0:0:0:
192,192,50406,1,0,0:0:0:0:
320,192,50582,1,8,0:0:0:0:
448,192,50582,1,0,0:0:0:0:
64,192,50582,1,0,0:0:0:0:
448,192,50759,1,2,0:0:0:0:
320,192,50759,1,0,0:0:0:0:
320,192,50847,1,0,0:0:0:0:
448,192,50847,1,0,0:0:0:0:
64,192,50935,1,0,0:0:0:0:
192,192,50935,1,8,0:0:0:0:
320,192,51023,1,0,0:0:0:0:
448,192,51023,1,0,0:0:0:0:
192,192,51112,1,2,0:0:0:0:
64,192,51112,1,0,0:0:0:0:
448,192,51288,1,8,0:0:0:0:
64,192,51288,1,0,0:0:0:0:
64,192,51464,1,0,0:0:0:0:
448,192,51464,1,2,0:0:0:0:
192,192,51641,1,0,0:0:0:0:
320,192,51641,1,8,0:0:0:0:
192,192,51817,1,0,0:0:0:0:
320,192,51817,1,2,0:0:0:0:
64,192,51994,1,2,0:0:0:0:
448,192,51994,1,8,0:0:0:0:
192,192,52170,1,0,0:0:0:0:
320,192,52170,1,8,0:0:0:0:
64,192,52347,1,2,0:0:0:0:
448,192,52347,1,8,0:0:0:0:
192,192,52523,1,0,0:0:0:0:
320,192,52523,1,8,0:0:0:0:
64,192,52700,1,8,0:0:0:0:
448,192,52700,1,2,0:0:0:0:
192,192,52876,1,8,0:0:0:0:
64,192,52876,1,0,0:0:0:0:
320,192,53053,5,2,0:0:0:0:
448,192,53053,1,8,0:0:0:0:
448,192,53229,1,8,0:0:0:0:
64,192,53229,1,0,0:0:0:0:
64,192,53406,1,8,0:0:0:0:
192,192,53406,1,2,0:0:0:0:
320,192,53582,1,8,0:0:0:0:
448,192,53582,1,0,0:0:0:0:
192,192,53759,1,2,0:0:0:0:
64,192,53759,1,8,0:0:0:0:
448,192,53935,1,0,0:0:0:0:
320,192,53935,1,8,0:0:0:0:
64,192,54112,5,2,0:0:0:0:
192,192,54112,1,8,0:0:0:0:
448,192,54200,1,8,0:0:0:0:
192,192,54288,1,8,0:0:0:0:
320,192,54288,1,0,0:0:0:0:
64,192,54376,1,8,0:0:0:0:
448,192,54464,1,8,0:0:0:0:
320,192,54464,1,0,0:0:0:0:
192,192,54553,1,8,0:0:0:0:
320,192,54641,1,8,0:0:0:0:
64,192,54641,1,0,0:0:0:0:
448,192,54729,1,8,0:0:0:0:
192,192,54817,1,8,0:0:0:0:
64,192,54817,1,0,0:0:0:0:
320,192,54906,1,8,0:0:0:0:
192,192,54994,1,8,0:0:0:0:
448,192,54994,1,0,0:0:0:0:
64,192,55082,1,8,0:0:0:0:
448,192,55170,1,8,0:0:0:0:
320,192,55170,1,0,0:0:0:0:
64,192,55259,1,8,0:0:0:0:
192,192,55347,1,8,0:0:0:0:
320,192,55347,1,0,0:0:0:0:
448,192,55435,1,8,0:0:0:0:
64,192,55523,1,0,0:0:0:0:
192,192,55523,1,8,0:0:0:0:
320,192,55612,1,8,0:0:0:0:
448,192,55700,1,0,0:0:0:0:
64,192,55700,1,8,0:0:0:0:
192,192,55788,1,8,0:0:0:0:
320,192,55876,1,8,0:0:0:0:
64,192,55876,1,0,0:0:0:0:
448,192,55964,1,8,0:0:0:0:
320,192,56053,1,8,0:0:0:0:
192,192,56053,1,0,0:0:0:0:
64,192,56141,1,8,0:0:0:0:
192,192,56229,1,8,0:0:0:0:
448,192,56229,1,0,0:0:0:0:
320,192,56317,1,8,0:0:0:0:
192,192,56406,1,8,0:0:0:0:
64,192,56406,1,0,0:0:0:0:
448,192,56494,1,8,0:0:0:0:
64,192,56582,1,8,0:0:0:0:
320,192,56582,1,0,0:0:0:0:
192,192,56670,1,8,0:0:0:0:
448,192,56759,1,8,0:0:0:0:
64,192,56759,1,0,0:0:0:0:
320,192,56847,1,8,0:0:0:0:
64,192,56935,128,0,57641:0:0:0:0:
192,192,56935,128,0,57464:0:0:0:0:
448,192,56935,1,8,0:0:0:0:
448,192,57288,128,0,57641:0:0:0:0:
320,192,57641,128,0,57817:0:0:0:0:
192,192,57817,1,0,0:0:0:0:
64,192,57817,1,2,0:0:0:0:
64,192,57994,1,0,0:0:0:0:
320,192,57994,1,8,0:0:0:0:
448,192,57994,1,0,0:0:0:70:CrashRight.wav
192,192,58347,1,2,0:0:0:0:
64,192,58347,1,0,0:0:0:0:
64,192,58523,1,0,0:0:0:0:
448,192,58700,1,0,0:0:0:0:
320,192,58700,1,8,0:0:0:0:
192,192,58700,1,0,0:0:0:0:
192,192,58876,1,0,0:0:0:0:
320,192,59053,1,2,0:0:0:0:
448,192,59053,128,0,59229:0:0:0:0:
64,192,59229,1,0,0:0:0:0:
448,192,59406,1,8,0:0:0:0:
320,192,59406,128,0,59582:0:0:0:0:
64,192,59582,1,0,0:0:0:0:
192,192,59759,1,0,0:0:0:0:
448,192,59759,1,2,0:0:0:0:
192,192,59935,1,0,0:0:0:0:
64,192,60112,1,8,0:0:0:0:
320,192,60112,1,0,0:0:0:0:
448,192,60112,1,0,0:0:0:0:
320,192,60288,1,0,0:0:0:0:
64,192,60464,1,2,0:0:0:0:
192,192,60464,128,0,60641:0:0:0:0:
448,192,60641,1,0,0:0:0:0:
192,192,60817,1,8,0:0:0:0:
64,192,60817,128,0,60994:0:0:0:0:
320,192,60994,1,0,0:0:0:0:
448,192,61170,1,2,0:0:0:0:
64,192,61170,1,0,0:0:0:0:
448,192,61347,1,0,0:0:0:0:
192,192,61523,1,8,0:0:0:0:
320,192,61523,1,0,0:0:0:0:
64,192,61523,1,0,0:0:0:0:
320,192,61700,1,0,0:0:0:0:
64,192,61876,1,2,0:0:0:0:
192,192,61876,128,0,62053:0:0:0:0:
448,192,62053,1,0,0:0:0:0:
192,192,62229,1,8,0:0:0:0:
64,192,62229,128,0,62406:0:0:0:0:
320,192,62406,1,0,0:0:0:0:
448,192,62582,1,0,0:0:0:0:
192,192,62582,1,2,0:0:0:0:
448,192,62759,1,0,0:0:0:0:
64,192,62935,1,0,0:0:0:0:
192,192,62935,1,8,0:0:0:0:
320,192,62935,1,0,0:0:0:0:
64,192,63112,1,0,0:0:0:0:
448,192,63288,1,2,0:0:0:0:
320,192,63288,128,0,63464:0:0:0:0:
192,192,63464,1,0,0:0:0:0:
320,192,63641,1,8,0:0:0:0:
448,192,63641,128,0,63817:0:0:0:0:
64,192,63817,1,0,0:0:0:0:
64,192,63994,1,0,0:0:0:0:
448,192,63994,1,2,0:0:0:0:
192,192,64170,1,0,0:0:0:0:
320,192,64170,1,0,0:0:0:0:
448,192,64347,1,0,0:0:0:0:
192,192,64347,1,8,0:0:0:0:
320,192,64523,1,0,0:0:0:0:
64,192,64523,1,0,0:0:0:0:
448,192,64700,1,0,0:0:0:0:
320,192,64700,1,2,0:0:0:0:
64,192,64876,1,0,0:0:0:0:
448,192,64876,1,0,0:0:0:0:
192,192,65053,1,8,0:0:0:0:
64,192,65053,1,0,0:0:0:0:
320,192,65053,1,0,0:0:0:0:
192,192,65229,1,0,0:0:0:0:
448,192,65229,1,0,0:0:0:70:CrashRight.wav
320,192,65229,1,8,0:0:0:0:
64,192,65582,1,0,0:0:0:70:CrashRight.wav
192,192,65582,1,2,0:0:0:0:
448,192,65582,1,0,0:0:0:0:
320,192,65759,1,8,0:0:0:0:
192,192,65759,1,0,0:0:0:0:
64,192,65935,1,0,0:0:0:0:
320,192,65935,1,0,0:0:0:0:
448,192,65935,1,2,0:0:0:0:
320,192,66288,1,2,0:0:0:0:
64,192,66288,1,0,0:0:0:0:
64,192,66464,1,0,0:0:0:0:
320,192,66464,1,0,0:0:0:0:
192,192,66553,1,0,0:0:0:0:
448,192,66553,1,0,0:0:0:0:
64,192,66641,1,0,0:0:0:0:
320,192,66641,1,0,0:0:0:0:
448,192,66817,1,8,0:0:0:0:
192,192,66817,1,2,0:0:0:0:
320,192,66906,1,0,0:0:0:0:
448,192,66994,1,0,0:0:0:0:
64,192,67082,1,0,0:0:0:0:
192,192,67170,1,2,0:0:0:0:
320,192,67170,1,8,0:0:0:0:
448,192,67259,1,0,0:0:0:0:
64,192,67347,1,0,0:0:0:0:
192,192,67435,1,0,0:0:0:0:
64,192,67523,1,2,0:0:0:0:
320,192,67523,1,8,0:0:0:0:
192,192,67700,1,0,0:0:0:0:
64,192,67876,1,2,0:0:0:0:
448,192,67876,1,8,0:0:0:0:
320,192,68053,1,0,0:0:0:0:
192,192,68229,1,8,0:0:0:0:
64,192,68229,1,0,0:0:0:0:
448,192,68229,1,0,0:0:0:0:
192,192,68406,1,8,0:0:0:0:
64,192,68406,1,0,0:0:0:0:
448,192,68406,1,0,0:0:0:0:
64,192,68582,1,0,0:0:0:0:
448,192,68582,1,8,0:0:0:0:
320,192,68582,1,0,0:0:0:0:
64,192,68759,1,0,0:0:0:0:
448,192,68759,1,8,0:0:0:0:
320,192,68759,1,0,0:0:0:0:
448,192,68935,1,8,0:0:0:0:
64,192,68935,1,0,0:0:0:0:
192,192,69023,1,0,0:0:0:0:
320,192,69023,1,8,0:0:0:0:
448,192,69112,1,8,0:0:0:0:
64,192,69112,1,0,0:0:0:0:
192,192,69200,1,0,0:0:0:0:
320,192,69200,1,8,0:0:0:0:
448,192,69288,1,8,0:0:0:0:
64,192,69288,1,0,0:0:0:0:
320,192,69641,1,2,0:0:0:0:
192,192,69641,1,0,0:0:0:0:
192,192,69817,1,0,0:0:0:0:
448,192,69994,1,0,0:0:0:0:
64,192,69994,1,8,0:0:0:0:
320,192,69994,1,0,0:0:0:0:
320,192,70170,1,0,0:0:0:0:
448,192,70347,1,2,0:0:0:0:
64,192,70347,128,0,70523:0:0:0:0:
192,192,70523,1,0,0:0:0:0:
448,192,70700,1,8,0:0:0:0:
64,192,70700,128,0,70876:0:0:0:0:
320,192,70876,1,0,0:0:0:0:
448,192,71053,1,0,0:0:0:0:
192,192,71053,1,2,0:0:0:0:
448,192,71229,1,0,0:0:0:0:
192,192,71406,1,0,0:0:0:0:
64,192,71406,1,8,0:0:0:0:
320,192,71406,1,0,0:0:0:0:
64,192,71582,1,0,0:0:0:0:
320,192,71759,1,2,0:0:0:0:
448,192,71759,128,0,71935:0:0:0:0:
192,192,71935,1,0,0:0:0:0:
320,192,72112,1,8,0:0:0:0:
448,192,72112,128,0,72288:0:0:0:0:
64,192,72288,1,0,0:0:0:0:
448,192,72464,1,2,0:0:0:0:
192,192,72464,1,0,0:0:0:0:
192,192,72641,1,0,0:0:0:0:
320,192,72817,1,0,0:0:0:0:
448,192,72817,1,8,0:0:0:0:
64,192,72817,1,0,0:0:0:0:
448,192,72994,1,0,0:0:0:0:
320,192,73170,1,2,0:0:0:0:
192,192,73170,128,0,73347:0:0:0:0:
64,192,73347,1,0,0:0:0:0:
320,192,73523,1,8,0:0:0:0:
192,192,73523,128,0,73700:0:0:0:0:
448,192,73700,1,0,0:0:0:0:
64,192,73876,1,0,0:0:0:0:
320,192,73876,1,2,0:0:0:0:
320,192,74053,1,0,0:0:0:0:
448,192,74229,1,0,0:0:0:0:
192,192,74229,1,0,0:0:0:0:
64,192,74229,1,8,0:0:0:0:
64,192,74406,1,0,0:0:0:0:
192,192,74582,1,2,0:0:0:0:
320,192,74582,128,0,74759:0:0:0:0:
64,192,74759,1,0,0:0:0:0:
192,192,74935,1,8,0:0:0:0:
320,192,74935,128,0,75112:0:0:0:0:
448,192,75112,1,0,0:0:0:0:
64,192,75288,1,0,0:0:0:0:
320,192,75288,1,2,0:0:0:0:
448,192,75464,1,0,0:0:0:0:
64,192,75464,1,0,0:0:0:0:
448,192,75641,1,8,0:0:0:0:
192,192,75641,1,0,0:0:0:0:
320,192,75817,1,0,0:0:0:0:
192,192,75817,1,0,0:0:0:0:
64,192,75994,1,0,0:0:0:0:
320,192,75994,1,2,0:0:0:0:
448,192,76170,1,0,0:0:0:0:
192,192,76170,1,0,0:0:0:0:
192,192,76347,1,8,0:0:0:0:
448,192,76347,1,0,0:0:0:0:
64,192,76347,1,0,0:0:0:0:
448,192,76523,1,0,0:0:0:0:
64,192,76523,1,0,0:0:0:70:CrashRight.wav
320,192,76523,1,8,0:0:0:0:
192,192,76876,1,0,0:0:0:0:
320,192,76876,1,2,0:0:0:0:
64,192,76876,1,0,0:0:0:70:CrashRight.wav
64,192,77053,1,0,0:0:0:0:
448,192,77053,1,8,0:0:0:0:
448,192,77229,1,0,0:0:0:0:
192,192,77229,1,2,0:0:0:0:
320,192,77229,1,0,0:0:0:0:
320,192,77582,1,2,0:0:0:0:
192,192,77582,1,0,0:0:0:0:
448,192,77670,1,0,0:0:0:0:
64,192,77670,1,0,0:0:0:0:
320,192,77759,1,0,0:0:0:0:
192,192,77759,1,0,0:0:0:0:
448,192,77847,1,0,0:0:0:0:
64,192,77847,1,0,0:0:0:0:
320,192,77935,1,0,0:0:0:0:
192,192,77935,1,0,0:0:0:0:
448,192,78112,1,0,0:0:0:0:
64,192,78112,1,0,0:0:0:0:
320,192,78112,1,2,0:0:0:0:
448,192,78288,1,0,0:0:0:0:
192,192,78288,1,2,0:0:0:0:
320,192,78464,1,2,0:0:0:0:
192,192,78464,1,0,0:0:0:0:
64,192,78464,1,0,0:0:0:0:
320,192,78641,1,2,0:0:0:0:
448,192,78641,1,0,0:0:0:0:
64,192,78817,1,2,0:0:0:0:
448,192,78817,1,0,0:0:0:0:
192,192,78817,1,0,0:0:0:0:
64,192,78994,1,2,0:0:0:0:
320,192,78994,1,0,0:0:0:0:
192,192,79170,1,0,0:0:0:0:
320,192,79170,1,2,0:0:0:0:
448,192,79170,1,0,0:0:0:0:
192,192,79347,1,2,0:0:0:0:
64,192,79347,1,0,0:0:0:0:
320,192,79523,1,0,0:0:0:0:
448,192,79523,1,8,0:0:0:0:
64,192,79523,1,0,0:0:0:0:
192,192,79700,1,0,0:0:0:0:
64,192,79700,1,0,0:0:0:0:
448,192,79700,1,8,0:0:0:0:
320,192,79876,1,0,0:0:0:0:
448,192,79876,1,8,0:0:0:0:
64,192,79876,1,0,0:0:0:0:
192,192,80053,1,0,0:0:0:0:
64,192,80053,1,0,0:0:0:0:
448,192,80053,1,8,0:0:0:0:
320,192,80229,1,8,0:0:0:0:
448,192,80229,1,0,0:0:0:0:
192,192,80317,1,8,0:0:0:0:
64,192,80317,1,0,0:0:0:0:
320,192,80406,1,8,0:0:0:0:
448,192,80406,1,0,0:0:0:0:
192,192,80494,1,8,0:0:0:0:
64,192,80494,1,0,0:0:0:0:
320,192,80582,1,8,0:0:0:0:
448,192,80582,1,0,0:0:0:0:
192,192,80670,1,8,0:0:0:0:
64,192,80670,1,0,0:0:0:0:
320,192,80759,1,8,0:0:0:0:
448,192,80759,1,0,0:0:0:0:
192,192,80847,1,8,0:0:0:0:
64,192,80847,1,0,0:0:0:0:
448,192,80935,128,0,81906:0:0:0:0:
320,192,80935,128,2,81817:0:0:0:0:
64,192,81817,1,0,0:0:0:0:
192,192,81817,1,2,0:0:0:0:
320,192,81906,1,2,0:0:0:0:
64,192,81994,1,8,0:0:0:0:
192,192,81994,1,0,0:0:0:0:
448,192,81994,1,0,0:0:0:0:
320,192,82347,128,0,82700:0:0:0:0:
192,192,82347,1,0,0:0:0:0:
64,192,82347,1,0,0:0:0:70:LR_Drum Low Long.wav
192,192,82700,128,0,83053:0:0:0:0:
64,192,82700,1,0,0:0:0:0:
448,192,82700,1,0,0:0:0:70:LR_Drum Low Long.wav
64,192,83053,128,0,83406:0:0:0:0:
320,192,83053,1,0,0:0:0:0:
448,192,83053,1,0,0:0:0:70:LR_Drum Low Long.wav
448,192,83406,128,0,83759:0:0:0:70:LR_Drum Low Long.wav
320,192,83406,128,0,83759:0:0:0:0:
64,192,83759,128,0,84112:0:0:0:0:
192,192,83759,1,0,0:0:0:70:LR_Drum Low Long.wav
192,192,84112,128,0,84464:0:0:0:0:
320,192,84112,1,0,0:0:0:0:
448,192,84112,1,0,0:0:0:70:LR_Drum Low Long.wav
320,192,84464,128,0,84817:0:0:0:0:
448,192,84464,1,0,0:0:0:0:
64,192,84464,1,0,0:0:0:70:LR_Drum Low Long.wav
192,192,84817,1,0,0:0:0:70:LR_Drum Low Long.wav
64,192,84817,128,0,85170:0:0:0:0:
448,192,84817,128,0,85170:0:0:0:0:
320,192,85170,1,0,0:0:0:70:LR_Drum Low Long.wav
192,192,85170,1,0,0:0:0:0:
192,192,85876,128,0,86582:0:0:0:0:
320,192,85876,128,0,86582:0:0:0:70:LR_Drum Low Long.wav
448,192,86582,1,0,0:0:0:0:
64,192,86582,1,0,0:0:0:70:LR_Drum Low Long.wav
448,192,87288,1,0,0:0:0:70:CrashRight.wav
64,192,87288,1,2,0:0:0:0:
192,192,87288,1,0,0:0:0:0:
320,192,87288,1,0,0:0:0:0:
