osu file format v14

[General]
AudioFilename: audio.mp3
AudioLeadIn: 0
PreviewTime: 57513
Countdown: 0
SampleSet: Normal
StackLeniency: 0.7
Mode: 1
LetterboxInBreaks: 0
WidescreenStoryboard: 0

[Editor]
Bookmarks: 8466,23704,38942,73227
DistanceSpacing: 0.2
BeatDivisor: 4
GridSize: 32
TimelineZoom: 0.4999998

[Metadata]
Title:Twilight ni Kienaide (TV Size)
TitleUnicode:トワイライトに消えないで (TV Size)
Artist:Hara Yumi
ArtistUnicode:原由実
Creator:Chaoslitz
Version:Nardo's Oni
Source:俺がお嬢様学校に「庶民サンプル」としてゲッツされた件
Tags:Ore ga Ojousama Gakkou ni Shomin Sample Toshite Gets Sareta Ken ed ending Taiko Prophecy -GN Junior Skylish aabc271 Nardoxyribonucleic Cynplytholowazy anime japanese
BeatmapID:1897332
BeatmapSetID:909200

[Difficulty]
HPDrainRate:6
CircleSize:4
OverallDifficulty:5
ApproachRate:9
SliderMultiplier:1.4
SliderTickRate:1

[Events]
//Background and Video events
0,0,"BG.jpg",0,60
//Break Periods
//Storyboard Layer 0 (Background)
//Storyboard Layer 1 (Fail)
//Storyboard Layer 2 (Pass)
//Storyboard Layer 3 (Foreground)
//Storyboard Layer 4 (Overlay)
//Storyboard Sound Samples

[TimingPoints]
847,476.190476190476,4,1,0,80,1,0
56918,-99.009900990099,4,1,0,80,0,0
57037,-98.0392156862745,4,1,0,80,0,0
57156,-97.0873786407767,4,1,0,80,0,0
57275,-96.1538461538461,4,1,0,80,0,0
57394,-95.2380952380952,4,1,0,80,0,0
57513,-94.3396226415094,4,1,0,80,0,0
57632,-93.4579439252336,4,1,0,80,0,0
57751,-92.5925925925926,4,1,0,80,0,0
57989,-90.9090909090909,4,1,0,100,0,1
71085,-80,4,1,0,100,0,1
71561,-84.7457627118644,4,1,0,100,0,1
71680,-86.2068965517241,4,1,0,100,0,1
71799,-87.719298245614,4,1,0,100,0,1
72037,-90.9090909090909,4,1,0,100,0,1
72275,-72.7272727272727,4,1,0,100,0,1
72632,-83.3333333333333,4,1,0,100,0,1
72751,-84.7457627118644,4,1,0,100,0,1
72870,-86.2068965517241,4,1,0,100,0,1
72989,-87.719298245614,4,1,0,100,0,1
73227,-90.9090909090909,4,1,0,100,0,1
80132,-66.6666666666667,4,1,0,100,0,1
80489,-86.2068965517241,4,1,0,100,0,1
80608,-87.719298245614,4,1,0,100,0,1
80846,-90.9090909090909,4,1,0,100,0,1
88227,-90.9090909090909,4,1,0,100,0,0

[HitObjects]
256,192,847,5,12,0:0:0:0:
256,192,1085,1,0,0:0:0:0:
256,192,1204,1,8,0:0:0:0:
256,192,1442,1,0,0:0:0:0:
256,192,1561,1,8,0:0:0:0:
256,192,1680,1,8,0:0:0:0:
256,192,1799,1,0,0:0:0:0:
256,192,2037,1,8,0:0:0:0:
256,192,2156,1,0,0:0:0:0:
256,192,2394,1,8,0:0:0:0:
256,192,2513,1,0,0:0:0:0:
256,192,2632,1,0,0:0:0:0:
256,192,2751,1,8,0:0:0:0:
256,192,2989,1,0,0:0:0:0:
256,192,3108,1,8,0:0:0:0:
256,192,3346,1,8,0:0:0:0:
256,192,3466,1,0,0:0:0:0:
256,192,3704,1,8,0:0:0:0:
256,192,3823,1,8,0:0:0:0:
256,192,3942,1,0,0:0:0:0:
256,192,4061,1,0,0:0:0:0:
256,192,4180,1,8,0:0:0:0:
256,192,4299,1,0,0:0:0:0:
256,192,4418,1,0,0:0:0:0:
256,192,4656,1,12,0:0:0:0:
256,192,4894,1,0,0:0:0:0:
256,192,5013,1,0,0:0:0:0:
256,192,5132,1,8,0:0:0:0:
256,192,5370,1,8,0:0:0:0:
256,192,5608,1,0,0:0:0:0:
256,192,5846,1,8,0:0:0:0:
256,192,5966,1,8,0:0:0:0:
256,192,6085,1,0,0:0:0:0:
256,192,6323,1,12,0:0:0:0:
256,192,7037,1,8,0:0:0:0:
256,192,7275,1,0,0:0:0:0:
256,192,7394,1,0,0:0:0:0:
256,192,7513,1,8,0:0:0:0:
256,192,7632,1,0,0:0:0:0:
256,192,7870,1,0,0:0:0:0:
256,192,7989,1,8,0:0:0:0:
256,192,8227,1,8,0:0:0:0:
256,192,8466,1,4,0:0:0:0:
256,192,8704,1,0,0:0:0:0:
256,192,8942,1,8,0:0:0:0:
256,192,9061,1,0,0:0:0:0:
256,192,9299,1,8,0:0:0:0:
256,192,9656,1,0,0:0:0:0:
256,192,9894,1,8,0:0:0:0:
256,192,10132,1,0,0:0:0:0:
256,192,10370,1,0,0:0:0:0:
256,192,10727,1,0,0:0:0:0:
256,192,10846,1,8,0:0:0:0:
256,192,11085,1,8,0:0:0:0:
256,192,11323,1,0,0:0:0:0:
256,192,11442,1,8,0:0:0:0:
256,192,11561,1,0,0:0:0:0:
256,192,11799,1,8,0:0:0:0:
256,192,12275,1,0,0:0:0:0:
256,192,12513,1,0,0:0:0:0:
256,192,12751,1,8,0:0:0:0:
256,192,12870,1,0,0:0:0:0:
256,192,13108,1,8,0:0:0:0:
256,192,13466,1,0,0:0:0:0:
256,192,13704,1,8,0:0:0:0:
256,192,13942,1,0,0:0:0:0:
256,192,14180,1,0,0:0:0:0:
256,192,14537,1,0,0:0:0:0:
256,192,14656,1,8,0:0:0:0:
256,192,14894,1,8,0:0:0:0:
256,192,15013,1,0,0:0:0:0:
256,192,15132,1,0,0:0:0:0:
256,192,15251,1,8,0:0:0:0:
256,192,15370,1,0,0:0:0:0:
256,192,15608,1,8,0:0:0:0:
256,192,15846,1,0,0:0:0:0:
256,192,16085,1,12,0:0:0:0:
256,192,16442,1,0,0:0:0:0:
256,192,16561,1,8,0:0:0:0:
256,192,16799,1,0,0:0:0:0:
256,192,17275,1,0,0:0:0:0:
256,192,17513,1,8,0:0:0:0:
256,192,17751,1,0,0:0:0:0:
256,192,17870,1,0,0:0:0:0:
256,192,17989,1,8,0:0:0:0:
256,192,18346,1,0,0:0:0:0:
256,192,18466,1,8,0:0:0:0:
256,192,18704,1,0,0:0:0:0:
256,192,19180,1,0,0:0:0:0:
256,192,19418,1,8,0:0:0:0:
256,192,19656,1,0,0:0:0:0:
256,192,19894,1,12,0:0:0:0:
256,192,20132,1,8,0:0:0:0:
256,192,20251,1,0,0:0:0:0:
256,192,20370,1,8,0:0:0:0:
256,192,20608,1,0,0:0:0:0:
256,192,21085,1,0,0:0:0:0:
256,192,21323,1,8,0:0:0:0:
256,192,21561,1,4,0:0:0:0:
256,192,22037,1,0,0:0:0:0:
256,192,22275,1,8,0:0:0:0:
256,192,22513,1,0,0:0:0:0:
256,192,22751,1,8,0:0:0:0:
256,192,22870,1,8,0:0:0:0:
256,192,22989,1,0,0:0:0:0:
256,192,23227,1,0,0:0:0:0:
256,192,23346,1,0,0:0:0:0:
256,192,23466,1,0,0:0:0:0:
256,192,23704,1,12,0:0:0:0:
256,192,23942,1,0,0:0:0:0:
256,192,24180,1,8,0:0:0:0:
256,192,24299,1,0,0:0:0:0:
256,192,24537,1,8,0:0:0:0:
256,192,24894,1,0,0:0:0:0:
256,192,25132,1,8,0:0:0:0:
256,192,25370,1,0,0:0:0:0:
256,192,25608,1,0,0:0:0:0:
256,192,25966,1,0,0:0:0:0:
256,192,26085,1,8,0:0:0:0:
256,192,26323,1,8,0:0:0:0:
256,192,26561,1,0,0:0:0:0:
256,192,26680,1,8,0:0:0:0:
256,192,26799,1,0,0:0:0:0:
256,192,27037,1,8,0:0:0:0:
256,192,27275,1,8,0:0:0:0:
256,192,27394,1,8,0:0:0:0:
256,192,27513,1,0,0:0:0:0:
256,192,27751,1,0,0:0:0:0:
256,192,27989,1,8,0:0:0:0:
256,192,28108,1,0,0:0:0:0:
256,192,28346,1,8,0:0:0:0:
256,192,28704,1,0,0:0:0:0:
256,192,28942,1,8,0:0:0:0:
256,192,29180,1,0,0:0:0:0:
256,192,29418,1,0,0:0:0:0:
256,192,29775,1,0,0:0:0:0:
256,192,29894,1,8,0:0:0:0:
256,192,30132,1,8,0:0:0:0:
256,192,30251,1,8,0:0:0:0:
256,192,30370,1,0,0:0:0:0:
256,192,30489,1,8,0:0:0:0:
256,192,30608,1,0,0:0:0:0:
256,192,30846,1,8,0:0:0:0:
256,192,31085,1,0,0:0:0:0:
256,192,31323,1,12,0:0:0:0:
256,192,31680,1,0,0:0:0:0:
256,192,31799,1,8,0:0:0:0:
256,192,32037,1,0,0:0:0:0:
256,192,32513,1,0,0:0:0:0:
256,192,32751,1,8,0:0:0:0:
256,192,32989,1,0,0:0:0:0:
256,192,33108,1,0,0:0:0:0:
256,192,33227,1,8,0:0:0:0:
256,192,33585,1,0,0:0:0:0:
256,192,33704,1,8,0:0:0:0:
256,192,33942,1,0,0:0:0:0:
256,192,34418,1,0,0:0:0:0:
256,192,34656,1,8,0:0:0:0:
256,192,34894,1,0,0:0:0:0:
256,192,35132,1,12,0:0:0:0:
256,192,35370,1,8,0:0:0:0:
256,192,35489,1,0,0:0:0:0:
256,192,35608,1,8,0:0:0:0:
256,192,35846,1,0,0:0:0:0:
256,192,35966,1,8,0:0:0:0:
256,192,36085,1,0,0:0:0:0:
256,192,36323,1,0,0:0:0:0:
256,192,36561,1,8,0:0:0:0:
256,192,36799,1,4,0:0:0:0:
256,192,37275,1,0,0:0:0:0:
256,192,37513,1,8,0:0:0:0:
256,192,37751,1,0,0:0:0:0:
256,192,37989,1,8,0:0:0:0:
256,192,38108,1,8,0:0:0:0:
256,192,38227,1,0,0:0:0:0:
256,192,38466,1,8,0:0:0:0:
256,192,38585,1,8,0:0:0:0:
256,192,38704,1,8,0:0:0:0:
256,192,38942,1,4,0:0:0:0:
256,192,39418,1,8,0:0:0:0:
256,192,39656,1,0,0:0:0:0:
256,192,39775,1,0,0:0:0:0:
256,192,39894,1,0,0:0:0:0:
256,192,40132,1,8,0:0:0:0:
256,192,40370,1,0,0:0:0:0:
256,192,40608,1,12,0:0:0:0:
256,192,41085,1,0,0:0:0:0:
256,192,41323,1,8,0:0:0:0:
256,192,41561,1,0,0:0:0:0:
256,192,41680,1,8,0:0:0:0:
256,192,41799,1,0,0:0:0:0:
256,192,41918,1,8,0:0:0:0:
256,192,42037,1,0,0:0:0:0:
256,192,42275,1,8,0:0:0:0:
256,192,42513,1,0,0:0:0:0:
256,192,42751,1,12,0:0:0:0:
256,192,42989,1,0,0:0:0:0:
256,192,43108,1,0,0:0:0:0:
256,192,43227,1,8,0:0:0:0:
256,192,43466,1,0,0:0:0:0:
256,192,43704,1,8,0:0:0:0:
256,192,43942,1,8,0:0:0:0:
256,192,44061,1,8,0:0:0:0:
256,192,44180,1,0,0:0:0:0:
256,192,44418,1,12,0:0:0:0:
256,192,44894,1,0,0:0:0:0:
256,192,45132,1,8,0:0:0:0:
256,192,45370,1,0,0:0:0:0:
256,192,45608,1,0,0:0:0:0:
256,192,45727,1,8,0:0:0:0:
256,192,45846,1,0,0:0:0:0:
256,192,45966,1,0,0:0:0:0:
256,192,46085,1,8,0:0:0:0:
256,192,46323,1,8,0:0:0:0:
256,192,46561,1,4,0:0:0:0:
256,192,47037,1,8,0:0:0:0:
256,192,47275,1,0,0:0:0:0:
256,192,47394,1,0,0:0:0:0:
256,192,47513,1,0,0:0:0:0:
256,192,47751,1,8,0:0:0:0:
256,192,47989,1,0,0:0:0:0:
256,192,48227,1,12,0:0:0:0:
256,192,48704,1,0,0:0:0:0:
256,192,48942,1,8,0:0:0:0:
256,192,49180,1,0,0:0:0:0:
256,192,49299,1,8,0:0:0:0:
256,192,49418,1,0,0:0:0:0:
256,192,49537,1,8,0:0:0:0:
256,192,49656,1,0,0:0:0:0:
256,192,49894,1,8,0:0:0:0:
256,192,50132,1,0,0:0:0:0:
256,192,50370,1,12,0:0:0:0:
256,192,50608,1,0,0:0:0:0:
256,192,50727,1,8,0:0:0:0:
256,192,50846,1,8,0:0:0:0:
256,192,51085,1,0,0:0:0:0:
256,192,51204,1,0,0:0:0:0:
256,192,51323,1,0,0:0:0:0:
256,192,51442,1,8,0:0:0:0:
256,192,51561,1,0,0:0:0:0:
256,192,51799,1,8,0:0:0:0:
256,192,52037,1,0,0:0:0:0:
256,192,52275,1,8,0:0:0:0:
256,192,52513,1,8,0:0:0:0:
256,192,52632,1,0,0:0:0:0:
256,192,52751,1,8,0:0:0:0:
256,192,52989,1,0,0:0:0:0:
256,192,53108,1,0,0:0:0:0:
256,192,53227,1,8,0:0:0:0:
256,192,53346,1,8,0:0:0:0:
256,192,53466,1,0,0:0:0:0:
256,192,53585,1,0,0:0:0:0:
256,192,53704,1,8,0:0:0:0:
256,192,53942,1,0,0:0:0:0:
256,192,54180,1,12,0:0:0:0:
256,192,54656,1,8,0:0:0:0:
256,192,54894,1,0,0:0:0:0:
256,192,55013,1,0,0:0:0:0:
256,192,55132,1,8,0:0:0:0:
256,192,55251,1,8,0:0:0:0:
256,192,55370,1,0,0:0:0:0:
256,192,55608,1,8,0:0:0:0:
256,192,55846,1,4,0:0:0:0:
256,192,56323,1,0,0:0:0:0:
256,192,56561,1,8,0:0:0:0:
256,192,56680,1,0,0:0:0:0:
256,192,56918,1,0,0:0:0:0:
256,192,57037,1,8,0:0:0:0:
256,192,57156,1,0,0:0:0:0:
256,192,57275,1,8,0:0:0:0:
256,192,57394,1,8,0:0:0:0:
256,192,57513,1,0,0:0:0:0:
256,192,57632,1,8,0:0:0:0:
256,192,57751,1,0,0:0:0:0:
256,192,57989,1,12,0:0:0:0:
256,192,58227,1,8,0:0:0:0:
256,192,58346,1,8,0:0:0:0:
256,192,58466,1,0,0:0:0:0:
256,192,58704,1,0,0:0:0:0:
256,192,58823,1,8,0:0:0:0:
256,192,59061,1,8,0:0:0:0:
256,192,59180,1,0,0:0:0:0:
256,192,59418,1,8,0:0:0:0:
256,192,59656,1,0,0:0:0:0:
256,192,59775,1,0,0:0:0:0:
256,192,59894,1,8,0:0:0:0:
256,192,60132,1,8,0:0:0:0:
256,192,60251,1,0,0:0:0:0:
256,192,60370,1,8,0:0:0:0:
256,192,60608,1,0,0:0:0:0:
256,192,60727,1,8,0:0:0:0:
256,192,60966,1,8,0:0:0:0:
256,192,61085,1,0,0:0:0:0:
256,192,61323,1,8,0:0:0:0:
256,192,61561,1,0,0:0:0:0:
256,192,61799,1,12,0:0:0:0:
256,192,62037,1,8,0:0:0:0:
256,192,62156,1,8,0:0:0:0:
256,192,62275,1,0,0:0:0:0:
256,192,62513,1,0,0:0:0:0:
256,192,62632,1,8,0:0:0:0:
256,192,62870,1,8,0:0:0:0:
256,192,62989,1,0,0:0:0:0:
256,192,63227,1,8,0:0:0:0:
256,192,63466,1,0,0:0:0:0:
256,192,63704,1,8,0:0:0:0:
256,192,64061,1,0,0:0:0:0:
256,192,64180,1,8,0:0:0:0:
256,192,64418,1,0,0:0:0:0:
256,192,64656,1,0,0:0:0:0:
256,192,64775,1,8,0:0:0:0:
256,192,64894,1,0,0:0:0:0:
256,192,65013,1,0,0:0:0:0:
256,192,65132,1,8,0:0:0:0:
256,192,65251,1,0,0:0:0:0:
256,192,65370,1,0,0:0:0:0:
256,192,65608,1,12,0:0:0:0:
256,192,65846,1,0,0:0:0:0:
256,192,66085,1,8,0:0:0:0:
256,192,66323,1,0,0:0:0:0:
256,192,66442,1,8,0:0:0:0:
256,192,66561,1,0,0:0:0:0:
256,192,66680,1,8,0:0:0:0:
256,192,66799,1,0,0:0:0:0:
256,192,67037,1,8,0:0:0:0:
256,192,67275,1,8,0:0:0:0:
256,192,67394,1,0,0:0:0:0:
256,192,67513,1,8,0:0:0:0:
256,192,67751,1,0,0:0:0:0:
256,192,67989,1,8,0:0:0:0:
256,192,68227,1,8,0:0:0:0:
256,192,68346,1,8,0:0:0:0:
256,192,68466,1,0,0:0:0:0:
256,192,68585,1,8,0:0:0:0:
256,192,68704,1,0,0:0:0:0:
256,192,68942,1,8,0:0:0:0:
256,192,69180,1,0,0:0:0:0:
256,192,69418,1,12,0:0:0:0:
256,192,69894,1,8,0:0:0:0:
256,192,70132,1,0,0:0:0:0:
256,192,70251,1,8,0:0:0:0:
256,192,70370,1,0,0:0:0:0:
256,192,70489,1,0,0:0:0:0:
256,192,70608,1,8,0:0:0:0:
256,192,70727,1,0,0:0:0:0:
256,192,70846,1,8,0:0:0:0:
256,192,71085,1,4,0:0:0:0:
256,192,71561,1,0,0:0:0:0:
256,192,71680,1,0,0:0:0:0:
256,192,71799,1,8,0:0:0:0:
256,192,72037,1,0,0:0:0:0:
256,192,72275,1,12,0:0:0:0:
256,192,72632,1,0,0:0:0:0:
256,192,72751,1,8,0:0:0:0:
256,192,72870,1,8,0:0:0:0:
256,192,72989,1,0,0:0:0:0:
256,192,73227,1,12,0:0:0:0:
256,192,73466,1,8,0:0:0:0:
256,192,73585,1,8,0:0:0:0:
256,192,73704,1,0,0:0:0:0:
256,192,73942,1,0,0:0:0:0:
256,192,74061,1,8,0:0:0:0:
256,192,74299,1,8,0:0:0:0:
256,192,74418,1,0,0:0:0:0:
256,192,74656,1,8,0:0:0:0:
256,192,74894,1,0,0:0:0:0:
256,192,75013,1,0,0:0:0:0:
256,192,75132,1,8,0:0:0:0:
256,192,75370,1,8,0:0:0:0:
256,192,75489,1,0,0:0:0:0:
256,192,75608,1,8,0:0:0:0:
256,192,75846,1,0,0:0:0:0:
256,192,75966,1,8,0:0:0:0:
256,192,76204,1,8,0:0:0:0:
256,192,76323,1,0,0:0:0:0:
256,192,76561,1,8,0:0:0:0:
256,192,76799,1,0,0:0:0:0:
256,192,77037,1,12,0:0:0:0:
256,192,77275,1,8,0:0:0:0:
256,192,77394,1,8,0:0:0:0:
256,192,77513,1,0,0:0:0:0:
256,192,77751,1,0,0:0:0:0:
256,192,77870,1,8,0:0:0:0:
256,192,78108,1,8,0:0:0:0:
256,192,78227,1,0,0:0:0:0:
256,192,78466,1,8,0:0:0:0:
256,192,78704,1,0,0:0:0:0:
256,192,78942,1,8,0:0:0:0:
256,192,79299,1,0,0:0:0:0:
256,192,79418,1,8,0:0:0:0:
256,192,79656,1,0,0:0:0:0:
256,192,79775,1,0,0:0:0:0:
256,192,79894,1,0,0:0:0:0:
256,192,80132,1,12,0:0:0:0:
256,192,80489,1,8,0:0:0:0:
256,192,80608,1,0,0:0:0:0:
256,192,80846,1,12,0:0:0:0:
256,192,81085,1,0,0:0:0:0:
256,192,81204,1,0,0:0:0:0:
256,192,81323,1,8,0:0:0:0:
256,192,81561,1,0,0:0:0:0:
256,192,81680,1,8,0:0:0:0:
256,192,81799,1,0,0:0:0:0:
256,192,81918,1,8,0:0:0:0:
256,192,82037,1,0,0:0:0:0:
256,192,82275,1,8,0:0:0:0:
256,192,82513,1,0,0:0:0:0:
256,192,82632,1,8,0:0:0:0:
256,192,82751,1,8,0:0:0:0:
256,192,82989,1,0,0:0:0:0:
256,192,83108,1,8,0:0:0:0:
256,192,83227,1,0,0:0:0:0:
256,192,83466,1,8,0:0:0:0:
256,192,83585,1,8,0:0:0:0:
256,192,83704,1,0,0:0:0:0:
256,192,83823,1,8,0:0:0:0:
256,192,83942,1,0,0:0:0:0:
256,192,84061,1,0,0:0:0:0:
256,192,84180,1,8,0:0:0:0:
256,192,84418,1,0,0:0:0:0:
256,192,84656,1,12,0:0:0:0:
256,192,85132,1,8,0:0:0:0:
256,192,85489,1,0,0:0:0:0:
256,192,85608,1,0,0:0:0:0:
256,192,85727,1,8,0:0:0:0:
256,192,85846,1,0,0:0:0:0:
256,192,86085,1,8,0:0:0:0:
256,192,86323,1,8,0:0:0:0:
256,192,86442,1,8,0:0:0:0:
256,192,86561,1,0,0:0:0:0:
256,192,86918,1,8,0:0:0:0:
256,192,87037,1,8,0:0:0:0:
256,192,87275,1,0,0:0:0:0:
256,192,87394,1,8,0:0:0:0:
256,192,87513,1,0,0:0:0:0:
256,192,87751,1,8,0:0:0:0:
256,192,87989,1,8,0:0:0:0:
256,192,88227,1,0,0:0:0:0:
