osu file format v14

[General]
AudioFilename: audio.mp3
AudioLeadIn: 0
PreviewTime: 47799
Countdown: 0
SampleSet: Normal
StackLeniency: 0.7
Mode: 0
LetterboxInBreaks: 0
WidescreenStoryboard: 0

[Editor]
Bookmarks: 18065,26560,35056,56295,62666
DistanceSpacing: 1.2
BeatDivisor: 6
GridSize: 4
TimelineZoom: 1.449999

[Metadata]
Title:BANG! BANG! - short ver. -
TitleUnicode:BANG!BANG! - short ver. -
Artist:Hara Yumi
ArtistUnicode:原 由実
Creator:BigEarsMau
Version:Normal
Source:ぎゃる☆がん だぶるぴーす
Tags:Gal*Gun Double Peace intro opening op theme ost Kujinn Strategas SnowNiNo_ estellia- [_Emillia_] HighTec BEM playstation 4 vita rail shooter shoot em up bishojo inti creates alchemist
BeatmapID:945997
BeatmapSetID:439566

[Difficulty]
HPDrainRate:3
CircleSize:3
OverallDifficulty:3
ApproachRate:4
SliderMultiplier:0.7
SliderTickRate:1

[Events]
//Background and Video events
Video,0,"Moe Crisis 6 (BEM's cut).avi"
0,0,"ekoro is best gril.jpg",0,0
//Break Periods
//Storyboard Layer 0 (Background)
//Storyboard Layer 1 (Fail)
//Storyboard Layer 2 (Pass)
//Storyboard Layer 3 (Foreground)
//Storyboard Sound Samples

[TimingPoints]
1074,265.486725663717,4,1,1,80,1,0
5321,-100,4,1,1,50,0,0
9569,-100,4,1,1,80,0,0
47799,-100,4,1,1,80,0,1
62666,-100,4,1,1,80,0,0
67976,-100,4,1,1,5,0,0

[Colours]
Combo1 : 255,128,255
Combo2 : 0,112,223
Combo3 : 18,236,254
Combo4 : 186,27,111
Combo5 : 80,133,112

[HitObjects]
128,108,3197,6,0,L|88:44,2,70,4|8|0,0:2|0:0|0:0,0:0:0:0:
172,180,3994,1,8,0:0:0:0:
124,248,4259,2,0,B|176:292|176:292|260:296,1,140,4|0,0:2|0:0,0:0:0:0:
332,300,5056,1,8,0:0:0:0:
416,304,5321,6,0,B|444:240|444:240|428:136,1,175,4|0,0:2|2:0,2:0:0:0:
348,108,6250,2,8,B|375:62|375:62|426:54,2,105,8|8|8,2:1|2:1|2:1,2:1:0:0:
224,124,7445,6,0,B|208:192|208:192|244:312,1,175,8|0,2:1|2:0,2:0:0:0:
320,320,8374,2,8,B|376:324|376:324|432:296,2,105,8|8|8,2:1|2:1|2:1,2:1:0:0:
324,192,9569,6,0,P|336:152|312:96,1,105,4|0,0:2|0:0,0:0:0:0:
196,48,10366,1,8,0:0:0:0:
120,87,10631,2,0,P|60:99|12:151,2,105,0|0|8,0:0|0:0|0:0,0:0:0:0:
148,168,11693,6,0,B|176:224|176:224|224:248,1,105
320,312,12489,1,8,0:0:0:0:
392,268,12755,2,0,P|445:247|473:194,2,105,0|0|8,0:0|0:0|0:0,0:0:0:0:
392,184,13817,6,0,L|360:84,1,105,4|8,0:2|0:0,0:0:0:0:
244,40,14613,2,0,L|276:140,1,105,4|8,0:2|0:0,0:0:0:0:
320,260,15410,2,8,B|284:280|284:280|240:284,1,70,4|8,0:2|0:0,0:0:0:0:
200,220,15941,6,0,L|162:121,1,105,2|8,0:0|0:0,0:0:0:0:
48,72,16737,2,0,L|92:188,1,105,2|8,0:0|0:0,0:0:0:0:
144,284,17534,2,0,P|172:312|212:320,1,70,2|10,0:0|0:0,0:0:0:0:
284,320,18065,6,0,B|348:292|348:292|392:212,1,140,4|8,2:2|2:0,2:2:0:0:
268,136,18994,2,0,P|300:96|300:36,1,105,2|0,2:2|2:2,2:2:0:0:
220,64,19658,2,0,P|185:65|151:57,1,70,10|2,2:2|2:2,2:2:0:0:
68,52,20189,6,0,B|40:116|40:116|80:204,1,140,0|8,2:2|2:2,2:2:0:0:
164,264,21118,2,0,L|268:248,1,105,2|0,2:2|2:2,2:2:0:0:
348,228,21781,2,0,P|360:192|348:144,1,70,10|2,2:2|2:2,2:2:0:0:
356,76,22312,6,0,L|440:92,2,70,0|10|2,0:1|0:1|0:1,0:1:0:0:
228,80,23242,2,0,B|180:104|180:104|147:152,1,105,2|2,0:1|0:1,0:1:0:0:
168,312,24171,1,0,0:1:0:0:
168,312,24436,6,0,P|208:340|272:332,2,105,2|2|2,0:0|0:0|0:0,0:2:0:0:
232,256,25498,2,0,B|296:232|296:232|320:164,1,140,2|2,0:0|0:0,0:2:0:0:
156,44,26560,6,0,B|92:68|92:68|68:136,1,140,4|8,2:2|2:2,2:2:0:0:
72,260,27489,2,0,P|120:248|196:272,1,105,2|0,2:2|2:2,2:2:0:0:
216,332,28153,2,0,P|248:304|252:248,1,70,10|2,2:2|2:2,2:2:0:0:
336,252,28684,6,0,B|272:232|272:232|228:160,1,140,0|8,2:2|2:2,2:2:0:0:
176,60,29613,2,0,P|232:48|304:68,1,105,2|0,2:2|2:2,2:2:0:0:
356,88,30277,2,0,L|432:132,1,70,10|2,2:2|2:2,2:2:0:0:
400,204,30808,6,0,P|439:204|484:168,2,70,4|8|0,0:2|0:1|0:1,0:1:0:0:
272,212,31737,2,0,P|264:268|228:308,1,105,2|10,0:1|0:1,0:1:0:0:
112,188,32667,1,0,0:1:0:0:
112,188,32932,6,0,P|152:132|248:124,1,140,2|2,0:0|0:0,0:2:0:0:
368,196,33994,2,0,P|316:241|236:240,1,140,2|2,0:0|0:0,0:0:0:0:
80,244,35056,6,0,B|92:316|92:316|180:344,1,140,4|0,2:0|2:0,2:0:0:0:
240,348,35852,1,8,2:0:0:0:
324,336,36118,2,0,L|436:292,2,105,2|2|2,2:0|2:0|2:0,2:0:0:0:
312,252,37180,6,0,B|360:196|360:196|376:112,1,140,0|0,2:0|2:0,2:0:0:0:
392,48,37976,1,8,2:0:0:0:
308,52,38242,2,0,B|236:56|236:56|176:108,1,140,0|0,2:0|2:0,2:0:0:0:
112,144,39038,1,8,2:0:0:0:
48,200,39304,6,0,B|-1:234|-1:234|2:290,2,105,6|2|2,0:2|0:1|0:0,0:0:0:0:
188,284,40631,2,0,P|216:304|268:308,2,70,8|0|8,0:1|0:1|0:1,0:1:0:0:
248,228,41427,6,0,L|288:116,2,105,6|2|2,0:2|0:1|0:0,0:0:0:0:
84,184,42755,2,0,P|52:164|12:160,2,70,8|0|8,0:1|0:1|0:1,0:1:0:0:
128,256,43551,5,4,0:2:0:0:
256,192,43684,12,2,46737,2:0:0:0:
352,104,47799,6,0,L|472:84,2,105,6|2|10,0:2|0:1|0:0,0:1:0:0:
348,188,48861,2,0,P|308:180|280:148,1,70,2|8,0:1|0:1,0:1:0:0:
256,84,49392,2,0,P|231:57|184:42,1,70,2|8,0:1|0:1,0:1:0:0:
116,44,49923,6,0,P|68:92|68:168,1,140,2|2,0:0|0:0,0:0:0:0:
76,244,50720,1,8,0:0:0:0:
140,300,50985,2,0,P|200:334|277:334,1,140,2|2,0:0|0:0,0:0:0:0:
352,336,51781,1,8,0:0:0:0:
436,324,52047,6,0,B|480:268|480:268|476:188,1,140,0|0,0:1|0:1,0:1:0:0:
436,128,52843,1,8,0:1:0:0:
372,72,53109,1,0,0:0:0:0:
288,64,53374,2,0,P|300:28|332:0,2,70,10|0|10,0:1|0:1|0:1,0:1:0:0:
308,148,54171,6,0,B|252:160|252:160|208:140,1,105,4|0,0:2|0:0,0:0:0:0:
88,112,54967,2,0,B|88:164|88:164|132:204,1,105,4|0,0:2|0:0,0:0:0:0:
240,260,55764,2,8,P|219:288|180:308,1,70
112,332,56295,6,0,B|68:352|68:352|8:340,2,105,6|2|10,0:2|0:1|0:1,0:1:0:0:
96,248,57357,2,0,P|128:228|172:224,1,70,2|8,0:1|0:1,0:1:0:0:
240,260,57888,2,0,P|276:256|308:224,1,70,2|8,0:1|0:1,0:1:0:0:
328,156,58419,6,4,L|484:108,2,140,4|4|4,0:2|0:2|0:2,0:2:0:0:
256,108,59746,2,0,P|220:112|188:144,1,70,10|0,0:1|0:1,0:1:0:0:
136,192,60277,1,8,0:0:0:0:
108,272,60543,6,0,L|180:288,1,70,4|8,0:2|0:0,0:0:0:0:
260,288,61074,2,0,P|300:252|308:192,2,105,0|2|0,0:0|0:0|0:0,0:0:0:0:
228,212,62135,2,0,P|194:204|167:184,1,70,2|8,0:0|0:0,0:0:0:0:
100,132,62666,6,0,B|124:80|124:80|168:52,1,105,4|10,0:2|0:0,0:0:0:0:
248,44,63330,1,10,0:0:0:0:
328,72,63596,2,0,B|409:116|409:116|432:208,1,175,10|10,0:0|0:0,0:0:0:0:
432,280,64525,1,10,0:0:0:0:
360,320,64790,6,0,P|293:313|256:272,1,105,0|10,0:0|0:0,0:0:0:0:
231,212,65454,1,0,0:0:0:0:
258,132,65720,1,6,0:2:0:0:
256,192,65852,12,0,67976,2:1:0:0:
