osu file format v14

[General]
AudioFilename: audio.mp3
AudioLeadIn: 0
PreviewTime: 47799
Countdown: 0
SampleSet: Normal
StackLeniency: 0.7
Mode: 0
LetterboxInBreaks: 0
WidescreenStoryboard: 0

[Editor]
Bookmarks: 2799,8374,8640,15410,16273,18065,20189,26560,30808,35056,56295,62666
DistanceSpacing: 1.2
BeatDivisor: 4
GridSize: 8
TimelineZoom: 2.349999

[Metadata]
Title:BANG! BANG! - short ver. -
TitleUnicode:BANG!BANG! - short ver. -
Artist:Hara Yumi
ArtistUnicode:原 由実
Creator:BigEarsMau
Version:Hard
Source:ぎゃる☆がん だぶるぴーす
Tags:Gal*Gun Double Peace intro opening op theme ost Kujinn Strategas SnowNiNo_ estellia- [_Emillia_] HighTec BEM playstation 4 vita rail shooter shoot em up bishojo inti creates alchemist
BeatmapID:945996
BeatmapSetID:439566

[Difficulty]
HPDrainRate:5
CircleSize:4
OverallDifficulty:6
ApproachRate:8
SliderMultiplier:1.4
SliderTickRate:1

[Events]
//Background and Video events
0,0,"ekoro is best gril.jpg",0,0
Video,0,"Moe Crisis 6 (BEM's cut).avi"
//Break Periods
//Storyboard Layer 0 (Background)
//Storyboard Layer 1 (Fail)
//Storyboard Layer 2 (Pass)
//Storyboard Layer 3 (Foreground)
//Storyboard Sound Samples

[TimingPoints]
1074,265.486725663717,4,1,1,80,1,0
2799,-111.111111111111,4,1,1,80,0,0
3197,-100,4,1,1,80,0,0
5321,-117.647058823529,4,1,1,50,0,0
9569,-100,4,1,1,80,0,0
13286,-100,4,1,1,50,0,0
13817,-80,4,1,1,80,0,0
15410,-100,4,1,1,80,0,0
18065,-133.333333333333,4,2,1,80,0,0
22312,-100,4,1,1,80,0,0
26560,-133.333333333333,4,2,1,80,0,0
30808,-100,4,1,1,80,0,0
35056,-133.333333333333,4,2,1,80,0,0
38242,-117.647058823529,4,2,1,80,0,0
39304,-100,4,1,1,80,0,0
47268,-100,4,1,1,50,0,0
47799,-100,4,1,1,80,0,1
58419,-90.9090909090909,4,1,1,80,0,1
59481,-100,4,1,1,80,0,1
62666,-100,4,1,1,80,0,0
67976,-100,4,1,1,5,0,0

[Colours]
Combo1 : 255,128,255
Combo2 : 0,112,223
Combo3 : 18,236,254
Combo4 : 186,27,111
Combo5 : 80,133,112

[HitObjects]
141,208,2799,6,0,L|115:286,1,62.9999980773926,0|8,0:0|0:0,0:0:0:0:
122,268,3197,6,0,P|184:292|248:264,1,140,4|8,0:2|0:1,0:1:0:0:
328,116,3728,2,0,P|276:88|199:106,1,140,0|8,0:1|0:1,0:1:0:0:
132,156,4127,1,0,0:1:0:0:
100,232,4259,6,0,P|79:264|77:302,1,70,4|0,0:2|0:1,0:1:0:0:
178,284,4525,2,0,P|181:317|204:348,1,70,8|0,0:1|0:1,0:1:0:0:
272,268,4790,2,0,P|310:269|348:240,1,70,0|0,0:1|0:1,0:1:0:0:
288,176,5056,2,0,P|308:148|312:108,1,70,8|0,0:1|0:1,0:1:0:0:
244,56,5321,5,4,2:0:0:0:
244,56,5454,2,0,P|192:80|164:136,1,119.000002269745,0|0,2:0|2:0,2:0:0:0:
132,272,5985,1,0,2:0:0:0:
276,328,6250,6,8,B|333:313|333:313|379:257,1,119.000002269745,10|10,2:1|2:1,2:1:0:0:
412,200,6649,1,10,2:1:0:0:
160,104,7047,2,8,P|144:80|140:48,2,59.5000011348725,10|10|10,2:1|2:1|2:1,2:1:0:0:
220,144,7445,5,0,2:1:0:0:
280,104,7578,2,0,P|328:140|348:200,1,119.000002269745,0|0,2:0|2:0,2:0:0:0:
286,322,8109,2,0,P|256:328|224:320,1,59.5000011348725,0|0,2:0|2:0,2:0:0:0:
256,256,8374,1,10,2:1:0:0:
116,221,8640,2,0,P|100:197|104:141,1,59.5000011348725,10|2,2:1|2:1,2:1:0:0:
88,96,8905,1,10,2:1:0:0:
88,96,9171,2,0,P|144:72|224:84,1,119.000002269745,10|0,2:1|2:1,2:1:0:0:
283,92,9569,6,0,L|439:136,1,140,4|8,0:2|0:1,0:1:0:0:
416,214,9967,2,0,L|281:252,1,140,0|0,0:2|0:1,0:1:0:0:
316,328,10366,2,0,P|244:328|196:264,1,140,8|0,0:1|0:1,0:1:0:0:
204,196,10764,2,0,P|204:160|180:120,1,70,0|8,0:1|0:1,0:1:0:0:
124,76,11029,2,0,B|180:96|180:96|280:92,1,140
336,60,11427,2,0,P|368:52|412:60,1,70,8|0,0:0|0:0,0:0:0:0:
456,124,11693,6,0,P|474:192|454:260,1,140,0|8,0:1|0:1,0:1:0:0:
396,316,12091,2,0,L|244:340,1,140
184,300,12489,2,0,P|138:248|125:180,1,140,8|0,0:1|0:1,0:1:0:0:
112,96,12888,2,8,P|148:88|180:68,1,70,0|8,0:1|0:1,0:1:0:0:
256,40,13153,1,0,0:0:0:0:
332,72,13286,2,8,P|362:89|396:96,1,70,8|8,0:3|0:3,0:3:0:0:
436,168,13551,2,8,P|428:202|411:232,1,70,8|8,0:3|0:3,0:3:0:0:
344,344,13817,6,0,L|264:300,1,87.5,4|0,0:2|0:0,0:0:0:0:
128,144,14215,2,0,L|208:188,1,87.5,4|0,0:2|0:0,0:0:0:0:
411,232,14613,2,0,L|331:188,1,87.5,4|0,0:2|0:0,0:0:0:0:
180,48,15011,2,0,L|260:92,1,87.5,4|0,0:2|0:0,0:0:0:0:
451,148,15410,2,8,P|479:128|503:88,2,70
380,104,15808,1,8,0:0:0:0:
324,46,15941,6,0,P|256:34|184:46,1,140,10|0,0:0|0:0,0:0:0:0:
132,106,16339,2,0,P|120:174|132:246,1,140,10|0,0:0|0:0,0:0:0:0:
188,305,16737,2,0,P|256:317|328:305,1,140,10|0,0:0|0:0,0:0:0:0:
380,242,17135,2,0,P|392:174|380:102,1,140,10|0,0:0|0:0,0:0:0:0:
257,179,17534,5,10,0:0:0:0:
145,311,17799,1,2,0:1:0:0:
145,311,18065,6,0,P|188:338|240:342,1,105.000004005432,4|0,0:0|0:0,0:0:0:0:
292,336,18463,1,0,0:0:0:0:
344,328,18596,2,0,P|389:302|416:258,1,105.000004005432,8|0,0:0|0:0,0:0:0:0:
468,256,18994,2,0,L|368:192,1,105.000004005432,2|0,0:0|0:0,0:0:0:0:
408,124,19392,2,0,L|308:60,1,105.000004005432,2|8,0:0|0:0,0:0:0:0:
256,152,19923,1,2,0:0:0:0:
256,308,20189,6,0,P|280:316|328:312,2,52.5000020027161,2|0|0,0:0|0:0|0:0,0:0:0:0:
208,288,20587,1,0,0:0:0:0:
164,256,20720,2,0,L|132:152,1,105.000004005432,8|0,0:0|0:0,0:0:0:0:
130,103,21118,2,0,L|230:139,1,105.000004005432,2|0,0:0|0:0,0:0:0:0:
264,68,21516,2,0,L|364:104,1,105.000004005432,2|8,0:0|0:0,0:0:0:0:
394,203,22047,1,2,0:0:0:0:
394,203,22312,6,0,L|262:247,1,140,0|10,0:2|0:0,0:0:0:0:
100,299,22843,2,0,L|76:375,2,70,2|0|8,0:0|0:0|0:0,0:0:0:0:
84,216,23242,2,0,P|36:172|28:96,1,140,2|0,0:0|0:0,0:0:0:0:
96,52,23640,2,0,L|252:40,1,140,10|0,0:0|0:0,0:0:0:0:
194,204,24171,1,8,0:1:0:0:
194,204,24436,6,0,P|256:173|326:218,1,140,2|8,0:0|0:0,0:0:0:0:
376,260,24835,2,0,P|359:325|298:356,1,140,2|0,0:0|0:0,0:0:0:0:
214,356,25233,2,0,P|153:325|136:260,1,140,10|2,0:0|0:0,0:0:0:0:
80,196,25631,1,0,0:0:0:0:
92,112,25764,6,0,L|171:90,1,70,8|0,0:0|0:0,0:0:0:0:
291,139,26029,2,0,L|224:158,1,70,2|0,0:0|0:0,0:0:0:0:
136,259,26295,2,0,L|203:240,1,70,8|0,0:0|0:0,0:0:0:0:
326,210,26560,6,0,P|365:171|367:119,1,105.000004005432,4|0,0:2|0:0,0:0:0:0:
352,80,26958,1,0,0:0:0:0:
308,48,27091,2,0,B|256:32|256:32|196:52,1,105.000004005432,8|0,0:0|0:0,0:0:0:0:
168,80,27489,2,0,L|84:152,1,105.000004005432,2|0,0:0|0:0,0:0:0:0:
76,200,27888,2,0,L|144:296,1,105.000004005432,2|8,0:0|0:0,0:0:0:0:
267,207,28419,1,2,0:0:0:0:
340,100,28684,6,0,P|369:83|408:88,1,52.5000020027161,2|0,0:0|0:0,0:0:0:0:
375,168,28950,2,0,P|347:184|315:184,1,52.5000020027161
267,207,29215,2,0,P|275:255|323:287,1,105.000004005432,8|0,0:0|0:0,0:0:0:0:
361,332,29613,2,0,P|313:323|261:364,1,105.000004005432,2|0,0:0|0:0,0:0:0:0:
188,356,30012,1,2,0:0:0:0:
124,312,30144,1,0,0:0:0:0:
124,233,30277,2,0,P|137:171|180:145,1,105.000004005432,10|2,0:0|0:0,0:0:0:0:
169,149,30808,6,0,P|229:167|303:134,1,140,4|10,0:2|0:0,0:0:0:0:
452,68,31339,2,0,L|496:4,2,70,2|0|8,0:0|0:0|0:0,0:0:0:0:
420,148,31737,2,0,P|451:212|420:272,1,140,2|0,0:0|0:0,0:0:0:0:
348,308,32135,2,0,L|192:320,1,140,10|0,0:0|0:0,0:0:0:0:
248,40,32666,1,10,0:0:0:0:
248,40,32932,6,8,L|179:52,1,70,2|0,0:0|0:0,0:0:0:0:
122,142,33197,2,8,L|190:129,1,70,8|0,0:0|0:0,0:0:0:0:
260,208,33463,2,8,L|191:220,1,70,2|0,0:0|0:0,0:0:0:0:
138,311,33728,2,8,L|206:298,1,70,8|0,0:0|0:0,0:0:0:0:
316,284,33994,6,8,P|344:312|377:317,1,70,2|0,0:0|0:0,0:0:0:0:
448,264,34259,2,8,P|424:238|391:230,1,70,8|2,0:0|0:0,0:0:0:0:
308,188,34525,2,0,P|316:148|300:112,1,70
304,32,34790,1,8,0:0:0:0:
304,32,34923,1,0,0:0:0:0:
228,32,35056,6,0,P|175:36|135:76,1,105.000004005432,4|8,0:0|0:0,0:0:0:0:
232,168,35587,1,0,0:0:0:0:
184,296,35852,1,8,0:0:0:0:
184,296,35985,1,0,0:0:0:0:
184,296,36118,2,8,P|119:265|108:167,2,157.500006008148,10|10|10,0:0|0:0|0:0,0:0:0:0:
256,192,37180,5,0,0:0:0:0:
256,192,37445,1,8,0:0:0:0:
342,99,37711,1,0,0:0:0:0:
342,99,37976,2,0,L|286:67,1,52.5000020027161,8|0,0:0|0:0,0:0:0:0:
228,48,38242,2,0,L|104:72,1,119.000002269745,0|10,0:0|0:0,0:0:0:0:
88,248,38773,1,0,0:0:0:0:
263,287,39038,1,10,0:0:0:0:
452,212,39304,6,0,P|400:156|328:152,1,140,6|8,0:2|0:0,0:0:0:0:
256,156,39702,2,0,P|280:216|260:292,1,140,2|0,0:0|0:0,0:0:0:0:
184,316,40100,2,0,P|107:280|88:202,1,140,10|0,0:0|0:0,0:0:0:0:
128,159,40498,1,0,0:0:0:0:
178,92,40631,6,0,L|91:79,1,70,8|0,0:0|0:0,0:0:0:0:
236,36,40897,2,0,L|305:46,1,70
388,60,41162,1,8,0:0:0:0:
388,60,41295,1,0,0:0:0:0:
388,60,41427,6,0,P|416:124|368:203,1,140,6|8,0:2|0:0,0:0:0:0:
337,251,41826,2,0,P|309:188|333:125,1,140,2|0,0:0|0:0,0:0:0:0:
388,60,42224,2,0,P|323:42|258:84,1,140,10|0,0:0|0:0,0:0:0:0:
209,130,42622,1,0,0:0:0:0:
156,184,42755,6,0,L|87:236,1,70,8|0,0:0|0:0,0:0:0:0:
171,269,43020,2,0,L|143:355,1,70
233,322,43286,2,0,L|290:383,1,70,8|0,0:0|0:0,0:0:0:0:
384,300,43551,6,0,P|392:264|336:172,1,140,4|8,0:2|0:0,0:0:0:0:
264,152,43950,1,0,0:0:0:0:
216,220,44082,2,0,P|190:194|182:158,1,70,8|0,0:0|0:0,0:0:0:0:
230,94,44348,2,0,P|254:117|263:151,1,70,8|0,0:0|0:0,0:0:0:0:
345,177,44613,5,8,0:0:0:0:
345,177,44746,2,0,P|340:248|272:292,1,140,0|0,0:0|0:0,0:0:0:0:
208,304,45144,2,0,P|140:295|100:240,1,140,8|8,0:0|0:0,0:0:0:0:
88,156,45543,1,0,0:0:0:0:
148,100,45675,6,0,P|196:172|180:228,1,140,10|0,0:0|0:0,0:0:0:0:
208,304,46074,2,0,P|275:310|327:266,1,140,10|0,0:0|0:0,0:0:0:0:
352,184,46472,1,10,0:0:0:0:
252,44,46737,6,0,L|200:72,6,35,2|0|0|0|0|0|0,0:0|0:0|0:0|0:0|0:0|0:0|0:0,0:0:0:0:
177,82,47268,1,2,0:0:0:0:
56,132,47534,1,2,0:0:0:0:
56,132,47799,6,0,P|32:196|44:276,1,140,6|8,0:2|0:0,0:0:0:0:
92,340,48197,2,0,L|252:332,1,140,2|0,0:0|0:0,0:0:0:0:
316,328,48596,1,10,0:0:0:0:
448,168,48861,6,0,P|412:168|376:156,1,70,2|0,0:0|0:0,0:0:0:0:
311,60,49127,2,0,P|346:61|379:71,1,70,8|0,0:0|0:0,0:0:0:0:
292,144,49392,2,0,P|257:144|223:133,1,70,2|0,0:0|0:0,0:0:0:0:
151,36,49658,2,0,P|186:37|219:47,1,70,8|0,0:0|0:0,0:0:0:0:
64,128,49923,6,0,P|44:196|84:272,1,140,2|8,0:0|0:0,0:0:0:0:
152,260,50321,1,0,0:0:0:0:
160,344,50454,2,0,P|224:300|228:224,1,140,2|8,0:0|0:0,0:0:0:0:
252,160,50852,1,0,0:0:0:0:
252,160,50985,6,0,P|272:225|330:261,1,140,2|8,0:0|0:0,0:0:0:0:
404,304,51383,1,0,0:0:0:0:
484,328,51516,2,0,P|499:261|468:180,1,140,2|8,0:0|0:0,0:0:0:0:
372,64,52047,5,0,0:0:0:0:
300,220,52312,1,8,0:0:0:0:
192,88,52578,2,0,P|182:156|217:215,1,140,2|8,0:0|0:0,0:0:0:0:
300,220,52976,2,0,L|168:288,1,140,2|0,0:0|0:0,0:0:0:0:
96,308,53374,5,10,0:0:0:0:
56,100,53640,1,0,0:0:0:0:
264,68,53905,1,10,0:0:0:0:
428,200,54171,6,0,P|348:188|292:232,1,140,10|0,0:0|0:0,0:0:0:0:
376,272,54569,2,0,P|312:308|240:288,1,140,10|0,0:0|0:0,0:0:0:0:
168,256,54967,2,0,P|165:175|212:132,1,140,10|0,0:0|0:0,0:0:0:0:
248,56,55366,2,0,P|291:108|284:180,1,140,10|0,0:0|0:0,0:0:0:0:
203,135,55764,22,8,P|176:160|156:200,1,70,10|10,0:0|0:0,0:0:0:0:
160,280,56029,2,8,P|177:310|203:333,1,70,10|10,0:0|0:0,0:0:0:0:
292,360,56295,6,0,P|364:364|436:336,1,140,6|8,0:2|0:0,0:0:0:0:
476,272,56693,2,0,P|485:200|462:126,1,140,2|0,0:0|0:0,0:0:0:0:
436,56,57092,1,10,0:0:0:0:
232,112,57357,6,0,P|225:77|209:47,1,70,2|0,0:0|0:0,0:0:0:0:
149,131,57623,2,0,P|154:165|171:196,1,70,8|0,0:0|0:0,0:0:0:0:
275,252,57888,2,0,P|269:217|253:187,1,70,2|0,0:0|0:0,0:0:0:0:
197,279,58154,2,0,P|202:313|219:344,1,70,10|0,0:0|0:0,0:0:0:0:
380,328,58419,6,0,P|376:288|352:252,1,77.0000023498536,6|8,0:2|0:1,0:2:0:0:
76,56,58950,2,0,P|80:96|104:132,1,77.0000023498536,6|8,0:2|0:1,0:2:0:0:
357,257,59481,6,0,P|393:257|433:277,1,70,6|0,0:2|0:0,0:0:0:0:
472,184,59746,2,0,P|436:184|396:164,1,70,10|0,0:0|0:0,0:0:0:0:
360,76,60012,2,0,P|327:62|293:62,1,70,10|0,0:0|0:0,0:0:0:0:
192,116,60277,1,10,0:0:0:0:
300,244,60543,6,0,P|253:293|186:289,1,140,6|8,0:2|0:0,0:0:0:0:
224,212,60941,2,0,L|272:344,1,140
356,336,61339,2,8,P|390:334|421:318,1,70
368,252,61604,5,6,0:2:0:0:
84,68,62135,1,6,0:2:0:0:
368,252,62666,6,0,P|336:272|292:272,1,70,0|10,0:0|0:0,0:0:0:0:
272,352,62932,1,0,0:0:0:0:
272,352,63065,2,0,P|225:302|230:234,1,140,10|0,0:0|0:0,0:0:0:0:
264,156,63463,1,0,0:0:0:0:
328,212,63596,2,0,P|396:211|444:156,1,140,10|0,0:0|0:0,0:0:0:0:
364,136,63994,1,0,0:0:0:0:
220,48,64259,5,10,0:0:0:0:
64,112,64525,1,10,0:0:0:0:
176,236,64790,6,0,P|232:280|304:272,1,140,2|0,0:0|0:0,0:0:0:0:
256,200,65189,2,0,L|213:333,1,140,10|0,0:0|0:0,0:0:0:0:
104,204,65720,1,6,0:2:0:0:
256,192,65786,12,0,67976,2:0:0:0:
